  0
SECTION
  2
HEADER
  9
$ACADVER
  1
AC1015
  9
$ACADMAINTVER
 70
     6
  9
$DWGCODEPAGE
  3
ANSI_932
  9
$INSBASE
 10
0.0
 20
0.0
 30
0.0
  9
$EXTMIN
 10
-9698.43348001475
 20
-6322.5
 30
0.0
  9
$EXTMAX
 10
8023.975114580651
 20
6322.5
 30
0.0
  9
$LIMMIN
 10
-2972.5
 20
-2102.5
  9
$LIMMAX
 10
2972.5
 20
2102.5
  9
$ORTHOMODE
 70
     0
  9
$REGENMODE
 70
     1
  9
$FILLMODE
 70
     1
  9
$QTEXTMODE
 70
     0
  9
$MIRRTEXT
 70
     1
  9
$LTSCALE
 40
1.25
  9
$ATTMODE
 70
     1
  9
$TEXTSIZE
 40
0.2
  9
$TRACEWID
 40
0.05
  9
$TEXTSTYLE
  7
Standard
  9
$CLAYER
  8
0
  9
$CELTYPE
  6
ByLayer
  9
$CECOLOR
 62
   256
  9
$CELTSCALE
 40
1.0
  9
$DISPSILH
 70
     0
  9
$DIMSCALE
 40
1.0
  9
$DIMASZ
 40
15.00000941285121
  9
$DIMEXO
 40
1.0
  9
$DIMDLI
 40
10.0
  9
$DIMRND
 40
0.0
  9
$DIMDLE
 40
0.0
  9
$DIMEXE
 40
1.0
  9
$DIMTP
 40
0.0
  9
$DIMTM
 40
0.0
  9
$DIMTXT
 40
15.0
  9
$DIMCEN
 40
0.0
  9
$DIMTSZ
 40
0.0
  9
$DIMTOL
 70
     0
  9
$DIMLIM
 70
     0
  9
$DIMTIH
 70
     0
  9
$DIMTOH
 70
     0
  9
$DIMSE1
 70
     0
  9
$DIMSE2
 70
     0
  9
$DIMTAD
 70
     1
  9
$DIMZIN
 70
     8
  9
$DIMBLK
  1

  9
$DIMASO
 70
     1
  9
$DIMSHO
 70
     1
  9
$DIMPOST
  1

  9
$DIMAPOST
  1

  9
$DIMALT
 70
     0
  9
$DIMALTD
 70
     2
  9
$DIMALTF
 40
25.4
  9
$DIMLFAC
 40
1.0
  9
$DIMTOFL
 70
     0
  9
$DIMTVP
 40
0.0
  9
$DIMTIX
 70
     0
  9
$DIMSOXD
 70
     0
  9
$DIMSAH
 70
     0
  9
$DIMBLK1
  1

  9
$DIMBLK2
  1

  9
$DIMSTYLE
  2
Standard
  9
$DIMCLRD
 70
     0
  9
$DIMCLRE
 70
     0
  9
$DIMCLRT
 70
     0
  9
$DIMTFAC
 40
0.65
  9
$DIMGAP
 40
0.09
  9
$DIMJUST
 70
     0
  9
$DIMSD1
 70
     0
  9
$DIMSD2
 70
     0
  9
$DIMTOLJ
 70
     0
  9
$DIMTZIN
 70
     0
  9
$DIMALTZ
 70
     0
  9
$DIMALTTZ
 70
     0
  9
$DIMUPT
 70
     0
  9
$DIMDEC
 70
     1
  9
$DIMTDEC
 70
     1
  9
$DIMALTU
 70
     2
  9
$DIMALTTD
 70
     1
  9
$DIMTXSTY
  7
Standard
  9
$DIMAUNIT
 70
     0
  9
$DIMADEC
 70
     1
  9
$DIMALTRND
 40
0.0
  9
$DIMAZIN
 70
     2
  9
$DIMDSEP
 70
    46
  9
$DIMATFIT
 70
     3
  9
$DIMFRAC
 70
     0
  9
$DIMLDRBLK
  1

  9
$DIMLUNIT
 70
     2
  9
$DIMLWD
 70
    -2
  9
$DIMLWE
 70
    -2
  9
$DIMTMOVE
 70
     0
  9
$LUNITS
 70
     2
  9
$LUPREC
 70
     4
  9
$SKETCHINC
 40
0.1
  9
$FILLETRAD
 40
0.5
  9
$AUNITS
 70
     0
  9
$AUPREC
 70
     0
  9
$MENU
  1
.
  9
$ELEVATION
 40
0.0
  9
$PELEVATION
 40
0.0
  9
$THICKNESS
 40
0.0
  9
$LIMCHECK
 70
     0
  9
$CHAMFERA
 40
0.5
  9
$CHAMFERB
 40
0.5
  9
$CHAMFERC
 40
1.0
  9
$CHAMFERD
 40
0.0
  9
$SKPOLY
 70
     0
  9
$TDCREATE
 40
2459310.565557234
  9
$TDUCREATE
 40
2459310.190557234
  9
$TDUPDATE
 40
2459310.565557245
  9
$TDUUPDATE
 40
2459310.190557245
  9
$TDINDWG
 40
0.0000000116
  9
$TDUSRTIMER
 40
0.0000000116
  9
$USRTIMER
 70
     1
  9
$ANGBASE
 50
0.0
  9
$ANGDIR
 70
     0
  9
$PDMODE
 70
     0
  9
$PDSIZE
 40
1.0
  9
$PLINEWID
 40
0.0
  9
$SPLFRAME
 70
     0
  9
$SPLINETYPE
 70
     6
  9
$SPLINESEGS
 70
     8
  9
$HANDSEED
  5
3C6
  9
$SURFTAB1
 70
     6
  9
$SURFTAB2
 70
     6
  9
$SURFTYPE
 70
     6
  9
$SURFU
 70
     6
  9
$SURFV
 70
     6
  9
$UCSBASE
  2

  9
$UCSNAME
  2

  9
$UCSORG
 10
0.0
 20
0.0
 30
0.0
  9
$UCSXDIR
 10
1.0
 20
0.0
 30
0.0
  9
$UCSYDIR
 10
0.0
 20
1.0
 30
0.0
  9
$UCSORTHOREF
  2

  9
$UCSORTHOVIEW
 70
     0
  9
$UCSORGTOP
 10
0.0
 20
0.0
 30
0.0
  9
$UCSORGBOTTOM
 10
0.0
 20
0.0
 30
0.0
  9
$UCSORGLEFT
 10
0.0
 20
0.0
 30
0.0
  9
$UCSORGRIGHT
 10
0.0
 20
0.0
 30
0.0
  9
$UCSORGFRONT
 10
0.0
 20
0.0
 30
0.0
  9
$UCSORGBACK
 10
0.0
 20
0.0
 30
0.0
  9
$PUCSBASE
  2

  9
$PUCSNAME
  2

  9
$PUCSORG
 10
0.0
 20
0.0
 30
0.0
  9
$PUCSXDIR
 10
1.0
 20
0.0
 30
0.0
  9
$PUCSYDIR
 10
0.0
 20
1.0
 30
0.0
  9
$PUCSORTHOREF
  2

  9
$PUCSORTHOVIEW
 70
     0
  9
$PUCSORGTOP
 10
0.0
 20
0.0
 30
0.0
  9
$PUCSORGBOTTOM
 10
0.0
 20
0.0
 30
0.0
  9
$PUCSORGLEFT
 10
0.0
 20
0.0
 30
0.0
  9
$PUCSORGRIGHT
 10
0.0
 20
0.0
 30
0.0
  9
$PUCSORGFRONT
 10
0.0
 20
0.0
 30
0.0
  9
$PUCSORGBACK
 10
0.0
 20
0.0
 30
0.0
  9
$USERI1
 70
     0
  9
$USERI2
 70
     0
  9
$USERI3
 70
     0
  9
$USERI4
 70
     0
  9
$USERI5
 70
     0
  9
$USERR1
 40
0.0
  9
$USERR2
 40
0.0
  9
$USERR3
 40
0.0
  9
$USERR4
 40
0.0
  9
$USERR5
 40
0.0
  9
$WORLDVIEW
 70
     1
  9
$SHADEDGE
 70
     3
  9
$SHADEDIF
 70
    70
  9
$TILEMODE
 70
     1
  9
$MAXACTVP
 70
    64
  9
$PINSBASE
 10
0.0
 20
0.0
 30
0.0
  9
$PLIMCHECK
 70
     0
  9
$PEXTMIN
 10
1.000000000000000E+20
 20
1.000000000000000E+20
 30
1.000000000000000E+20
  9
$PEXTMAX
 10
-1.000000000000000E+20
 20
-1.000000000000000E+20
 30
-1.000000000000000E+20
  9
$PLIMMIN
 10
0.0
 20
0.0
  9
$PLIMMAX
 10
12.0
 20
9.0
  9
$UNITMODE
 70
     0
  9
$VISRETAIN
 70
     0
  9
$PLINEGEN
 70
     1
  9
$PSLTSCALE
 70
     0
  9
$TREEDEPTH
 70
  3020
  9
$CMLSTYLE
  2
Standard
  9
$CMLJUST
 70
     0
  9
$CMLSCALE
 40
1.0
  9
$PROXYGRAPHICS
 70
     0
  9
$MEASUREMENT
 70
     1
  9
$CELWEIGHT
370
    -1
  9
$ENDCAPS
280
     0
  9
$JOINSTYLE
280
     0
  9
$LWDISPLAY
290
     1
  9
$INSUNITS
 70
     4
  9
$HYPERLINKBASE
  1

  9
$STYLESHEET
  1

  9
$XEDIT
290
     1
  9
$CEPSNTYPE
380
     0
  9
$PSTYLEMODE
290
     1
  9
$FINGERPRINTGUID
  2
{F781CFDE-8369-496B-BA03-FF51F8D57AA3}
  9
$VERSIONGUID
  2
{FAEB1C32-E019-11D5-929B-00C0DF256EC4}
  9
$EXTNAMES
290
     1
  9
$PSVPSCALE
 40
0.0
  9
$OLESTARTUP
290
     0
  0
ENDSEC
  0
SECTION
  2
CLASSES
  0
CLASS
  1
ACDBDICTIONARYWDFLT
  2
AcDbDictionaryWithDefault
  3
ObjectDBX Classes
 90
        0
280
     0
281
     0
  0
CLASS
  1
VISUALSTYLE
  2
AcDbVisualStyle
  3
ObjectDBX Classes
 90
     4095
280
     0
281
     0
  0
CLASS
  1
MATERIAL
  2
AcDbMaterial
  3
ObjectDBX Classes
 90
     1153
280
     0
281
     0
  0
CLASS
  1
SCALE
  2
AcDbScale
  3
ObjectDBX Classes
 90
     1153
280
     0
281
     0
  0
CLASS
  1
DICTIONARYVAR
  2
AcDbDictionaryVar
  3
ObjectDBX Classes
 90
        0
280
     0
281
     0
  0
CLASS
  1
ACDBPLACEHOLDER
  2
AcDbPlaceHolder
  3
ObjectDBX Classes
 90
        0
280
     0
281
     0
  0
CLASS
  1
LAYOUT
  2
AcDbLayout
  3
ObjectDBX Classes
 90
        0
280
     0
281
     0
  0
ENDSEC
  0
SECTION
  2
TABLES
  0
TABLE
  2
VPORT
  5
8
330
0
100
AcDbSymbolTable
 70
     1
  0
VPORT
  5
29
330
8
100
AcDbSymbolTableRecord
100
AcDbViewportTableRecord
  2
*Active
 70
     0
 10
0.0
 20
0.0
 11
1.0
 21
1.0
 12
-820.7369952170496
 22
0.0
 13
0.0
 23
0.0
 14
0.5
 24
0.5
 15
0.5
 25
0.5
 16
0.0
 26
0.0
 36
1.0
 17
0.0
 27
0.0
 37
0.0
 40
4299.3
 41
1.409360357421542
 42
50.0
 43
0.0
 44
0.0
 50
0.0
 51
0.0
 71
     0
 72
  1000
 73
     1
 74
     1
 75
     0
 76
     0
 77
     0
 78
     0
281
     0
 65
     1
110
0.0
120
0.0
130
0.0
111
1.0
121
0.0
131
0.0
112
0.0
122
1.0
132
0.0
 79
     0
146
0.0
  0
ENDTAB
  0
TABLE
  2
LTYPE
  5
5
330
0
100
AcDbSymbolTable
 70
    53
  0
LTYPE
  5
14
330
5
100
AcDbSymbolTableRecord
100
AcDbLinetypeTableRecord
  2
ByBlock
 70
     0
  3

 72
    65
 73
     0
 40
0.0
  0
LTYPE
  5
15
330
5
100
AcDbSymbolTableRecord
100
AcDbLinetypeTableRecord
  2
ByLayer
 70
     0
  3

 72
    65
 73
     0
 40
0.0
  0
LTYPE
  5
16
330
5
100
AcDbSymbolTableRecord
100
AcDbLinetypeTableRecord
  2
Continuous
 70
     0
  3
Solid line
 72
    65
 73
     0
 40
0.0
  0
LTYPE
  5
40
330
5
100
AcDbSymbolTableRecord
100
AcDbLinetypeTableRecord
  2
HIDDENX2
 70
     0
  3
Hidden (2x) ____ ____ ____ ____ ____ ____ ____ 
 72
    65
 73
     2
 40
19.05
 49
12.7
 74
     0
 49
-6.35
 74
     0
  0
LTYPE
  5
41
330
5
100
AcDbSymbolTableRecord
100
AcDbLinetypeTableRecord
  2
HIDDEN
 70
     0
  3
Hidden __ __ __ __ __ __ __ __ __ __ __ __ __ __
 72
    65
 73
     2
 40
9.524999999999999
 49
6.35
 74
     0
 49
-3.175
 74
     0
  0
LTYPE
  5
42
330
5
100
AcDbSymbolTableRecord
100
AcDbLinetypeTableRecord
  2
HIDDEN2
 70
     0
  3
Hidden (.5x) _ _ _ _ _ _ _ _ _ _ _ _ _ _ _ _ _ 
 72
    65
 73
     2
 40
4.762499999999999
 49
3.175
 74
     0
 49
-1.5875
 74
     0
  0
LTYPE
  5
43
330
5
100
AcDbSymbolTableRecord
100
AcDbLinetypeTableRecord
  2
DASHED
 70
     0
  3
Dashed __ __ __ __ __ __ __ __ __ __ __ __ __ _
 72
    65
 73
     2
 40
19.05
 49
12.7
 74
     0
 49
-6.35
 74
     0
  0
LTYPE
  5
44
330
5
100
AcDbSymbolTableRecord
100
AcDbLinetypeTableRecord
  2
DASHED2
 70
     0
  3
Dashed (.5x) _ _ _ _ _ _ _ _ _ _ _ _ _ _ _ _ _ 
 72
    65
 73
     2
 40
9.524999999999999
 49
6.35
 74
     0
 49
-3.175
 74
     0
  0
LTYPE
  5
45
330
5
100
AcDbSymbolTableRecord
100
AcDbLinetypeTableRecord
  2
DASHEDX2
 70
     0
  3
Dashed (2x) ____  ____  ____  ____  ____  ___
 72
    65
 73
     2
 40
38.09999999999999
 49
25.4
 74
     0
 49
-12.7
 74
     0
  0
LTYPE
  5
46
330
5
100
AcDbSymbolTableRecord
100
AcDbLinetypeTableRecord
  2
DOTX2
 70
     0
  3
Dot (2x) .  .  .  .  .  .  .  .  .  .  .  .  .  .
 72
    65
 73
     2
 40
12.7
 49
0.0
 74
     0
 49
-12.7
 74
     0
  0
LTYPE
  5
47
330
5
100
AcDbSymbolTableRecord
100
AcDbLinetypeTableRecord
  2
DOT
 70
     0
  3
Dot . . . . . . . . . . . . . . . . . . . . . . . .
 72
    65
 73
     2
 40
6.35
 49
0.0
 74
     0
 49
-6.35
 74
     0
  0
LTYPE
  5
48
330
5
100
AcDbSymbolTableRecord
100
AcDbLinetypeTableRecord
  2
DOT2
 70
     0
  3
Dot (.5x) ........................................
 72
    65
 73
     2
 40
3.175
 49
0.0
 74
     0
 49
-3.175
 74
     0
  0
LTYPE
  5
49
330
5
100
AcDbSymbolTableRecord
100
AcDbLinetypeTableRecord
  2
CENTERX2
 70
     0
  3
Center (2x) ________  __  ________  __  _____
 72
    65
 73
     4
 40
101.6
 49
63.5
 74
     0
 49
-12.7
 74
     0
 49
12.7
 74
     0
 49
-12.7
 74
     0
  0
LTYPE
  5
4A
330
5
100
AcDbSymbolTableRecord
100
AcDbLinetypeTableRecord
  2
CENTER
 70
     0
  3
Center ____ _ ____ _ ____ _ ____ _ ____ _ ____
 72
    65
 73
     4
 40
50.8
 49
31.75
 74
     0
 49
-6.35
 74
     0
 49
6.35
 74
     0
 49
-6.35
 74
     0
  0
LTYPE
  5
4B
330
5
100
AcDbSymbolTableRecord
100
AcDbLinetypeTableRecord
  2
CENTER2
 70
     0
  3
Center (.5x) ___ _ ___ _ ___ _ ___ _ ___ _ ___
 72
    65
 73
     4
 40
28.575
 49
19.05
 74
     0
 49
-3.175
 74
     0
 49
3.175
 74
     0
 49
-3.175
 74
     0
  0
LTYPE
  5
4C
330
5
100
AcDbSymbolTableRecord
100
AcDbLinetypeTableRecord
  2
DASHDOTX2
 70
     0
  3
Dash dot (2x) ____  .  ____  .  ____  .  ___
 72
    65
 73
     4
 40
50.8
 49
25.4
 74
     0
 49
-12.7
 74
     0
 49
0.0
 74
     0
 49
-12.7
 74
     0
  0
LTYPE
  5
4D
330
5
100
AcDbSymbolTableRecord
100
AcDbLinetypeTableRecord
  2
DASHDOT
 70
     0
  3
Dash dot __ . __ . __ . __ . __ . __ . __ . __
 72
    65
 73
     4
 40
25.4
 49
12.7
 74
     0
 49
-6.35
 74
     0
 49
0.0
 74
     0
 49
-6.35
 74
     0
  0
LTYPE
  5
4E
330
5
100
AcDbSymbolTableRecord
100
AcDbLinetypeTableRecord
  2
DASHDOT2
 70
     0
  3
Dash dot (.5x) _._._._._._._._._._._._._._._.
 72
    65
 73
     4
 40
12.7
 49
6.35
 74
     0
 49
-3.175
 74
     0
 49
0.0
 74
     0
 49
-3.175
 74
     0
  0
LTYPE
  5
4F
330
5
100
AcDbSymbolTableRecord
100
AcDbLinetypeTableRecord
  2
DIVIDEX2
 70
     0
  3
Divide (2x) ________  .  .  ________  .  .  _
 72
    65
 73
     6
 40
63.5
 49
25.4
 74
     0
 49
-12.7
 74
     0
 49
0.0
 74
     0
 49
-12.7
 74
     0
 49
0.0
 74
     0
 49
-12.7
 74
     0
  0
LTYPE
  5
50
330
5
100
AcDbSymbolTableRecord
100
AcDbLinetypeTableRecord
  2
DIVIDE
 70
     0
  3
Divide ____ . . ____ . . ____ . . ____ . . ____
 72
    65
 73
     6
 40
31.75
 49
12.7
 74
     0
 49
-6.35
 74
     0
 49
0.0
 74
     0
 49
-6.35
 74
     0
 49
0.0
 74
     0
 49
-6.35
 74
     0
  0
LTYPE
  5
51
330
5
100
AcDbSymbolTableRecord
100
AcDbLinetypeTableRecord
  2
DIVIDE2
 70
     0
  3
Divide (.5x) __..__..__..__..__..__..__..__.._
 72
    65
 73
     6
 40
15.875
 49
6.35
 74
     0
 49
-3.175
 74
     0
 49
0.0
 74
     0
 49
-3.175
 74
     0
 49
0.0
 74
     0
 49
-3.175
 74
     0
  0
LTYPE
  5
52
330
5
100
AcDbSymbolTableRecord
100
AcDbLinetypeTableRecord
  2
BORDERX2
 70
     0
  3
Border (2x) ____  ____  .  ____  ____  .  ___
 72
    65
 73
     6
 40
88.89999999999999
 49
25.4
 74
     0
 49
-12.7
 74
     0
 49
25.4
 74
     0
 49
-12.7
 74
     0
 49
0.0
 74
     0
 49
-12.7
 74
     0
  0
LTYPE
  5
53
330
5
100
AcDbSymbolTableRecord
100
AcDbLinetypeTableRecord
  2
BORDER
 70
     0
  3
Border __ __ . __ __ . __ __ . __ __ . __ __ .
 72
    65
 73
     6
 40
44.45
 49
12.7
 74
     0
 49
-6.35
 74
     0
 49
12.7
 74
     0
 49
-6.35
 74
     0
 49
0.0
 74
     0
 49
-6.35
 74
     0
  0
LTYPE
  5
54
330
5
100
AcDbSymbolTableRecord
100
AcDbLinetypeTableRecord
  2
BORDER2
 70
     0
  3
Border (.5x) __.__.__.__.__.__.__.__.__.__.__.
 72
    65
 73
     6
 40
22.225
 49
6.35
 74
     0
 49
-3.175
 74
     0
 49
6.35
 74
     0
 49
-3.175
 74
     0
 49
0.0
 74
     0
 49
-3.175
 74
     0
  0
LTYPE
  5
55
330
5
100
AcDbSymbolTableRecord
100
AcDbLinetypeTableRecord
  2
PHANTOMX2
 70
     0
  3
Phantom (2x) ____________    ____    ____   _
 72
    65
 73
     6
 40
127.0
 49
63.5
 74
     0
 49
-12.7
 74
     0
 49
12.7
 74
     0
 49
-12.7
 74
     0
 49
12.7
 74
     0
 49
-12.7
 74
     0
  0
LTYPE
  5
56
330
5
100
AcDbSymbolTableRecord
100
AcDbLinetypeTableRecord
  2
PHANTOM
 70
     0
  3
Phantom ______  __  __  ______  __  __  ______ 
 72
    65
 73
     6
 40
63.5
 49
31.75
 74
     0
 49
-6.35
 74
     0
 49
6.35
 74
     0
 49
-6.35
 74
     0
 49
6.35
 74
     0
 49
-6.35
 74
     0
  0
LTYPE
  5
57
330
5
100
AcDbSymbolTableRecord
100
AcDbLinetypeTableRecord
  2
PHANTOM2
 70
     0
  3
Phantom (.5x) ___ _ _ ___ _ _ ___ _ _ ___ _ _
 72
    65
 73
     6
 40
31.75
 49
15.875
 74
     0
 49
-3.175
 74
     0
 49
3.175
 74
     0
 49
-3.175
 74
     0
 49
3.175
 74
     0
 49
-3.175
 74
     0
  0
LTYPE
  5
58
330
5
100
AcDbSymbolTableRecord
100
AcDbLinetypeTableRecord
  2
ACAD_ISO06W100
 70
     0
  3
ISO long-dash triple-dot ____ ... ____ ... ____
 72
    65
 73
     8
 40
36.0
 49
24.0
 74
     0
 49
-3.0
 74
     0
 49
0.0
 74
     0
 49
-3.0
 74
     0
 49
0.0
 74
     0
 49
-3.0
 74
     0
 49
0.0
 74
     0
 49
-3.0
 74
     0
  0
LTYPE
  5
59
330
5
100
AcDbSymbolTableRecord
100
AcDbLinetypeTableRecord
  2
ACAD_ISO13W100
 70
     0
  3
ISO double-dash double-dot __ __ . . __ __ . . _
 72
    65
 73
     8
 40
36.0
 49
12.0
 74
     0
 49
-3.0
 74
     0
 49
12.0
 74
     0
 49
-3.0
 74
     0
 49
0.0
 74
     0
 49
-3.0
 74
     0
 49
0.0
 74
     0
 49
-3.0
 74
     0
  0
LTYPE
  5
5A
330
5
100
AcDbSymbolTableRecord
100
AcDbLinetypeTableRecord
  2
ACAD_ISO14W100
 70
     0
  3
ISO dash triple-dot __ . . . __ . . . __ . . . _
 72
    65
 73
     8
 40
24.0
 49
12.0
 74
     0
 49
-3.0
 74
     0
 49
0.0
 74
     0
 49
-3.0
 74
     0
 49
0.0
 74
     0
 49
-3.0
 74
     0
 49
0.0
 74
     0
 49
-3.0
 74
     0
  0
LTYPE
  5
5B
330
5
100
AcDbSymbolTableRecord
100
AcDbLinetypeTableRecord
  2
ACAD_ISO02W100
 70
     0
  3
ISO dash __ __ __ __ __ __ __ __ __ __ __ __ __
 72
    65
 73
     2
 40
15.0
 49
12.0
 74
     0
 49
-3.0
 74
     0
  0
LTYPE
  5
5C
330
5
100
AcDbSymbolTableRecord
100
AcDbLinetypeTableRecord
  2
ACAD_ISO03W100
 70
     0
  3
ISO dash space __    __    __    __    __    __
 72
    65
 73
     2
 40
30.0
 49
12.0
 74
     0
 49
-18.0
 74
     0
  0
LTYPE
  5
5D
330
5
100
AcDbSymbolTableRecord
100
AcDbLinetypeTableRecord
  2
ACAD_ISO04W100
 70
     0
  3
ISO long-dash dot ____ . ____ . ____ . ____ . _
 72
    65
 73
     4
 40
30.0
 49
24.0
 74
     0
 49
-3.0
 74
     0
 49
0.0
 74
     0
 49
-3.0
 74
     0
  0
LTYPE
  5
5E
330
5
100
AcDbSymbolTableRecord
100
AcDbLinetypeTableRecord
  2
ACAD_ISO05W100
 70
     0
  3
ISO long-dash double-dot ____ .. ____ .. ____ . 
 72
    65
 73
     6
 40
33.0
 49
24.0
 74
     0
 49
-3.0
 74
     0
 49
0.0
 74
     0
 49
-3.0
 74
     0
 49
0.0
 74
     0
 49
-3.0
 74
     0
  0
LTYPE
  5
5F
330
5
100
AcDbSymbolTableRecord
100
AcDbLinetypeTableRecord
  2
ACAD_ISO07W100
 70
     0
  3
ISO dot . . . . . . . . . . . . . . . . . . . . 
 72
    65
 73
     2
 40
3.0
 49
0.0
 74
     0
 49
-3.0
 74
     0
  0
LTYPE
  5
60
330
5
100
AcDbSymbolTableRecord
100
AcDbLinetypeTableRecord
  2
ACAD_ISO08W100
 70
     0
  3
ISO long-dash short-dash ____ __ ____ __ ____ _
 72
    65
 73
     4
 40
36.0
 49
24.0
 74
     0
 49
-3.0
 74
     0
 49
6.0
 74
     0
 49
-3.0
 74
     0
  0
LTYPE
  5
61
330
5
100
AcDbSymbolTableRecord
100
AcDbLinetypeTableRecord
  2
ACAD_ISO09W100
 70
     0
  3
ISO long-dash double-short-dash ____ __ __ ____
 72
    65
 73
     6
 40
45.0
 49
24.0
 74
     0
 49
-3.0
 74
     0
 49
6.0
 74
     0
 49
-3.0
 74
     0
 49
6.0
 74
     0
 49
-3.0
 74
     0
  0
LTYPE
  5
62
330
5
100
AcDbSymbolTableRecord
100
AcDbLinetypeTableRecord
  2
ACAD_ISO10W100
 70
     0
  3
ISO dash dot __ . __ . __ . __ . __ . __ . __ . 
 72
    65
 73
     4
 40
18.0
 49
12.0
 74
     0
 49
-3.0
 74
     0
 49
0.0
 74
     0
 49
-3.0
 74
     0
  0
LTYPE
  5
63
330
5
100
AcDbSymbolTableRecord
100
AcDbLinetypeTableRecord
  2
ACAD_ISO11W100
 70
     0
  3
ISO double-dash dot __ __ . __ __ . __ __ . __ _
 72
    65
 73
     6
 40
33.0
 49
12.0
 74
     0
 49
-3.0
 74
     0
 49
12.0
 74
     0
 49
-3.0
 74
     0
 49
0.0
 74
     0
 49
-3.0
 74
     0
  0
LTYPE
  5
64
330
5
100
AcDbSymbolTableRecord
100
AcDbLinetypeTableRecord
  2
ACAD_ISO12W100
 70
     0
  3
ISO dash double-dot __ . . __ . . __ . . __ . . 
 72
    65
 73
     6
 40
21.0
 49
12.0
 74
     0
 49
-3.0
 74
     0
 49
0.0
 74
     0
 49
-3.0
 74
     0
 49
0.0
 74
     0
 49
-3.0
 74
     0
  0
LTYPE
  5
65
330
5
100
AcDbSymbolTableRecord
100
AcDbLinetypeTableRecord
  2
ACAD_ISO15W100
 70
     0
  3
ISO double-dash triple-dot __ __ . . . __ __ . .
 72
    65
 73
    10
 40
39.0
 49
12.0
 74
     0
 49
-3.0
 74
     0
 49
12.0
 74
     0
 49
-3.0
 74
     0
 49
0.0
 74
     0
 49
-3.0
 74
     0
 49
0.0
 74
     0
 49
-3.0
 74
     0
 49
0.0
 74
     0
 49
-3.0
 74
     0
  0
LTYPE
  5
66
330
5
100
AcDbSymbolTableRecord
100
AcDbLinetypeTableRecord
  2
JIS_02_0.7
 70
     0
  3
HIDDEN0.75 _ _ _ _ _ _ _ _ _ _ _ _ _ _ _ _ _ 
 72
    65
 73
     2
 40
1.35
 49
0.75
 74
     0
 49
-0.6
 74
     0
  0
LTYPE
  5
67
330
5
100
AcDbSymbolTableRecord
100
AcDbLinetypeTableRecord
  2
JIS_02_1.0
 70
     0
  3
HIDDEN01 _ _ _ _ _ _ _ _ _ _ _ _ _ _ _ _ _ 
 72
    65
 73
     2
 40
2.0
 49
1.0
 74
     0
 49
-1.0
 74
     0
  0
LTYPE
  5
68
330
5
100
AcDbSymbolTableRecord
100
AcDbLinetypeTableRecord
  2
JIS_02_1.2
 70
     0
  3
HIDDEN01.25  _ _ _ _ _ _ _ _ _ _ _ _ _ _ _ _ _ 
 72
    65
 73
     2
 40
2.5
 49
1.25
 74
     0
 49
-1.25
 74
     0
  0
LTYPE
  5
69
330
5
100
AcDbSymbolTableRecord
100
AcDbLinetypeTableRecord
  2
JIS_02_2.0
 70
     0
  3
HIDDEN02 __ __ __ __ __ __ __ __ __ __ __ 
 72
    65
 73
     2
 40
3.0
 49
2.0
 74
     0
 49
-1.0
 74
     0
  0
LTYPE
  5
6A
330
5
100
AcDbSymbolTableRecord
100
AcDbLinetypeTableRecord
  2
JIS_02_4.0
 70
     0
  3
HIDDEN04 ____ ____ ____ ____ ____ ____ ____ 
 72
    65
 73
     2
 40
5.5
 49
4.0
 74
     0
 49
-1.5
 74
     0
  0
LTYPE
  5
6B
330
5
100
AcDbSymbolTableRecord
100
AcDbLinetypeTableRecord
  2
JIS_08_11
 70
     0
  3
1SASEN11 ___ _ ___ _ ___ _ ___ _ ___ _ ___
 72
    65
 73
     4
 40
12.8
 49
11.0
 74
     0
 49
-0.6
 74
     0
 49
0.6
 74
     0
 49
-0.6
 74
     0
  0
LTYPE
  5
6C
330
5
100
AcDbSymbolTableRecord
100
AcDbLinetypeTableRecord
  2
JIS_08_15
 70
     0
  3
1SASEN15 ____ _ ____ _ ____ _ ____ _ ____ 
 72
    65
 73
     4
 40
17.25
 49
15.0
 74
     0
 49
-0.75
 74
     0
 49
0.75
 74
     0
 49
-0.75
 74
     0
  0
LTYPE
  5
6D
330
5
100
AcDbSymbolTableRecord
100
AcDbLinetypeTableRecord
  2
JIS_08_25
 70
     0
  3
1SASEN25 ________  __  ________  __  _____
 72
    65
 73
     4
 40
28.0
 49
25.0
 74
     0
 49
-1.125
 74
     0
 49
0.75
 74
     0
 49
-1.125
 74
     0
  0
LTYPE
  5
6E
330
5
100
AcDbSymbolTableRecord
100
AcDbLinetypeTableRecord
  2
JIS_08_37
 70
     0
  3
1SASEN37 ________  __  ________  __  _____
 72
    65
 73
     4
 40
40.5
 49
37.5
 74
     0
 49
-1.125
 74
     0
 49
0.75
 74
     0
 49
-1.125
 74
     0
  0
LTYPE
  5
6F
330
5
100
AcDbSymbolTableRecord
100
AcDbLinetypeTableRecord
  2
JIS_08_50
 70
     0
  3
1SASEN50 _______________  __  ____________
 72
    65
 73
     4
 40
53.0
 49
50.0
 74
     0
 49
-1.125
 74
     0
 49
0.75
 74
     0
 49
-1.125
 74
     0
  0
LTYPE
  5
70
330
5
100
AcDbSymbolTableRecord
100
AcDbLinetypeTableRecord
  2
JIS_09_08
 70
     0
  3
2SASEN8 __ _ _ __ _ _ __ _ _ __ _ _ __ _ _ 
 72
    65
 73
     6
 40
10.75
 49
8.0
 74
     0
 49
-0.55
 74
     0
 49
0.55
 74
     0
 49
-0.55
 74
     0
 49
0.55
 74
     0
 49
-0.55
 74
     0
  0
LTYPE
  5
71
330
5
100
AcDbSymbolTableRecord
100
AcDbLinetypeTableRecord
  2
JIS_09_15
 70
     0
  3
2SASEN15 ___ _ _ ___ _ _ ___ _ _ ___ _ _ ___ 
 72
    65
 73
     6
 40
18.9
 49
15.0
 74
     0
 49
-0.9
 74
     0
 49
0.6
 74
     0
 49
-0.9
 74
     0
 49
0.6
 74
     0
 49
-0.9
 74
     0
  0
LTYPE
  5
72
330
5
100
AcDbSymbolTableRecord
100
AcDbLinetypeTableRecord
  2
JIS_09_29
 70
     0
  3
2SASEN29 ______　__  __  ______　__  __  ___
 72
    65
 73
     6
 40
34.0
 49
29.0
 74
     0
 49
-1.2
 74
     0
 49
0.7
 74
     0
 49
-1.2
 74
     0
 49
0.7
 74
     0
 49
-1.2
 74
     0
  0
LTYPE
  5
73
330
5
100
AcDbSymbolTableRecord
100
AcDbLinetypeTableRecord
  2
JIS_09_50
 70
     0
  3
2SASEN50 ____________　__  __  _____________
 72
    65
 73
     6
 40
55.0
 49
50.0
 74
     0
 49
-1.2
 74
     0
 49
0.7
 74
     0
 49
-1.2
 74
     0
 49
0.7
 74
     0
 49
-1.2
 74
     0
  0
ENDTAB
  0
TABLE
  2
LAYER
  5
2
330
0
100
AcDbSymbolTable
 70
     1
  0
LAYER
  5
10
330
2
100
AcDbSymbolTableRecord
100
AcDbLayerTableRecord
  2
0
 70
     0
 62
     7
  6
Continuous
370
    -3
390
F
  0
ENDTAB
  0
TABLE
  2
STYLE
  5
3
330
0
100
AcDbSymbolTable
 70
     2
  0
STYLE
  5
11
330
3
100
AcDbSymbolTableRecord
100
AcDbTextStyleTableRecord
  2
Standard
 70
     0
 40
0.0
 41
1.0
 50
0.0
 71
     0
 42
0.2
  3
txt.shx
  4
bigfont.shx
  0
STYLE
  5
16B
330
3
100
AcDbSymbolTableRecord
100
AcDbTextStyleTableRecord
  2
dcStyle0
 70
     0
 40
0.0
 41
0.6572164948453608
 50
0.0
 71
     0
 42
0.2
  3
txt.shx
  4
bigfont
  0
ENDTAB
  0
TABLE
  2
VIEW
  5
6
330
0
100
AcDbSymbolTable
 70
     0
  0
ENDTAB
  0
TABLE
  2
UCS
  5
7
330
0
100
AcDbSymbolTable
 70
     0
  0
ENDTAB
  0
TABLE
  2
APPID
  5
9
330
0
100
AcDbSymbolTable
 70
     3
  0
APPID
  5
12
330
9
100
AcDbSymbolTableRecord
100
AcDbRegAppTableRecord
  2
ACAD
 70
     0
  0
APPID
  5
3F
330
9
100
AcDbSymbolTableRecord
100
AcDbRegAppTableRecord
  2
DaFusionOut
 70
     0
  0
APPID
  5
39F
330
9
100
AcDbSymbolTableRecord
100
AcDbRegAppTableRecord
  2
ACAD_DSTYLE_DIMARC_LENGTH_SYMBOL
 70
     0
  0
ENDTAB
  0
TABLE
  2
DIMSTYLE
  5
A
330
0
100
AcDbSymbolTable
 70
     3
100
AcDbDimStyleTable
  0
DIMSTYLE
105
27
330
A
100
AcDbSymbolTableRecord
100
AcDbDimStyleTableRecord
  2
Standard
 70
     0
340
11
  0
DIMSTYLE
105
34E
102
{ACAD_REACTORS
330
34D
330
34F
330
350
330
351
330
352
330
353
330
354
330
355
330
356
330
35D
330
35E
330
35F
330
360
330
361
330
362
330
363
330
364
330
365
330
366
330
36E
330
36F
330
370
330
371
330
372
330
373
330
374
330
375
330
376
330
377
330
378
330
379
330
383
330
384
330
385
330
386
102
}
330
A
100
AcDbSymbolTableRecord
100
AcDbDimStyleTableRecord
  2
dc_Rotated
 70
     0
 41
15.00000941285121
 42
5.0
 44
0.0
 73
     0
 74
     0
 77
     3
 78
     8
 79
     2
140
52.5
147
13.125
172
     1
173
     1
176
     7
177
     7
178
     7
271
     1
274
     4
283
     0
284
     8
288
     1
340
11
343
186
344
186
1001
ACAD_DSTYLE_DIMARC_LENGTH_SYMBOL
1070
   379
1070
     1
  0
DIMSTYLE
105
358
102
{ACAD_REACTORS
330
357
330
367
330
37A
102
}
330
A
100
AcDbSymbolTableRecord
100
AcDbDimStyleTableRecord
  2
dc_Diam01
 70
     0
 41
15.00000941285121
 42
5.0
 44
5.0
 73
     0
 74
     0
 77
     3
 78
     8
 79
     2
140
52.5
147
13.12499999999998
172
     1
173
     1
176
     7
177
     7
178
     7
271
     1
274
     4
283
     0
284
     8
288
     1
289
     1
340
11
343
186
344
186
1001
ACAD_DSTYLE_DIMARC_LENGTH_SYMBOL
1070
   379
1070
     1
  0
ENDTAB
  0
TABLE
  2
BLOCK_RECORD
  5
1
330
0
100
AcDbSymbolTable
 70
    71
  0
BLOCK_RECORD
  5
1F
330
1
100
AcDbSymbolTableRecord
100
AcDbBlockTableRecord
  2
*Model_Space
340
22
  0
BLOCK_RECORD
  5
1B
330
1
100
AcDbSymbolTableRecord
100
AcDbBlockTableRecord
  2
*Paper_Space
340
1E
  0
BLOCK_RECORD
  5
23
330
1
100
AcDbSymbolTableRecord
100
AcDbBlockTableRecord
  2
*Paper_Space0
340
26
  0
BLOCK_RECORD
  5
75
330
1
100
AcDbSymbolTableRecord
100
AcDbBlockTableRecord
  2
DC_GROUP_PT3-SN01B-01-00_1
340
0
102
{BLKREFS
331
341
102
}
  0
BLOCK_RECORD
  5
78
330
1
100
AcDbSymbolTableRecord
100
AcDbBlockTableRecord
  2
_ArrowFill
340
0
102
{BLKREFS
331
145
331
16A
102
}
  0
BLOCK_RECORD
  5
7B
330
1
100
AcDbSymbolTableRecord
100
AcDbBlockTableRecord
  2
DC_GROUP_PT3-SN01B-01-00_2
340
0
102
{BLKREFS
331
342
102
}
  0
BLOCK_RECORD
  5
7E
330
1
100
AcDbSymbolTableRecord
100
AcDbBlockTableRecord
  2
DC_GROUP_PT3-SN01B-01-00_3
340
0
102
{BLKREFS
331
343
102
}
  0
BLOCK_RECORD
  5
81
330
1
100
AcDbSymbolTableRecord
100
AcDbBlockTableRecord
  2
DC_GROUP_PT3-SN01B-01-00_4
340
0
102
{BLKREFS
331
344
102
}
  0
BLOCK_RECORD
  5
84
330
1
100
AcDbSymbolTableRecord
100
AcDbBlockTableRecord
  2
DC_GROUP_PT3-SN01B-01-00_5
340
0
102
{BLKREFS
331
345
102
}
  0
BLOCK_RECORD
  5
87
330
1
100
AcDbSymbolTableRecord
100
AcDbBlockTableRecord
  2
DC_GROUP_PT3-SN01B-01-00_6
340
0
102
{BLKREFS
331
346
102
}
  0
BLOCK_RECORD
  5
8A
330
1
100
AcDbSymbolTableRecord
100
AcDbBlockTableRecord
  2
DC_GROUP_PT3-SN01B-01-00_7
340
0
102
{BLKREFS
331
347
102
}
  0
BLOCK_RECORD
  5
8D
330
1
100
AcDbSymbolTableRecord
100
AcDbBlockTableRecord
  2
DC_GROUP_PT3-SN01B-01-00_8
340
0
102
{BLKREFS
331
348
102
}
  0
BLOCK_RECORD
  5
90
330
1
100
AcDbSymbolTableRecord
100
AcDbBlockTableRecord
  2
DC_GROUP_PT3-SN01B-01-00_9
340
0
102
{BLKREFS
331
349
102
}
  0
BLOCK_RECORD
  5
93
330
1
100
AcDbSymbolTableRecord
100
AcDbBlockTableRecord
  2
DC_GROUP_PT3-SN01B-01-00_10
340
0
102
{BLKREFS
331
34A
102
}
  0
BLOCK_RECORD
  5
96
330
1
100
AcDbSymbolTableRecord
100
AcDbBlockTableRecord
  2
DC_GROUP_PT3-SN01B-01-00_11
340
0
102
{BLKREFS
331
34B
102
}
  0
BLOCK_RECORD
  5
99
330
1
100
AcDbSymbolTableRecord
100
AcDbBlockTableRecord
  2
DC_GROUP_PT3-SN01B-01-00_12
340
0
102
{BLKREFS
331
34C
102
}
  0
BLOCK_RECORD
  5
9C
330
1
100
AcDbSymbolTableRecord
100
AcDbBlockTableRecord
  2
*D14
340
0
  0
BLOCK_RECORD
  5
9F
330
1
100
AcDbSymbolTableRecord
100
AcDbBlockTableRecord
  2
*D15
340
0
  0
BLOCK_RECORD
  5
A2
330
1
100
AcDbSymbolTableRecord
100
AcDbBlockTableRecord
  2
*D16
340
0
  0
BLOCK_RECORD
  5
A5
330
1
100
AcDbSymbolTableRecord
100
AcDbBlockTableRecord
  2
*D17
340
0
  0
BLOCK_RECORD
  5
A8
330
1
100
AcDbSymbolTableRecord
100
AcDbBlockTableRecord
  2
*D18
340
0
  0
BLOCK_RECORD
  5
AB
330
1
100
AcDbSymbolTableRecord
100
AcDbBlockTableRecord
  2
*D19
340
0
  0
BLOCK_RECORD
  5
AE
330
1
100
AcDbSymbolTableRecord
100
AcDbBlockTableRecord
  2
*D20
340
0
  0
BLOCK_RECORD
  5
B1
330
1
100
AcDbSymbolTableRecord
100
AcDbBlockTableRecord
  2
*D21
340
0
  0
BLOCK_RECORD
  5
B4
330
1
100
AcDbSymbolTableRecord
100
AcDbBlockTableRecord
  2
*D22
340
0
  0
BLOCK_RECORD
  5
B7
330
1
100
AcDbSymbolTableRecord
100
AcDbBlockTableRecord
  2
*D23
340
0
  0
BLOCK_RECORD
  5
BA
330
1
100
AcDbSymbolTableRecord
100
AcDbBlockTableRecord
  2
DC_GROUP_PT3-SN01B-01-00_13
340
0
102
{BLKREFS
331
359
102
}
  0
BLOCK_RECORD
  5
BD
330
1
100
AcDbSymbolTableRecord
100
AcDbBlockTableRecord
  2
DC_GROUP_PT3-SN01B-01-00_14
340
0
102
{BLKREFS
331
35A
102
}
  0
BLOCK_RECORD
  5
C0
330
1
100
AcDbSymbolTableRecord
100
AcDbBlockTableRecord
  2
DC_GROUP_PT3-SN01B-01-00_15
340
0
102
{BLKREFS
331
35B
102
}
  0
BLOCK_RECORD
  5
C3
330
1
100
AcDbSymbolTableRecord
100
AcDbBlockTableRecord
  2
DC_GROUP_PT3-SN01B-01-00_16
340
0
102
{BLKREFS
331
35C
102
}
  0
BLOCK_RECORD
  5
C6
330
1
100
AcDbSymbolTableRecord
100
AcDbBlockTableRecord
  2
*D28
340
0
  0
BLOCK_RECORD
  5
C9
330
1
100
AcDbSymbolTableRecord
100
AcDbBlockTableRecord
  2
*D29
340
0
  0
BLOCK_RECORD
  5
CC
330
1
100
AcDbSymbolTableRecord
100
AcDbBlockTableRecord
  2
*D30
340
0
  0
BLOCK_RECORD
  5
CF
330
1
100
AcDbSymbolTableRecord
100
AcDbBlockTableRecord
  2
*D31
340
0
  0
BLOCK_RECORD
  5
D2
330
1
100
AcDbSymbolTableRecord
100
AcDbBlockTableRecord
  2
*D32
340
0
  0
BLOCK_RECORD
  5
D5
330
1
100
AcDbSymbolTableRecord
100
AcDbBlockTableRecord
  2
*D33
340
0
  0
BLOCK_RECORD
  5
D8
330
1
100
AcDbSymbolTableRecord
100
AcDbBlockTableRecord
  2
*D34
340
0
  0
BLOCK_RECORD
  5
DB
330
1
100
AcDbSymbolTableRecord
100
AcDbBlockTableRecord
  2
*D35
340
0
  0
BLOCK_RECORD
  5
DE
330
1
100
AcDbSymbolTableRecord
100
AcDbBlockTableRecord
  2
*D36
340
0
  0
BLOCK_RECORD
  5
E1
330
1
100
AcDbSymbolTableRecord
100
AcDbBlockTableRecord
  2
*D37
340
0
  0
BLOCK_RECORD
  5
E4
330
1
100
AcDbSymbolTableRecord
100
AcDbBlockTableRecord
  2
*D38
340
0
  0
BLOCK_RECORD
  5
E7
330
1
100
AcDbSymbolTableRecord
100
AcDbBlockTableRecord
  2
DC_GROUP_PT3-SN01B-01-00_17
340
0
102
{BLKREFS
331
368
102
}
  0
BLOCK_RECORD
  5
EA
330
1
100
AcDbSymbolTableRecord
100
AcDbBlockTableRecord
  2
DC_GROUP_PT3-SN01B-01-00_18
340
0
102
{BLKREFS
331
369
102
}
  0
BLOCK_RECORD
  5
ED
330
1
100
AcDbSymbolTableRecord
100
AcDbBlockTableRecord
  2
DC_GROUP_PT3-SN01B-01-00_19
340
0
102
{BLKREFS
331
36A
102
}
  0
BLOCK_RECORD
  5
F0
330
1
100
AcDbSymbolTableRecord
100
AcDbBlockTableRecord
  2
DC_GROUP_PT3-SN01B-01-00_20
340
0
102
{BLKREFS
331
36B
102
}
  0
BLOCK_RECORD
  5
F3
330
1
100
AcDbSymbolTableRecord
100
AcDbBlockTableRecord
  2
DC_GROUP_PT3-SN01B-01-00_21
340
0
102
{BLKREFS
331
36C
102
}
  0
BLOCK_RECORD
  5
F6
330
1
100
AcDbSymbolTableRecord
100
AcDbBlockTableRecord
  2
DC_GROUP_PT3-SN01B-01-00_22
340
0
102
{BLKREFS
331
36D
102
}
  0
BLOCK_RECORD
  5
F9
330
1
100
AcDbSymbolTableRecord
100
AcDbBlockTableRecord
  2
*D45
340
0
  0
BLOCK_RECORD
  5
FC
330
1
100
AcDbSymbolTableRecord
100
AcDbBlockTableRecord
  2
*D46
340
0
  0
BLOCK_RECORD
  5
FF
330
1
100
AcDbSymbolTableRecord
100
AcDbBlockTableRecord
  2
*D47
340
0
  0
BLOCK_RECORD
  5
102
330
1
100
AcDbSymbolTableRecord
100
AcDbBlockTableRecord
  2
*D48
340
0
  0
BLOCK_RECORD
  5
105
330
1
100
AcDbSymbolTableRecord
100
AcDbBlockTableRecord
  2
*D49
340
0
  0
BLOCK_RECORD
  5
108
330
1
100
AcDbSymbolTableRecord
100
AcDbBlockTableRecord
  2
*D50
340
0
  0
BLOCK_RECORD
  5
10B
330
1
100
AcDbSymbolTableRecord
100
AcDbBlockTableRecord
  2
*D51
340
0
  0
BLOCK_RECORD
  5
10E
330
1
100
AcDbSymbolTableRecord
100
AcDbBlockTableRecord
  2
*D52
340
0
  0
BLOCK_RECORD
  5
111
330
1
100
AcDbSymbolTableRecord
100
AcDbBlockTableRecord
  2
*D53
340
0
  0
BLOCK_RECORD
  5
114
330
1
100
AcDbSymbolTableRecord
100
AcDbBlockTableRecord
  2
*D54
340
0
  0
BLOCK_RECORD
  5
117
330
1
100
AcDbSymbolTableRecord
100
AcDbBlockTableRecord
  2
*D55
340
0
  0
BLOCK_RECORD
  5
11A
330
1
100
AcDbSymbolTableRecord
100
AcDbBlockTableRecord
  2
*D56
340
0
  0
BLOCK_RECORD
  5
11D
330
1
100
AcDbSymbolTableRecord
100
AcDbBlockTableRecord
  2
*D57
340
0
  0
BLOCK_RECORD
  5
120
330
1
100
AcDbSymbolTableRecord
100
AcDbBlockTableRecord
  2
DC_GROUP_PT3-SN01B-01-00_23
340
0
102
{BLKREFS
331
37B
102
}
  0
BLOCK_RECORD
  5
123
330
1
100
AcDbSymbolTableRecord
100
AcDbBlockTableRecord
  2
DC_GROUP_PT3-SN01B-01-00_24
340
0
102
{BLKREFS
331
37C
102
}
  0
BLOCK_RECORD
  5
126
330
1
100
AcDbSymbolTableRecord
100
AcDbBlockTableRecord
  2
DC_GROUP_PT3-SN01B-01-00_25
340
0
102
{BLKREFS
331
37D
102
}
  0
BLOCK_RECORD
  5
129
330
1
100
AcDbSymbolTableRecord
100
AcDbBlockTableRecord
  2
DC_GROUP_PT3-SN01B-01-00_26
340
0
102
{BLKREFS
331
37E
102
}
  0
BLOCK_RECORD
  5
12C
330
1
100
AcDbSymbolTableRecord
100
AcDbBlockTableRecord
  2
DC_GROUP_PT3-SN01B-01-00_27
340
0
102
{BLKREFS
331
37F
102
}
  0
BLOCK_RECORD
  5
12F
330
1
100
AcDbSymbolTableRecord
100
AcDbBlockTableRecord
  2
DC_GROUP_PT3-SN01B-01-00_28
340
0
102
{BLKREFS
331
380
102
}
  0
BLOCK_RECORD
  5
132
330
1
100
AcDbSymbolTableRecord
100
AcDbBlockTableRecord
  2
DC_GROUP_PT3-SN01B-01-00_29
340
0
102
{BLKREFS
331
381
102
}
  0
BLOCK_RECORD
  5
135
330
1
100
AcDbSymbolTableRecord
100
AcDbBlockTableRecord
  2
DC_GROUP_PT3-SN01B-01-00_30
340
0
102
{BLKREFS
331
382
102
}
  0
BLOCK_RECORD
  5
138
330
1
100
AcDbSymbolTableRecord
100
AcDbBlockTableRecord
  2
*D66
340
0
  0
BLOCK_RECORD
  5
13B
330
1
100
AcDbSymbolTableRecord
100
AcDbBlockTableRecord
  2
*D67
340
0
  0
BLOCK_RECORD
  5
13E
330
1
100
AcDbSymbolTableRecord
100
AcDbBlockTableRecord
  2
*D68
340
0
  0
BLOCK_RECORD
  5
141
330
1
100
AcDbSymbolTableRecord
100
AcDbBlockTableRecord
  2
*D69
340
0
  0
BLOCK_RECORD
  5
186
330
1
100
AcDbSymbolTableRecord
100
AcDbBlockTableRecord
  2
_OPEN30
340
0
102
{BLKREFS
331
18C
331
18D
331
192
331
193
331
198
331
199
331
19E
331
19F
331
1A5
331
1A7
331
1AD
331
1AF
331
1B4
331
1B5
331
1BA
331
1BB
331
1C0
331
1C1
331
1C5
331
1C7
331
1EC
331
1ED
331
1F2
331
1F3
331
1F8
331
1F9
331
1FF
331
201
331
207
331
209
331
20E
331
20F
331
214
331
215
331
21A
331
21B
331
220
331
221
331
226
331
227
331
22B
331
22D
331
262
331
263
331
268
331
269
331
26E
331
26F
331
275
331
277
331
27D
331
27F
331
284
331
285
331
28A
331
28B
331
290
331
291
331
296
331
297
331
29C
331
29D
331
2A2
331
2A3
331
2A8
331
2A9
331
2AD
331
2AF
331
2F4
331
2F5
331
2FB
331
2FD
331
302
331
303
331
309
331
30B
102
}
  0
ENDTAB
  0
ENDSEC
  0
SECTION
  2
BLOCKS
  0
BLOCK
  5
20
330
1F
100
AcDbEntity
  8
0
100
AcDbBlockBegin
  2
*Model_Space
 70
     0
 10
0.0
 20
0.0
 30
0.0
  3
*Model_Space
  1

  0
ENDBLK
  5
21
330
1F
100
AcDbEntity
  8
0
100
AcDbBlockEnd
  0
BLOCK
  5
1C
330
1B
100
AcDbEntity
 67
     1
  8
0
100
AcDbBlockBegin
  2
*Paper_Space
 70
     0
 10
0.0
 20
0.0
 30
0.0
  3
*Paper_Space
  1

  0
ENDBLK
  5
1D
330
1B
100
AcDbEntity
 67
     1
  8
0
100
AcDbBlockEnd
  0
BLOCK
  5
24
330
23
100
AcDbEntity
  8
0
100
AcDbBlockBegin
  2
*Paper_Space0
 70
     0
 10
0.0
 20
0.0
 30
0.0
  3
*Paper_Space0
  1

  0
ENDBLK
  5
25
330
23
100
AcDbEntity
  8
0
100
AcDbBlockEnd
  0
BLOCK
  5
76
330
75
100
AcDbEntity
  8
0
100
AcDbBlockBegin
  2
DC_GROUP_PT3-SN01B-01-00_1
 70
     0
 10
0.0
 20
0.0
 30
0.0
  3
DC_GROUP_PT3-SN01B-01-00_1
  1

  0
LINE
  5
144
330
75
100
AcDbEntity
  8
0
  6
Continuous
 62
     7
370
    25
100
AcDbLine
 10
1128.50159562305
 20
-412.8001888179001
 30
0.0
 11
993.0215129582498
 21
-299.8767383059001
 31
0.0
  0
INSERT
  5
145
330
75
100
AcDbEntity
  8
0
 62
     7
100
AcDbBlockReference
  2
_ArrowFill
 10
1128.50159562305
 20
-412.8001888179001
 30
0.0
 41
15.00001305033736
 42
14.99995874902355
 50
320.188593681906
  0
ENDBLK
  5
77
330
75
100
AcDbEntity
  8
0
100
AcDbBlockEnd
  0
BLOCK
  5
79
330
78
100
AcDbEntity
  8
0
100
AcDbBlockBegin
  2
_ArrowFill
 70
     0
 10
0.0
 20
0.0
 30
0.0
  3
_ArrowFill
  1

  0
HATCH
  5
168
330
78
100
AcDbEntity
  8
0
  6
Continuous
 62
     0
100
AcDbHatch
 10
0.0
 20
0.0
 30
0.0
210
0.0
220
0.0
230
1.0
  2
SOLID
 70
     1
 71
     0
 91
        1
 92
        0
 93
        3
 72
     1
 10
0.0
 20
0.0
 11
-0.9659258262890683
 21
0.2588190451025207
 72
     1
 10
-0.9659258262890683
 20
0.2588190451025207
 11
-0.9659258262890683
 21
-0.2588190451025207
 72
     1
 10
-0.9659258262890683
 20
-0.2588190451025207
 11
0.0
 21
0.0
 97
        0
 75
     0
 76
     1
 98
        0
  0
ENDBLK
  5
7A
330
78
100
AcDbEntity
  8
0
100
AcDbBlockEnd
  0
BLOCK
  5
7C
330
7B
100
AcDbEntity
  8
0
100
AcDbBlockBegin
  2
DC_GROUP_PT3-SN01B-01-00_2
 70
     0
 10
0.0
 20
0.0
 30
0.0
  3
DC_GROUP_PT3-SN01B-01-00_2
  1

  0
LINE
  5
169
330
7B
100
AcDbEntity
  8
0
  6
Continuous
 62
     7
370
    25
100
AcDbLine
 10
1089.14662616475
 20
-592.8001888179001
 30
0.0
 11
1281.43491371675
 21
-771.115676359
 31
0.0
  0
INSERT
  5
16A
330
7B
100
AcDbEntity
  8
0
 62
     7
100
AcDbBlockReference
  2
_ArrowFill
 10
1089.14662616475
 20
-592.8001888179001
 30
0.0
 41
15.00001305033736
 42
14.99995874902355
 50
137.1591886069077
  0
ENDBLK
  5
7D
330
7B
100
AcDbEntity
  8
0
100
AcDbBlockEnd
  0
BLOCK
  5
7F
330
7E
100
AcDbEntity
  8
0
100
AcDbBlockBegin
  2
DC_GROUP_PT3-SN01B-01-00_3
 70
     0
 10
0.0
 20
0.0
 30
0.0
  3
DC_GROUP_PT3-SN01B-01-00_3
  1

  0
TEXT
  5
16C
330
7E
100
AcDbEntity
  8
0
 62
     7
100
AcDbText
 10
-3207.90812972985
 20
-1721.209198336
 30
0.0
 40
79.375
  1
基礎の厚みはすべて150mmとする
 41
0.6572164948453608
  7
dcStyle0
 72
     5
 11
-2195.87687972985
 21
-1721.209198336
 31
0.0
100
AcDbText
  0
TEXT
  5
16D
330
7E
100
AcDbEntity
  8
0
 62
     7
100
AcDbText
 10
-3207.90812972985
 20
-1827.0425303903
 30
0.0
 40
79.375
  1
アンカーボルトは添付品のM10のオールアンカーを使用すること
 41
0.635593220338983
  7
dcStyle0
 72
     5
 11
-1421.97062972985
 21
-1827.0425303903
 31
0.0
100
AcDbText
  0
ENDBLK
  5
80
330
7E
100
AcDbEntity
  8
0
100
AcDbBlockEnd
  0
BLOCK
  5
82
330
81
100
AcDbEntity
  8
0
100
AcDbBlockBegin
  2
DC_GROUP_PT3-SN01B-01-00_4
 70
     0
 10
0.0
 20
0.0
 30
0.0
  3
DC_GROUP_PT3-SN01B-01-00_4
  1

  0
TEXT
  5
16E
330
81
100
AcDbEntity
  8
0
 62
     7
100
AcDbText
 10
-126.7422104509501
 20
-1799.1042680695
 30
0.0
 40
52.5
  1
尺
 41
0.625
  7
dcStyle0
 72
     5
 11
-87.3672104509501
 21
-1799.1042680695
 31
0.0
100
AcDbText
  0
TEXT
  5
16F
330
81
100
AcDbEntity
  8
0
 62
     7
100
AcDbText
 10
-126.7422104509501
 20
-1874.1042663931
 30
0.0
 40
52.5
  1
度
 41
0.625
  7
dcStyle0
 72
     5
 11
-87.3672104509501
 21
-1874.1042663931
 31
0.0
100
AcDbText
  0
ENDBLK
  5
83
330
81
100
AcDbEntity
  8
0
100
AcDbBlockEnd
  0
BLOCK
  5
85
330
84
100
AcDbEntity
  8
0
100
AcDbBlockBegin
  2
DC_GROUP_PT3-SN01B-01-00_5
 70
     0
 10
0.0
 20
0.0
 30
0.0
  3
DC_GROUP_PT3-SN01B-01-00_5
  1

  0
TEXT
  5
170
330
84
100
AcDbEntity
  8
0
 62
     7
100
AcDbText
 10
499.8205905207501
 20
-1803.0384546802
 30
0.0
 40
52.5
  1
製
 41
0.625
  7
dcStyle0
 72
     5
 11
539.1955905207501
 21
-1803.0384546802
 31
0.0
100
AcDbText
  0
TEXT
  5
171
330
84
100
AcDbEntity
  8
0
 62
     7
100
AcDbText
 10
499.8205905207501
 20
-1878.0384530038
 30
0.0
 40
52.5
  1
図
 41
0.625
  7
dcStyle0
 72
     5
 11
539.1955905207501
 21
-1878.0384530038
 31
0.0
100
AcDbText
  0
ENDBLK
  5
86
330
84
100
AcDbEntity
  8
0
100
AcDbBlockEnd
  0
BLOCK
  5
88
330
87
100
AcDbEntity
  8
0
100
AcDbBlockBegin
  2
DC_GROUP_PT3-SN01B-01-00_6
 70
     0
 10
0.0
 20
0.0
 30
0.0
  3
DC_GROUP_PT3-SN01B-01-00_6
  1

  0
TEXT
  5
172
330
87
100
AcDbEntity
  8
0
 62
     7
100
AcDbText
 10
783.2821935208499
 20
-1802.9442995659
 30
0.0
 40
52.5
  1
検
 41
0.625
  7
dcStyle0
 72
     5
 11
822.6571935208499
 21
-1802.9442995659
 31
0.0
100
AcDbText
  0
TEXT
  5
173
330
87
100
AcDbEntity
  8
0
 62
     7
100
AcDbText
 10
783.2821935208499
 20
-1877.9442978895
 30
0.0
 40
52.5
  1
図
 41
0.625
  7
dcStyle0
 72
     5
 11
822.6571935208499
 21
-1877.9442978895
 31
0.0
100
AcDbText
  0
ENDBLK
  5
89
330
87
100
AcDbEntity
  8
0
100
AcDbBlockEnd
  0
BLOCK
  5
8B
330
8A
100
AcDbEntity
  8
0
100
AcDbBlockBegin
  2
DC_GROUP_PT3-SN01B-01-00_7
 70
     0
 10
0.0
 20
0.0
 30
0.0
  3
DC_GROUP_PT3-SN01B-01-00_7
  1

  0
TEXT
  5
174
330
8A
100
AcDbEntity
  8
0
 62
     7
100
AcDbText
 10
1069.96929436485
 20
-1801.6229857569
 30
0.0
 40
52.5
  1
単
 41
0.625
  7
dcStyle0
 72
     5
 11
1109.34429436485
 21
-1801.6229857569
 31
0.0
100
AcDbText
  0
TEXT
  5
175
330
8A
100
AcDbEntity
  8
0
 62
     7
100
AcDbText
 10
1069.96929436485
 20
-1876.6229840805
 30
0.0
 40
52.5
  1
位
 41
0.625
  7
dcStyle0
 72
     5
 11
1109.34429436485
 21
-1876.6229840805
 31
0.0
100
AcDbText
  0
ENDBLK
  5
8C
330
8A
100
AcDbEntity
  8
0
100
AcDbBlockEnd
  0
BLOCK
  5
8E
330
8D
100
AcDbEntity
  8
0
100
AcDbBlockBegin
  2
DC_GROUP_PT3-SN01B-01-00_8
 70
     0
 10
0.0
 20
0.0
 30
0.0
  3
DC_GROUP_PT3-SN01B-01-00_8
  1

  0
TEXT
  5
176
330
8D
100
AcDbEntity
  8
0
 62
     7
100
AcDbText
 10
1357.56035139865
 20
-1803.2220491063
 30
0.0
 40
52.5
  1
日
 41
0.625
  7
dcStyle0
 72
     5
 11
1396.93535139865
 21
-1803.2220491063
 31
0.0
100
AcDbText
  0
TEXT
  5
177
330
8D
100
AcDbEntity
  8
0
 62
     7
100
AcDbText
 10
1357.56035139865
 20
-1878.2220474299
 30
0.0
 40
52.5
  1
付
 41
0.625
  7
dcStyle0
 72
     5
 11
1396.93535139865
 21
-1878.2220474299
 31
0.0
100
AcDbText
  0
ENDBLK
  5
8F
330
8D
100
AcDbEntity
  8
0
100
AcDbBlockEnd
  0
BLOCK
  5
91
330
90
100
AcDbEntity
  8
0
100
AcDbBlockBegin
  2
DC_GROUP_PT3-SN01B-01-00_9
 70
     0
 10
0.0
 20
0.0
 30
0.0
  3
DC_GROUP_PT3-SN01B-01-00_9
  1

  0
LINE
  5
178
330
90
100
AcDbEntity
  8
0
  6
Continuous
 62
     7
370
    25
100
AcDbLine
 10
-969.59858817955
 20
-1503.100505689
 30
0.0
 11
-969.59858817955
 21
-1408.283817952
 31
0.0
  0
LINE
  5
179
330
90
100
AcDbEntity
  8
0
  6
Continuous
 62
     7
370
    25
100
AcDbLine
 10
-969.59858817955
 20
-1408.283817952
 30
0.0
 11
-588.43550347665
 21
-1408.283817952
 31
0.0
  0
LINE
  5
17A
330
90
100
AcDbEntity
  8
0
  6
Continuous
 62
     7
370
    25
100
AcDbLine
 10
-588.43550347665
 20
-1408.283817952
 30
0.0
 11
-588.43550347665
 21
-1503.100505689
 31
0.0
  0
LINE
  5
17B
330
90
100
AcDbEntity
  8
0
  6
Continuous
 62
     7
370
    25
100
AcDbLine
 10
-588.43550347665
 20
-1503.100505689
 30
0.0
 11
-969.59858817955
 21
-1503.100505689
 31
0.0
  0
TEXT
  5
17C
330
90
100
AcDbEntity
  8
0
 62
     7
100
AcDbText
 10
-968.7192150404499
 20
-1483.0883970175
 30
0.0
 40
71.4375
  1
基礎伏図
 41
0.625
  7
dcStyle0
 72
     5
 11
-754.4067150404499
 21
-1483.0883970175
 31
0.0
100
AcDbText
  0
ENDBLK
  5
92
330
90
100
AcDbEntity
  8
0
100
AcDbBlockEnd
  0
BLOCK
  5
94
330
93
100
AcDbEntity
  8
0
100
AcDbBlockBegin
  2
DC_GROUP_PT3-SN01B-01-00_10
 70
     0
 10
0.0
 20
0.0
 30
0.0
  3
DC_GROUP_PT3-SN01B-01-00_10
  1

  0
TEXT
  5
17D
330
93
100
AcDbEntity
  8
0
 62
     7
100
AcDbText
 10
-128.3907762704498
 20
-1605.9961596532
 30
0.0
 40
52.5
  1
図
 41
0.625
  7
dcStyle0
 72
     5
 11
-89.0157762704498
 21
-1605.9961596532
 31
0.0
100
AcDbText
  0
TEXT
  5
17E
330
93
100
AcDbEntity
  8
0
 62
     7
100
AcDbText
 10
-128.3907762704498
 20
-1680.9961579768
 30
0.0
 40
52.5
  1
名
 41
0.625
  7
dcStyle0
 72
     5
 11
-89.0157762704498
 21
-1680.9961579768
 31
0.0
100
AcDbText
  0
ENDBLK
  5
95
330
93
100
AcDbEntity
  8
0
100
AcDbBlockEnd
  0
BLOCK
  5
97
330
96
100
AcDbEntity
  8
0
100
AcDbBlockBegin
  2
DC_GROUP_PT3-SN01B-01-00_11
 70
     0
 10
0.0
 20
0.0
 30
0.0
  3
DC_GROUP_PT3-SN01B-01-00_11
  1

  0
TEXT
  5
17F
330
96
100
AcDbEntity
  8
0
 62
     7
100
AcDbText
 10
-138.6147102786499
 20
-1979.2334799
 30
0.0
 40
47.625
  1
表面
 41
0.625
  7
dcStyle0
 72
     5
 11
-67.17721027864991
 21
-1979.2334799
 31
0.0
100
AcDbText
  0
TEXT
  5
180
330
96
100
AcDbEntity
  8
0
 62
     7
100
AcDbText
 10
-138.6147102786499
 20
-2042.7334791326
 30
0.0
 40
47.625
  1
処理
 41
0.625
  7
dcStyle0
 72
     5
 11
-67.17721027864991
 21
-2042.7334791326
 31
0.0
100
AcDbText
  0
ENDBLK
  5
98
330
96
100
AcDbEntity
  8
0
100
AcDbBlockEnd
  0
BLOCK
  5
9A
330
99
100
AcDbEntity
  8
0
100
AcDbBlockBegin
  2
DC_GROUP_PT3-SN01B-01-00_12
 70
     0
 10
0.0
 20
0.0
 30
0.0
  3
DC_GROUP_PT3-SN01B-01-00_12
  1

  0
TEXT
  5
181
330
99
100
AcDbEntity
  8
0
 62
     7
100
AcDbText
 10
1357.74617476835
 20
-1598.0236455098
 30
0.0
 40
52.5
  1
図
 41
0.625
  7
dcStyle0
 72
     5
 11
1397.12117476835
 21
-1598.0236455098
 31
0.0
100
AcDbText
  0
TEXT
  5
182
330
99
100
AcDbEntity
  8
0
 62
     7
100
AcDbText
 10
1357.74617476835
 20
-1673.0236438334
 30
0.0
 40
52.5
  1
番
 41
0.625
  7
dcStyle0
 72
     5
 11
1397.12117476835
 21
-1673.0236438334
 31
0.0
100
AcDbText
  0
ENDBLK
  5
9B
330
99
100
AcDbEntity
  8
0
100
AcDbBlockEnd
  0
BLOCK
  5
9D
330
9C
100
AcDbEntity
  8
0
100
AcDbBlockBegin
  2
*D14
 70
     1
 10
0.0
 20
0.0
 30
0.0
  3
*D14
  1

  0
LINE
  5
183
330
9C
100
AcDbEntity
  8
0
  6
Continuous
 62
     7
370
    25
100
AcDbLine
 10
-2983.13167474295
 20
1061.65127689
 30
0.0
 11
-2983.13167474295
 21
1358.83877689
 31
0.0
  0
LINE
  5
184
330
9C
100
AcDbEntity
  8
0
  6
Continuous
 62
     7
370
    25
100
AcDbLine
 10
-2230.53167474295
 20
1061.65127689
 30
0.0
 11
-2230.53167474295
 21
1358.83877689
 31
0.0
  0
LINE
  5
185
330
9C
100
AcDbEntity
  8
0
  6
Continuous
 62
     7
370
    25
100
AcDbLine
 10
-2983.13167474295
 20
1358.83877689
 30
0.0
 11
-2230.53167474295
 21
1358.83877689
 31
0.0
  0
INSERT
  5
18C
330
9C
100
AcDbEntity
  8
0
 62
     7
100
AcDbBlockReference
  2
_OPEN30
 10
-2983.13167474295
 20
1358.83877689
 30
0.0
 41
15.00001393912182
 42
14.99994636989232
 50
180.0
  0
INSERT
  5
18D
330
9C
100
AcDbEntity
  8
0
 62
     7
100
AcDbBlockReference
  2
_OPEN30
 10
-2230.53167474295
 20
1358.83877689
 30
0.0
 41
15.00001393912182
 42
14.99994636989232
 50
360.0
  0
MTEXT
  5
18E
330
9C
100
AcDbEntity
  8
0
 62
     7
100
AcDbMText
 10
-2617.91123399945
 20
1371.96377689
 30
0.0
 40
52.5
 41
311.71875
 71
     8
 72
     1
  1
\T1.00;752.6
  7
dcStyle0
 73
     1
 44
1.0
  0
ENDBLK
  5
9E
330
9C
100
AcDbEntity
  8
0
100
AcDbBlockEnd
  0
BLOCK
  5
A0
330
9F
100
AcDbEntity
  8
0
100
AcDbBlockBegin
  2
*D15
 70
     1
 10
0.0
 20
0.0
 30
0.0
  3
*D15
  1

  0
LINE
  5
18F
330
9F
100
AcDbEntity
  8
0
  6
Continuous
 62
     7
370
    25
100
AcDbLine
 10
-2222.71917474295
 20
713.8387768900002
 30
0.0
 11
-1911.83167474295
 21
713.8387768900002
 31
0.0
  0
LINE
  5
190
330
9F
100
AcDbEntity
  8
0
  6
Continuous
 62
     7
370
    25
100
AcDbLine
 10
-2222.71917474295
 20
1053.83877689
 30
0.0
 11
-1911.83167474295
 21
1053.83877689
 31
0.0
  0
LINE
  5
191
330
9F
100
AcDbEntity
  8
0
  6
Continuous
 62
     7
370
    25
100
AcDbLine
 10
-1911.83167474295
 20
713.8387768900002
 30
0.0
 11
-1911.83167474295
 21
1053.83877689
 31
0.0
  0
INSERT
  5
192
330
9F
100
AcDbEntity
  8
0
 62
     7
100
AcDbBlockReference
  2
_OPEN30
 10
-1911.83167474295
 20
713.8387768900002
 30
0.0
 41
15.00001393912182
 42
14.99994636989232
 50
270.0
  0
INSERT
  5
193
330
9F
100
AcDbEntity
  8
0
 62
     7
100
AcDbBlockReference
  2
_OPEN30
 10
-1911.83167474295
 20
1053.83877689
 30
0.0
 41
15.00001393912182
 42
14.99994636989232
 50
90.0
  0
MTEXT
  5
194
330
9F
100
AcDbEntity
  8
0
 62
     7
100
AcDbMText
 10
-1924.95667474295
 20
890.4084943215998
 30
0.0
 40
52.5
 41
213.28125
 71
     8
 72
     1
  1
\T1.00;340
  7
dcStyle0
 11
6.123031769111886E-17
 21
1.0
 31
0.0
 73
     1
 44
1.0
  0
ENDBLK
  5
A1
330
9F
100
AcDbEntity
  8
0
100
AcDbBlockEnd
  0
BLOCK
  5
A3
330
A2
100
AcDbEntity
  8
0
100
AcDbBlockBegin
  2
*D16
 70
     1
 10
0.0
 20
0.0
 30
0.0
  3
*D16
  1

  0
LINE
  5
195
330
A2
100
AcDbEntity
  8
0
  6
Continuous
 62
     7
370
    25
100
AcDbLine
 10
-2106.76917474295
 20
558.8387768900002
 30
0.0
 11
-1776.83167474295
 21
558.8387768900002
 31
0.0
  0
LINE
  5
196
330
A2
100
AcDbEntity
  8
0
  6
Continuous
 62
     7
370
    25
100
AcDbLine
 10
-2106.76917474295
 20
1208.83877689
 30
0.0
 11
-1776.83167474295
 21
1208.83877689
 31
0.0
  0
LINE
  5
197
330
A2
100
AcDbEntity
  8
0
  6
Continuous
 62
     7
370
    25
100
AcDbLine
 10
-1776.83167474295
 20
558.8387768900002
 30
0.0
 11
-1776.83167474295
 21
1208.83877689
 31
0.0
  0
INSERT
  5
198
330
A2
100
AcDbEntity
  8
0
 62
     7
100
AcDbBlockReference
  2
_OPEN30
 10
-1776.83167474295
 20
558.8387768900002
 30
0.0
 41
15.00001393912182
 42
14.99994636989232
 50
270.0
  0
INSERT
  5
199
330
A2
100
AcDbEntity
  8
0
 62
     7
100
AcDbBlockReference
  2
_OPEN30
 10
-1776.83167474295
 20
1208.83877689
 30
0.0
 41
15.00001393912182
 42
14.99994636989232
 50
90.0
  0
MTEXT
  5
19A
330
A2
100
AcDbEntity
  8
0
 62
     7
100
AcDbMText
 10
-1789.95667474295
 20
890.9146945877001
 30
0.0
 40
52.5
 41
213.28125
 71
     8
 72
     1
  1
\T1.00;650
  7
dcStyle0
 11
6.123031769111886E-17
 21
1.0
 31
0.0
 73
     1
 44
1.0
  0
ENDBLK
  5
A4
330
A2
100
AcDbEntity
  8
0
100
AcDbBlockEnd
  0
BLOCK
  5
A6
330
A5
100
AcDbEntity
  8
0
100
AcDbBlockBegin
  2
*D17
 70
     1
 10
0.0
 20
0.0
 30
0.0
  3
*D17
  1

  0
LINE
  5
19B
330
A5
100
AcDbEntity
  8
0
  6
Continuous
 62
     7
370
    25
100
AcDbLine
 10
-3106.83167474295
 20
1208.90127689
 30
0.0
 11
-3106.83167474295
 21
1509.4381786875
 31
0.0
  0
LINE
  5
19C
330
A5
100
AcDbEntity
  8
0
  6
Continuous
 62
     7
370
    25
100
AcDbLine
 10
-2106.83167474295
 20
1208.90127689
 30
0.0
 11
-2106.83167474295
 21
1509.4381786875
 31
0.0
  0
LINE
  5
19D
330
A5
100
AcDbEntity
  8
0
  6
Continuous
 62
     7
370
    25
100
AcDbLine
 10
-3106.83167474295
 20
1509.4381786875
 30
0.0
 11
-2106.83167474295
 21
1509.4381786875
 31
0.0
  0
INSERT
  5
19E
330
A5
100
AcDbEntity
  8
0
 62
     7
100
AcDbBlockReference
  2
_OPEN30
 10
-3106.83167474295
 20
1509.4381786875
 30
0.0
 41
15.00001393912182
 42
14.99994636989232
 50
180.0
  0
INSERT
  5
19F
330
A5
100
AcDbEntity
  8
0
 62
     7
100
AcDbBlockReference
  2
_OPEN30
 10
-2106.83167474295
 20
1509.4381786875
 30
0.0
 41
15.00001393912182
 42
14.99994636989232
 50
360.0
  0
MTEXT
  5
1A0
330
A5
100
AcDbEntity
  8
0
 62
     7
100
AcDbMText
 10
-2617.91123399945
 20
1522.5631786875
 30
0.0
 40
52.5
 41
262.5
 71
     8
 72
     1
  1
\T1.00;1000
  7
dcStyle0
 73
     1
 44
1.0
  0
ENDBLK
  5
A7
330
A5
100
AcDbEntity
  8
0
100
AcDbBlockEnd
  0
BLOCK
  5
A9
330
A8
100
AcDbEntity
  8
0
100
AcDbBlockBegin
  2
*D18
 70
     1
 10
0.0
 20
0.0
 30
0.0
  3
*D18
  1

  0
LINE
  5
1A1
330
A8
100
AcDbEntity
  8
0
  6
Continuous
 62
     7
370
    25
100
AcDbLine
 10
-3106.83167474295
 20
1208.90127689
 30
0.0
 11
-3106.83167474295
 21
1358.83877689
 31
0.0
  0
LINE
  5
1A2
330
A8
100
AcDbEntity
  8
0
  6
Continuous
 62
     7
370
    25
100
AcDbLine
 10
-2983.13167474295
 20
1061.65127689
 30
0.0
 11
-2983.13167474295
 21
1358.83877689
 31
0.0
  0
LINE
  5
1A3
330
A8
100
AcDbEntity
  8
0
  6
Continuous
 62
     7
370
    25
100
AcDbLine
 10
-2983.13167474295
 20
1358.83877689
 30
0.0
 11
-3106.83167474295
 21
1358.83877689
 31
0.0
  0
LINE
  5
1A4
330
A8
100
AcDbEntity
  8
0
  6
Continuous
 62
     7
370
    25
100
AcDbLine
 10
-3433.04784648285
 20
1358.83877689
 30
0.0
 11
-3106.83167474295
 21
1358.83877689
 31
0.0
  0
INSERT
  5
1A5
330
A8
100
AcDbEntity
  8
0
 62
     7
100
AcDbBlockReference
  2
_OPEN30
 10
-3106.83167474295
 20
1358.83877689
 30
0.0
 41
15.00001393912182
 42
14.99994636989232
 50
360.0
  0
LINE
  5
1A6
330
A8
100
AcDbEntity
  8
0
  6
Continuous
 62
     7
370
    25
100
AcDbLine
 10
-2958.13167474295
 20
1358.83877689
 30
0.0
 11
-2983.13167474295
 21
1358.83877689
 31
0.0
  0
INSERT
  5
1A7
330
A8
100
AcDbEntity
  8
0
 62
     7
100
AcDbBlockReference
  2
_OPEN30
 10
-2983.13167474295
 20
1358.83877689
 30
0.0
 41
15.00001393912182
 42
14.99994636989232
 50
180.0
  0
MTEXT
  5
1A8
330
A8
100
AcDbEntity
  8
0
 62
     7
100
AcDbMText
 10
-3231.17284648285
 20
1371.96377689
 30
0.0
 40
52.5
 41
311.71875
 71
     9
 72
     1
  1
\T1.00;123.7
  7
dcStyle0
 73
     1
 44
1.0
  0
ENDBLK
  5
AA
330
A8
100
AcDbEntity
  8
0
100
AcDbBlockEnd
  0
BLOCK
  5
AC
330
AB
100
AcDbEntity
  8
0
100
AcDbBlockBegin
  2
*D19
 70
     1
 10
0.0
 20
0.0
 30
0.0
  3
*D19
  1

  0
LINE
  5
1A9
330
AB
100
AcDbEntity
  8
0
  6
Continuous
 62
     7
370
    25
100
AcDbLine
 10
-2230.53167474295
 20
1061.65127689
 30
0.0
 11
-2230.53167474295
 21
1358.83877689
 31
0.0
  0
LINE
  5
1AA
330
AB
100
AcDbEntity
  8
0
  6
Continuous
 62
     7
370
    25
100
AcDbLine
 10
-2106.83167474295
 20
1208.90127689
 30
0.0
 11
-2106.83167474295
 21
1358.83877689
 31
0.0
  0
LINE
  5
1AB
330
AB
100
AcDbEntity
  8
0
  6
Continuous
 62
     7
370
    25
100
AcDbLine
 10
-2106.83167474295
 20
1358.83877689
 30
0.0
 11
-2230.53167474295
 21
1358.83877689
 31
0.0
  0
LINE
  5
1AC
330
AB
100
AcDbEntity
  8
0
  6
Continuous
 62
     7
370
    25
100
AcDbLine
 10
-1787.32848210775
 20
1358.83877689
 30
0.0
 11
-2106.83167474295
 21
1358.83877689
 31
0.0
  0
INSERT
  5
1AD
330
AB
100
AcDbEntity
  8
0
 62
     7
100
AcDbBlockReference
  2
_OPEN30
 10
-2106.83167474295
 20
1358.83877689
 30
0.0
 41
15.00001393912182
 42
14.99994636989232
 50
180.0
  0
LINE
  5
1AE
330
AB
100
AcDbEntity
  8
0
  6
Continuous
 62
     7
370
    25
100
AcDbLine
 10
-2255.53167474295
 20
1358.83877689
 30
0.0
 11
-2230.53167474295
 21
1358.83877689
 31
0.0
  0
INSERT
  5
1AF
330
AB
100
AcDbEntity
  8
0
 62
     7
100
AcDbBlockReference
  2
_OPEN30
 10
-2230.53167474295
 20
1358.83877689
 30
0.0
 41
15.00001393912182
 42
14.99994636989232
 50
360.0
  0
MTEXT
  5
1B0
330
AB
100
AcDbEntity
  8
0
 62
     7
100
AcDbMText
 10
-1989.20348210775
 20
1371.96377689
 30
0.0
 40
52.5
 41
311.71875
 71
     7
 72
     1
  1
\T1.00;123.7
  7
dcStyle0
 73
     1
 44
1.0
  0
ENDBLK
  5
AD
330
AB
100
AcDbEntity
  8
0
100
AcDbBlockEnd
  0
BLOCK
  5
AF
330
AE
100
AcDbEntity
  8
0
100
AcDbBlockBegin
  2
*D20
 70
     1
 10
0.0
 20
0.0
 30
0.0
  3
*D20
  1

  0
LINE
  5
1B1
330
AE
100
AcDbEntity
  8
0
  6
Continuous
 62
     7
370
    25
100
AcDbLine
 10
-2222.71917474295
 20
1053.83877689
 30
0.0
 11
-1911.83167474295
 21
1053.83877689
 31
0.0
  0
LINE
  5
1B2
330
AE
100
AcDbEntity
  8
0
  6
Continuous
 62
     7
370
    25
100
AcDbLine
 10
-2106.76917474295
 20
1208.83877689
 30
0.0
 11
-1911.83167474295
 21
1208.83877689
 31
0.0
  0
LINE
  5
1B3
330
AE
100
AcDbEntity
  8
0
  6
Continuous
 62
     7
370
    25
100
AcDbLine
 10
-1911.83167474295
 20
1053.83877689
 30
0.0
 11
-1911.83167474295
 21
1208.83877689
 31
0.0
  0
INSERT
  5
1B4
330
AE
100
AcDbEntity
  8
0
 62
     7
100
AcDbBlockReference
  2
_OPEN30
 10
-1911.83167474295
 20
1053.83877689
 30
0.0
 41
15.00001393912182
 42
14.99994636989232
 50
270.0
  0
INSERT
  5
1B5
330
AE
100
AcDbEntity
  8
0
 62
     7
100
AcDbBlockReference
  2
_OPEN30
 10
-1911.83167474295
 20
1208.83877689
 30
0.0
 41
15.00001393912182
 42
14.99994636989232
 50
90.0
  0
MTEXT
  5
1B6
330
AE
100
AcDbEntity
  8
0
 62
     7
100
AcDbMText
 10
-1924.95667474295
 20
1134.120198776
 30
0.0
 40
52.5
 41
213.28125
 71
     8
 72
     1
  1
\T1.00;155
  7
dcStyle0
 11
6.123031769111886E-17
 21
1.0
 31
0.0
 73
     1
 44
1.0
  0
ENDBLK
  5
B0
330
AE
100
AcDbEntity
  8
0
100
AcDbBlockEnd
  0
BLOCK
  5
B2
330
B1
100
AcDbEntity
  8
0
100
AcDbBlockBegin
  2
*D21
 70
     1
 10
0.0
 20
0.0
 30
0.0
  3
*D21
  1

  0
LINE
  5
1B7
330
B1
100
AcDbEntity
  8
0
  6
Continuous
 62
     7
370
    25
100
AcDbLine
 10
-2106.76917474295
 20
558.8387768900002
 30
0.0
 11
-1911.83167474295
 21
558.8387768900002
 31
0.0
  0
LINE
  5
1B8
330
B1
100
AcDbEntity
  8
0
  6
Continuous
 62
     7
370
    25
100
AcDbLine
 10
-2222.71917474295
 20
713.8387768900002
 30
0.0
 11
-1911.83167474295
 21
713.8387768900002
 31
0.0
  0
LINE
  5
1B9
330
B1
100
AcDbEntity
  8
0
  6
Continuous
 62
     7
370
    25
100
AcDbLine
 10
-1911.83167474295
 20
558.8387768900002
 30
0.0
 11
-1911.83167474295
 21
713.8387768900002
 31
0.0
  0
INSERT
  5
1BA
330
B1
100
AcDbEntity
  8
0
 62
     7
100
AcDbBlockReference
  2
_OPEN30
 10
-1911.83167474295
 20
558.8387768900002
 30
0.0
 41
15.00001393912182
 42
14.99994636989232
 50
270.0
  0
INSERT
  5
1BB
330
B1
100
AcDbEntity
  8
0
 62
     7
100
AcDbBlockReference
  2
_OPEN30
 10
-1911.83167474295
 20
713.8387768900002
 30
0.0
 41
15.00001393912182
 42
14.99994636989232
 50
90.0
  0
MTEXT
  5
1BC
330
B1
100
AcDbEntity
  8
0
 62
     7
100
AcDbMText
 10
-1924.95667474295
 20
630.2949515261998
 30
0.0
 40
52.5
 41
213.28125
 71
     8
 72
     1
  1
\T1.00;155
  7
dcStyle0
 11
6.123031769111886E-17
 21
1.0
 31
0.0
 73
     1
 44
1.0
  0
ENDBLK
  5
B3
330
B1
100
AcDbEntity
  8
0
100
AcDbBlockEnd
  0
BLOCK
  5
B5
330
B4
100
AcDbEntity
  8
0
100
AcDbBlockBegin
  2
*D22
 70
     1
 10
0.0
 20
0.0
 30
0.0
  3
*D22
  1

  0
LINE
  5
1BD
330
B4
100
AcDbEntity
  8
0
  6
Continuous
 62
     7
370
    25
100
AcDbLine
 10
-2983.157406212784
 20
1053.781819524715
 30
0.0
 11
-3028.411827288177
 21
953.6098274620189
 31
0.0
  0
LINE
  5
1BE
330
B4
100
AcDbEntity
  8
0
  6
Continuous
 62
     7
370
    25
100
AcDbLine
 10
-2230.557406212783
 20
713.7818195247153
 30
0.0
 11
-2275.811827288269
 21
613.6098274618148
 31
0.0
  0
LINE
  5
1BF
330
B4
100
AcDbEntity
  8
0
  6
Continuous
 62
     7
370
    25
100
AcDbLine
 10
-3028.411827288177
 20
953.6098274620189
 30
0.0
 11
-2275.811827288269
 21
613.6098274618148
 31
0.0
  0
INSERT
  5
1C0
330
B4
100
AcDbEntity
  8
0
 62
     7
100
AcDbBlockReference
  2
_OPEN30
 10
-3028.411827288177
 20
953.6098274620189
 30
0.0
 41
15.00001393912182
 42
14.99994636989232
 50
155.6881078932
  0
INSERT
  5
1C1
330
B4
100
AcDbEntity
  8
0
 62
     7
100
AcDbBlockReference
  2
_OPEN30
 10
-2275.811827288269
 20
613.6098274618148
 30
0.0
 41
15.00001393912182
 42
14.99994636989232
 50
335.6881078932
  0
MTEXT
  5
1C2
330
B4
100
AcDbEntity
  8
0
 62
     7
100
AcDbMText
 10
-2671.647452799965
 20
806.8376023409248
 30
0.0
 40
52.5
 41
311.7187500000005
 71
     8
 72
     1
  1
\T1.00;825.8
  7
dcStyle0
 11
0.9113178445580851
 21
-0.4117035173398522
 31
0.0
 73
     1
 44
1.0
  0
ENDBLK
  5
B6
330
B4
100
AcDbEntity
  8
0
100
AcDbBlockEnd
  0
BLOCK
  5
B8
330
B7
100
AcDbEntity
  8
0
100
AcDbBlockBegin
  2
*D23
 70
     1
 10
0.0
 20
0.0
 30
0.0
  3
*D23
  1

  0
LINE
  5
1C3
330
B7
100
AcDbEntity
  8
0
  6
Continuous
 62
     7
370
    25
100
AcDbLine
 10
-2225.98504137315
 20
1056.46377689
 30
0.0
 11
-2235.07830811285
 21
1051.21377689
 31
0.0
  0
LINE
  5
1C4
330
B7
100
AcDbEntity
  8
0
  6
Continuous
 62
     7
370
    25
100
AcDbLine
 10
-2506.640459091335
 20
894.4272959202284
 30
0.0
 11
-2235.07830811285
 21
1051.21377689
 31
0.0
  0
INSERT
  5
1C5
330
B7
100
AcDbEntity
  8
0
 62
     7
100
AcDbBlockReference
  2
_OPEN30
 10
-2235.07830811285
 20
1051.21377689
 30
0.0
 41
15.00001393912182
 42
14.99994636989232
 50
30.00000000009963
  0
LINE
  5
1C6
330
B7
100
AcDbEntity
  8
0
  6
Continuous
 62
     7
370
    25
100
AcDbLine
 10
-2204.33440627856
 20
1068.963776890038
 30
0.0
 11
-2225.98504137315
 21
1056.46377689
 31
0.0
  0
INSERT
  5
1C7
330
B7
100
AcDbEntity
  8
0
 62
     7
100
AcDbBlockReference
  2
_OPEN30
 10
-2225.98504137315
 20
1056.46377689
 30
0.0
 41
15.00001393912182
 42
14.99994636989232
 50
210.0000000000998
  0
MTEXT
  5
1C8
330
B7
100
AcDbEntity
  8
0
 62
     7
100
AcDbMText
 10
-2270.17458015459
 20
1046.10637934531
 30
0.0
 40
52.5
 41
410.1562500000002
 71
     9
 72
     1
  1
\T1.00;4-φ10.5
  7
dcStyle0
 11
0.8660254037835692
 21
0.5000000000015059
 31
0.0
 73
     1
 44
1.0
  0
ENDBLK
  5
B9
330
B7
100
AcDbEntity
  8
0
100
AcDbBlockEnd
  0
BLOCK
  5
BB
330
BA
100
AcDbEntity
  8
0
100
AcDbBlockBegin
  2
DC_GROUP_PT3-SN01B-01-00_13
 70
     0
 10
0.0
 20
0.0
 30
0.0
  3
DC_GROUP_PT3-SN01B-01-00_13
  1

  0
LINE
  5
1C9
330
BA
100
AcDbEntity
  8
0
  6
Continuous
 62
     7
370
    25
100
AcDbLine
 10
-2983.13167474295
 20
1053.83877689
 30
0.0
 11
-2983.13167474295
 21
1056.33877689
 31
0.0
  0
LINE
  5
1CA
330
BA
100
AcDbEntity
  8
0
  6
Continuous
 62
     7
370
    25
100
AcDbLine
 10
-2983.13167474295
 20
1053.83877689
 30
0.0
 11
-2985.63167474295
 21
1053.83877689
 31
0.0
  0
LINE
  5
1CB
330
BA
100
AcDbEntity
  8
0
  6
Continuous
 62
     7
370
    25
100
AcDbLine
 10
-2983.13167474295
 20
1053.83877689
 30
0.0
 11
-2983.13167474295
 21
1051.33877689
 31
0.0
  0
LINE
  5
1CC
330
BA
100
AcDbEntity
  8
0
  6
Continuous
 62
     7
370
    25
100
AcDbLine
 10
-2983.13167474295
 20
1053.83877689
 30
0.0
 11
-2980.63167474295
 21
1053.83877689
 31
0.0
  0
LINE
  5
1CD
330
BA
100
AcDbEntity
  8
0
  6
Continuous
 62
     7
370
    25
100
AcDbLine
 10
-2983.13167474295
 20
1058.83877689
 30
0.0
 11
-2983.13167474295
 21
1061.58877689
 31
0.0
  0
LINE
  5
1CE
330
BA
100
AcDbEntity
  8
0
  6
Continuous
 62
     7
370
    25
100
AcDbLine
 10
-2988.13167474295
 20
1053.83877689
 30
0.0
 11
-2990.88167474295
 21
1053.83877689
 31
0.0
  0
LINE
  5
1CF
330
BA
100
AcDbEntity
  8
0
  6
Continuous
 62
     7
370
    25
100
AcDbLine
 10
-2983.13167474295
 20
1048.83877689
 30
0.0
 11
-2983.13167474295
 21
1046.08877689
 31
0.0
  0
LINE
  5
1D0
330
BA
100
AcDbEntity
  8
0
  6
Continuous
 62
     7
370
    25
100
AcDbLine
 10
-2978.13167474295
 20
1053.83877689
 30
0.0
 11
-2975.38167474295
 21
1053.83877689
 31
0.0
  0
ENDBLK
  5
BC
330
BA
100
AcDbEntity
  8
0
100
AcDbBlockEnd
  0
BLOCK
  5
BE
330
BD
100
AcDbEntity
  8
0
100
AcDbBlockBegin
  2
DC_GROUP_PT3-SN01B-01-00_14
 70
     0
 10
0.0
 20
0.0
 30
0.0
  3
DC_GROUP_PT3-SN01B-01-00_14
  1

  0
LINE
  5
1D1
330
BD
100
AcDbEntity
  8
0
  6
Continuous
 62
     7
370
    25
100
AcDbLine
 10
-2230.53167474295
 20
1053.83877689
 30
0.0
 11
-2230.53167474295
 21
1056.33877689
 31
0.0
  0
LINE
  5
1D2
330
BD
100
AcDbEntity
  8
0
  6
Continuous
 62
     7
370
    25
100
AcDbLine
 10
-2230.53167474295
 20
1053.83877689
 30
0.0
 11
-2233.03167474295
 21
1053.83877689
 31
0.0
  0
LINE
  5
1D3
330
BD
100
AcDbEntity
  8
0
  6
Continuous
 62
     7
370
    25
100
AcDbLine
 10
-2230.53167474295
 20
1053.83877689
 30
0.0
 11
-2230.53167474295
 21
1051.33877689
 31
0.0
  0
LINE
  5
1D4
330
BD
100
AcDbEntity
  8
0
  6
Continuous
 62
     7
370
    25
100
AcDbLine
 10
-2230.53167474295
 20
1053.83877689
 30
0.0
 11
-2228.03167474295
 21
1053.83877689
 31
0.0
  0
LINE
  5
1D5
330
BD
100
AcDbEntity
  8
0
  6
Continuous
 62
     7
370
    25
100
AcDbLine
 10
-2230.53167474295
 20
1058.83877689
 30
0.0
 11
-2230.53167474295
 21
1061.58877689
 31
0.0
  0
LINE
  5
1D6
330
BD
100
AcDbEntity
  8
0
  6
Continuous
 62
     7
370
    25
100
AcDbLine
 10
-2235.53167474295
 20
1053.83877689
 30
0.0
 11
-2238.28167474295
 21
1053.83877689
 31
0.0
  0
LINE
  5
1D7
330
BD
100
AcDbEntity
  8
0
  6
Continuous
 62
     7
370
    25
100
AcDbLine
 10
-2230.53167474295
 20
1048.83877689
 30
0.0
 11
-2230.53167474295
 21
1046.08877689
 31
0.0
  0
LINE
  5
1D8
330
BD
100
AcDbEntity
  8
0
  6
Continuous
 62
     7
370
    25
100
AcDbLine
 10
-2225.53167474295
 20
1053.83877689
 30
0.0
 11
-2222.78167474295
 21
1053.83877689
 31
0.0
  0
ENDBLK
  5
BF
330
BD
100
AcDbEntity
  8
0
100
AcDbBlockEnd
  0
BLOCK
  5
C1
330
C0
100
AcDbEntity
  8
0
100
AcDbBlockBegin
  2
DC_GROUP_PT3-SN01B-01-00_15
 70
     0
 10
0.0
 20
0.0
 30
0.0
  3
DC_GROUP_PT3-SN01B-01-00_15
  1

  0
LINE
  5
1D9
330
C0
100
AcDbEntity
  8
0
  6
Continuous
 62
     7
370
    25
100
AcDbLine
 10
-2230.53167474295
 20
713.8387768900002
 30
0.0
 11
-2230.53167474295
 21
716.3387768900002
 31
0.0
  0
LINE
  5
1DA
330
C0
100
AcDbEntity
  8
0
  6
Continuous
 62
     7
370
    25
100
AcDbLine
 10
-2230.53167474295
 20
713.8387768900002
 30
0.0
 11
-2233.03167474295
 21
713.8387768900002
 31
0.0
  0
LINE
  5
1DB
330
C0
100
AcDbEntity
  8
0
  6
Continuous
 62
     7
370
    25
100
AcDbLine
 10
-2230.53167474295
 20
713.8387768900002
 30
0.0
 11
-2230.53167474295
 21
711.3387768900002
 31
0.0
  0
LINE
  5
1DC
330
C0
100
AcDbEntity
  8
0
  6
Continuous
 62
     7
370
    25
100
AcDbLine
 10
-2230.53167474295
 20
713.8387768900002
 30
0.0
 11
-2228.03167474295
 21
713.8387768900002
 31
0.0
  0
LINE
  5
1DD
330
C0
100
AcDbEntity
  8
0
  6
Continuous
 62
     7
370
    25
100
AcDbLine
 10
-2230.53167474295
 20
718.8387768900002
 30
0.0
 11
-2230.53167474295
 21
721.5887768900002
 31
0.0
  0
LINE
  5
1DE
330
C0
100
AcDbEntity
  8
0
  6
Continuous
 62
     7
370
    25
100
AcDbLine
 10
-2235.53167474295
 20
713.8387768900002
 30
0.0
 11
-2238.28167474295
 21
713.8387768900002
 31
0.0
  0
LINE
  5
1DF
330
C0
100
AcDbEntity
  8
0
  6
Continuous
 62
     7
370
    25
100
AcDbLine
 10
-2230.53167474295
 20
708.8387768900002
 30
0.0
 11
-2230.53167474295
 21
706.0887768900002
 31
0.0
  0
LINE
  5
1E0
330
C0
100
AcDbEntity
  8
0
  6
Continuous
 62
     7
370
    25
100
AcDbLine
 10
-2225.53167474295
 20
713.8387768900002
 30
0.0
 11
-2222.78167474295
 21
713.8387768900002
 31
0.0
  0
ENDBLK
  5
C2
330
C0
100
AcDbEntity
  8
0
100
AcDbBlockEnd
  0
BLOCK
  5
C4
330
C3
100
AcDbEntity
  8
0
100
AcDbBlockBegin
  2
DC_GROUP_PT3-SN01B-01-00_16
 70
     0
 10
0.0
 20
0.0
 30
0.0
  3
DC_GROUP_PT3-SN01B-01-00_16
  1

  0
LINE
  5
1E1
330
C3
100
AcDbEntity
  8
0
  6
Continuous
 62
     7
370
    25
100
AcDbLine
 10
-2983.13167474295
 20
713.8387768900002
 30
0.0
 11
-2983.13167474295
 21
716.3387768900002
 31
0.0
  0
LINE
  5
1E2
330
C3
100
AcDbEntity
  8
0
  6
Continuous
 62
     7
370
    25
100
AcDbLine
 10
-2983.13167474295
 20
713.8387768900002
 30
0.0
 11
-2985.63167474295
 21
713.8387768900002
 31
0.0
  0
LINE
  5
1E3
330
C3
100
AcDbEntity
  8
0
  6
Continuous
 62
     7
370
    25
100
AcDbLine
 10
-2983.13167474295
 20
713.8387768900002
 30
0.0
 11
-2983.13167474295
 21
711.3387768900002
 31
0.0
  0
LINE
  5
1E4
330
C3
100
AcDbEntity
  8
0
  6
Continuous
 62
     7
370
    25
100
AcDbLine
 10
-2983.13167474295
 20
713.8387768900002
 30
0.0
 11
-2980.63167474295
 21
713.8387768900002
 31
0.0
  0
LINE
  5
1E5
330
C3
100
AcDbEntity
  8
0
  6
Continuous
 62
     7
370
    25
100
AcDbLine
 10
-2983.13167474295
 20
718.8387768900002
 30
0.0
 11
-2983.13167474295
 21
721.5887768900002
 31
0.0
  0
LINE
  5
1E6
330
C3
100
AcDbEntity
  8
0
  6
Continuous
 62
     7
370
    25
100
AcDbLine
 10
-2988.13167474295
 20
713.8387768900002
 30
0.0
 11
-2990.88167474295
 21
713.8387768900002
 31
0.0
  0
LINE
  5
1E7
330
C3
100
AcDbEntity
  8
0
  6
Continuous
 62
     7
370
    25
100
AcDbLine
 10
-2983.13167474295
 20
708.8387768900002
 30
0.0
 11
-2983.13167474295
 21
706.0887768900002
 31
0.0
  0
LINE
  5
1E8
330
C3
100
AcDbEntity
  8
0
  6
Continuous
 62
     7
370
    25
100
AcDbLine
 10
-2978.13167474295
 20
713.8387768900002
 30
0.0
 11
-2975.38167474295
 21
713.8387768900002
 31
0.0
  0
ENDBLK
  5
C5
330
C3
100
AcDbEntity
  8
0
100
AcDbBlockEnd
  0
BLOCK
  5
C7
330
C6
100
AcDbEntity
  8
0
100
AcDbBlockBegin
  2
*D28
 70
     1
 10
0.0
 20
0.0
 30
0.0
  3
*D28
  1

  0
LINE
  5
1E9
330
C6
100
AcDbEntity
  8
0
  6
Continuous
 62
     7
370
    25
100
AcDbLine
 10
-690.4459310430498
 20
1046.43920252
 30
0.0
 11
-690.4459310430498
 21
1343.62670252
 31
0.0
  0
LINE
  5
1EA
330
C6
100
AcDbEntity
  8
0
  6
Continuous
 62
     7
370
    25
100
AcDbLine
 10
85.85406895695041
 20
1046.43920252
 30
0.0
 11
85.85406895695041
 21
1343.62670252
 31
0.0
  0
LINE
  5
1EB
330
C6
100
AcDbEntity
  8
0
  6
Continuous
 62
     7
370
    25
100
AcDbLine
 10
-690.4459310430498
 20
1343.62670252
 30
0.0
 11
85.85406895695041
 21
1343.62670252
 31
0.0
  0
INSERT
  5
1EC
330
C6
100
AcDbEntity
  8
0
 62
     7
100
AcDbBlockReference
  2
_OPEN30
 10
-690.4459310430498
 20
1343.62670252
 30
0.0
 41
15.00001393912182
 42
14.99994636989232
 50
180.0
  0
INSERT
  5
1ED
330
C6
100
AcDbEntity
  8
0
 62
     7
100
AcDbBlockReference
  2
_OPEN30
 10
85.85406895695041
 20
1343.62670252
 30
0.0
 41
15.00001393912182
 42
14.99994636989232
 50
360.0
  0
MTEXT
  5
1EE
330
C6
100
AcDbEntity
  8
0
 62
     7
100
AcDbMText
 10
-303.9688931553501
 20
1356.75170252
 30
0.0
 40
52.5
 41
311.71875
 71
     8
 72
     1
  1
\T1.00;776.3
  7
dcStyle0
 73
     1
 44
1.0
  0
ENDBLK
  5
C8
330
C6
100
AcDbEntity
  8
0
100
AcDbBlockEnd
  0
BLOCK
  5
CA
330
C9
100
AcDbEntity
  8
0
100
AcDbBlockBegin
  2
*D29
 70
     1
 10
0.0
 20
0.0
 30
0.0
  3
*D29
  1

  0
LINE
  5
1EF
330
C9
100
AcDbEntity
  8
0
  6
Continuous
 62
     7
370
    25
100
AcDbLine
 10
85.85406895695041
 20
1046.43920252
 30
0.0
 11
85.85406895695041
 21
1343.62670252
 31
0.0
  0
LINE
  5
1F0
330
C9
100
AcDbEntity
  8
0
  6
Continuous
 62
     7
370
    25
100
AcDbLine
 10
862.1540689568496
 20
1046.43920252
 30
0.0
 11
862.1540689568496
 21
1343.62670252
 31
0.0
  0
LINE
  5
1F1
330
C9
100
AcDbEntity
  8
0
  6
Continuous
 62
     7
370
    25
100
AcDbLine
 10
85.85406895695041
 20
1343.62670252
 30
0.0
 11
862.1540689568496
 21
1343.62670252
 31
0.0
  0
INSERT
  5
1F2
330
C9
100
AcDbEntity
  8
0
 62
     7
100
AcDbBlockReference
  2
_OPEN30
 10
85.85406895695041
 20
1343.62670252
 30
0.0
 41
15.00001393912182
 42
14.99994636989232
 50
180.0
  0
INSERT
  5
1F3
330
C9
100
AcDbEntity
  8
0
 62
     7
100
AcDbBlockReference
  2
_OPEN30
 10
862.1540689568496
 20
1343.62670252
 30
0.0
 41
15.00001393912182
 42
14.99994636989232
 50
360.0
  0
MTEXT
  5
1F4
330
C9
100
AcDbEntity
  8
0
 62
     7
100
AcDbMText
 10
434.1137981224497
 20
1356.75170252
 30
0.0
 40
52.5
 41
311.71875
 71
     8
 72
     1
  1
\T1.00;776.3
  7
dcStyle0
 73
     1
 44
1.0
  0
ENDBLK
  5
CB
330
C9
100
AcDbEntity
  8
0
100
AcDbBlockEnd
  0
BLOCK
  5
CD
330
CC
100
AcDbEntity
  8
0
100
AcDbBlockBegin
  2
*D30
 70
     1
 10
0.0
 20
0.0
 30
0.0
  3
*D30
  1

  0
LINE
  5
1F5
330
CC
100
AcDbEntity
  8
0
  6
Continuous
 62
     7
370
    25
100
AcDbLine
 10
869.9665689568496
 20
698.62670252
 30
0.0
 11
1135.85406895695
 21
698.62670252
 31
0.0
  0
LINE
  5
1F6
330
CC
100
AcDbEntity
  8
0
  6
Continuous
 62
     7
370
    25
100
AcDbLine
 10
869.9665689568496
 20
1038.62670252
 30
0.0
 11
1135.85406895695
 21
1038.62670252
 31
0.0
  0
LINE
  5
1F7
330
CC
100
AcDbEntity
  8
0
  6
Continuous
 62
     7
370
    25
100
AcDbLine
 10
1135.85406895695
 20
698.62670252
 30
0.0
 11
1135.85406895695
 21
1038.62670252
 31
0.0
  0
INSERT
  5
1F8
330
CC
100
AcDbEntity
  8
0
 62
     7
100
AcDbBlockReference
  2
_OPEN30
 10
1135.85406895695
 20
698.62670252
 30
0.0
 41
15.00001393912182
 42
14.99994636989232
 50
270.0
  0
INSERT
  5
1F9
330
CC
100
AcDbEntity
  8
0
 62
     7
100
AcDbBlockReference
  2
_OPEN30
 10
1135.85406895695
 20
1038.62670252
 30
0.0
 41
15.00001393912182
 42
14.99994636989232
 50
90.0
  0
MTEXT
  5
1FA
330
CC
100
AcDbEntity
  8
0
 62
     7
100
AcDbMText
 10
1122.72906895695
 20
871.6702308311001
 30
0.0
 40
52.5
 41
213.28125
 71
     8
 72
     1
  1
\T1.00;340
  7
dcStyle0
 11
6.123031769111886E-17
 21
1.0
 31
0.0
 73
     1
 44
1.0
  0
ENDBLK
  5
CE
330
CC
100
AcDbEntity
  8
0
100
AcDbBlockEnd
  0
BLOCK
  5
D0
330
CF
100
AcDbEntity
  8
0
100
AcDbBlockBegin
  2
*D31
 70
     1
 10
0.0
 20
0.0
 30
0.0
  3
*D31
  1

  0
LINE
  5
1FB
330
CF
100
AcDbEntity
  8
0
  6
Continuous
 62
     7
370
    25
100
AcDbLine
 10
-814.1459310431501
 20
1193.68920252
 30
0.0
 11
-814.1459310431501
 21
1343.62670252
 31
0.0
  0
LINE
  5
1FC
330
CF
100
AcDbEntity
  8
0
  6
Continuous
 62
     7
370
    25
100
AcDbLine
 10
-690.4459310430498
 20
1046.43920252
 30
0.0
 11
-690.4459310430498
 21
1343.62670252
 31
0.0
  0
LINE
  5
1FD
330
CF
100
AcDbEntity
  8
0
  6
Continuous
 62
     7
370
    25
100
AcDbLine
 10
-690.4459310430498
 20
1343.62670252
 30
0.0
 11
-814.1459310431501
 21
1343.62670252
 31
0.0
  0
LINE
  5
1FE
330
CF
100
AcDbEntity
  8
0
  6
Continuous
 62
     7
370
    25
100
AcDbLine
 10
-1166.02093104315
 20
1343.62670252
 30
0.0
 11
-814.1459310431501
 21
1343.62670252
 31
0.0
  0
INSERT
  5
1FF
330
CF
100
AcDbEntity
  8
0
 62
     7
100
AcDbBlockReference
  2
_OPEN30
 10
-814.1459310431501
 20
1343.62670252
 30
0.0
 41
15.00001393912182
 42
14.99994636989232
 50
360.0
  0
LINE
  5
200
330
CF
100
AcDbEntity
  8
0
  6
Continuous
 62
     7
370
    25
100
AcDbLine
 10
-665.4459310430498
 20
1343.62670252
 30
0.0
 11
-690.4459310430498
 21
1343.62670252
 31
0.0
  0
INSERT
  5
201
330
CF
100
AcDbEntity
  8
0
 62
     7
100
AcDbBlockReference
  2
_OPEN30
 10
-690.4459310430498
 20
1343.62670252
 30
0.0
 41
15.00001393912182
 42
14.99994636989232
 50
180.0
  0
MTEXT
  5
202
330
CF
100
AcDbEntity
  8
0
 62
     7
100
AcDbMText
 10
-964.1459310431501
 20
1356.75170252
 30
0.0
 40
52.5
 41
311.71875
 71
     9
 72
     1
  1
\T1.00;123.7
  7
dcStyle0
 73
     1
 44
1.0
  0
ENDBLK
  5
D1
330
CF
100
AcDbEntity
  8
0
100
AcDbBlockEnd
  0
BLOCK
  5
D3
330
D2
100
AcDbEntity
  8
0
100
AcDbBlockBegin
  2
*D32
 70
     1
 10
0.0
 20
0.0
 30
0.0
  3
*D32
  1

  0
LINE
  5
203
330
D2
100
AcDbEntity
  8
0
  6
Continuous
 62
     7
370
    25
100
AcDbLine
 10
862.1540689568496
 20
1046.43920252
 30
0.0
 11
862.1540689568496
 21
1343.62670252
 31
0.0
  0
LINE
  5
204
330
D2
100
AcDbEntity
  8
0
  6
Continuous
 62
     7
370
    25
100
AcDbLine
 10
985.8540689569504
 20
1193.68920252
 30
0.0
 11
985.8540689569504
 21
1343.62670252
 31
0.0
  0
LINE
  5
205
330
D2
100
AcDbEntity
  8
0
  6
Continuous
 62
     7
370
    25
100
AcDbLine
 10
985.8540689569504
 20
1343.62670252
 30
0.0
 11
862.1540689568496
 21
1343.62670252
 31
0.0
  0
LINE
  5
206
330
D2
100
AcDbEntity
  8
0
  6
Continuous
 62
     7
370
    25
100
AcDbLine
 10
1309.64490641615
 20
1343.62670252
 30
0.0
 11
985.8540689569504
 21
1343.62670252
 31
0.0
  0
INSERT
  5
207
330
D2
100
AcDbEntity
  8
0
 62
     7
100
AcDbBlockReference
  2
_OPEN30
 10
985.8540689569504
 20
1343.62670252
 30
0.0
 41
15.00001393912182
 42
14.99994636989232
 50
180.0
  0
LINE
  5
208
330
D2
100
AcDbEntity
  8
0
  6
Continuous
 62
     7
370
    25
100
AcDbLine
 10
837.1540689568496
 20
1343.62670252
 30
0.0
 11
862.1540689568496
 21
1343.62670252
 31
0.0
  0
INSERT
  5
209
330
D2
100
AcDbEntity
  8
0
 62
     7
100
AcDbBlockReference
  2
_OPEN30
 10
862.1540689568496
 20
1343.62670252
 30
0.0
 41
15.00001393912182
 42
14.99994636989232
 50
360.0
  0
MTEXT
  5
20A
330
D2
100
AcDbEntity
  8
0
 62
     7
100
AcDbMText
 10
1107.76990641615
 20
1356.75170252
 30
0.0
 40
52.5
 41
311.71875
 71
     7
 72
     1
  1
\T1.00;123.7
  7
dcStyle0
 73
     1
 44
1.0
  0
ENDBLK
  5
D4
330
D2
100
AcDbEntity
  8
0
100
AcDbBlockEnd
  0
BLOCK
  5
D6
330
D5
100
AcDbEntity
  8
0
100
AcDbBlockBegin
  2
*D33
 70
     1
 10
0.0
 20
0.0
 30
0.0
  3
*D33
  1

  0
LINE
  5
20B
330
D5
100
AcDbEntity
  8
0
  6
Continuous
 62
     7
370
    25
100
AcDbLine
 10
-814.1459310431501
 20
1193.68920252
 30
0.0
 11
-814.1459310431501
 21
1476.8317893455
 31
0.0
  0
LINE
  5
20C
330
D5
100
AcDbEntity
  8
0
  6
Continuous
 62
     7
370
    25
100
AcDbLine
 10
985.8540689569504
 20
1193.68920252
 30
0.0
 11
985.8540689569504
 21
1476.8317893455
 31
0.0
  0
LINE
  5
20D
330
D5
100
AcDbEntity
  8
0
  6
Continuous
 62
     7
370
    25
100
AcDbLine
 10
-814.1459310431501
 20
1476.8317893455
 30
0.0
 11
985.8540689569504
 21
1476.8317893455
 31
0.0
  0
INSERT
  5
20E
330
D5
100
AcDbEntity
  8
0
 62
     7
100
AcDbBlockReference
  2
_OPEN30
 10
-814.1459310431501
 20
1476.8317893455
 30
0.0
 41
15.00001393912182
 42
14.99994636989232
 50
180.0
  0
INSERT
  5
20F
330
D5
100
AcDbEntity
  8
0
 62
     7
100
AcDbBlockReference
  2
_OPEN30
 10
985.8540689569504
 20
1476.8317893455
 30
0.0
 41
15.00001393912182
 42
14.99994636989232
 50
360.0
  0
MTEXT
  5
210
330
D5
100
AcDbEntity
  8
0
 62
     7
100
AcDbMText
 10
77.68624399734972
 20
1489.9567893455
 30
0.0
 40
52.5
 41
262.5
 71
     8
 72
     1
  1
\T1.00;1800
  7
dcStyle0
 73
     1
 44
1.0
  0
ENDBLK
  5
D7
330
D5
100
AcDbEntity
  8
0
100
AcDbBlockEnd
  0
BLOCK
  5
D9
330
D8
100
AcDbEntity
  8
0
100
AcDbBlockBegin
  2
*D34
 70
     1
 10
0.0
 20
0.0
 30
0.0
  3
*D34
  1

  0
LINE
  5
211
330
D8
100
AcDbEntity
  8
0
  6
Continuous
 62
     7
370
    25
100
AcDbLine
 10
869.9665689568496
 20
1038.62670252
 30
0.0
 11
1135.85406895695
 21
1038.62670252
 31
0.0
  0
LINE
  5
212
330
D8
100
AcDbEntity
  8
0
  6
Continuous
 62
     7
370
    25
100
AcDbLine
 10
985.9165689569504
 20
1193.62670252
 30
0.0
 11
1135.85406895695
 21
1193.62670252
 31
0.0
  0
LINE
  5
213
330
D8
100
AcDbEntity
  8
0
  6
Continuous
 62
     7
370
    25
100
AcDbLine
 10
1135.85406895695
 20
1038.62670252
 30
0.0
 11
1135.85406895695
 21
1193.62670252
 31
0.0
  0
INSERT
  5
214
330
D8
100
AcDbEntity
  8
0
 62
     7
100
AcDbBlockReference
  2
_OPEN30
 10
1135.85406895695
 20
1038.62670252
 30
0.0
 41
15.00001393912182
 42
14.99994636989232
 50
270.0
  0
INSERT
  5
215
330
D8
100
AcDbEntity
  8
0
 62
     7
100
AcDbBlockReference
  2
_OPEN30
 10
1135.85406895695
 20
1193.62670252
 30
0.0
 41
15.00001393912182
 42
14.99994636989232
 50
90.0
  0
MTEXT
  5
216
330
D8
100
AcDbEntity
  8
0
 62
     7
100
AcDbMText
 10
1122.72906895695
 20
1113.9083518204
 30
0.0
 40
52.5
 41
213.28125
 71
     8
 72
     1
  1
\T1.00;155
  7
dcStyle0
 11
6.123031769111886E-17
 21
1.0
 31
0.0
 73
     1
 44
1.0
  0
ENDBLK
  5
DA
330
D8
100
AcDbEntity
  8
0
100
AcDbBlockEnd
  0
BLOCK
  5
DC
330
DB
100
AcDbEntity
  8
0
100
AcDbBlockBegin
  2
*D35
 70
     1
 10
0.0
 20
0.0
 30
0.0
  3
*D35
  1

  0
LINE
  5
217
330
DB
100
AcDbEntity
  8
0
  6
Continuous
 62
     7
370
    25
100
AcDbLine
 10
985.9165689569504
 20
543.62670252
 30
0.0
 11
1135.85406895695
 21
543.62670252
 31
0.0
  0
LINE
  5
218
330
DB
100
AcDbEntity
  8
0
  6
Continuous
 62
     7
370
    25
100
AcDbLine
 10
869.9665689568496
 20
698.62670252
 30
0.0
 11
1135.85406895695
 21
698.62670252
 31
0.0
  0
LINE
  5
219
330
DB
100
AcDbEntity
  8
0
  6
Continuous
 62
     7
370
    25
100
AcDbLine
 10
1135.85406895695
 20
543.62670252
 30
0.0
 11
1135.85406895695
 21
698.62670252
 31
0.0
  0
INSERT
  5
21A
330
DB
100
AcDbEntity
  8
0
 62
     7
100
AcDbBlockReference
  2
_OPEN30
 10
1135.85406895695
 20
543.62670252
 30
0.0
 41
15.00001393912182
 42
14.99994636989232
 50
270.0
  0
INSERT
  5
21B
330
DB
100
AcDbEntity
  8
0
 62
     7
100
AcDbBlockReference
  2
_OPEN30
 10
1135.85406895695
 20
698.62670252
 30
0.0
 41
15.00001393912182
 42
14.99994636989232
 50
90.0
  0
MTEXT
  5
21C
330
DB
100
AcDbEntity
  8
0
 62
     7
100
AcDbMText
 10
1122.72906895695
 20
614.2044095041001
 30
0.0
 40
52.5
 41
213.28125
 71
     8
 72
     1
  1
\T1.00;155
  7
dcStyle0
 11
6.123031769111886E-17
 21
1.0
 31
0.0
 73
     1
 44
1.0
  0
ENDBLK
  5
DD
330
DB
100
AcDbEntity
  8
0
100
AcDbBlockEnd
  0
BLOCK
  5
DF
330
DE
100
AcDbEntity
  8
0
100
AcDbBlockBegin
  2
*D36
 70
     1
 10
0.0
 20
0.0
 30
0.0
  3
*D36
  1

  0
LINE
  5
21D
330
DE
100
AcDbEntity
  8
0
  6
Continuous
 62
     7
370
    25
100
AcDbLine
 10
985.9165689569504
 20
543.62670252
 30
0.0
 11
1264.36725150265
 21
543.62670252
 31
0.0
  0
LINE
  5
21E
330
DE
100
AcDbEntity
  8
0
  6
Continuous
 62
     7
370
    25
100
AcDbLine
 10
985.9165689569504
 20
1193.62670252
 30
0.0
 11
1264.36725150265
 21
1193.62670252
 31
0.0
  0
LINE
  5
21F
330
DE
100
AcDbEntity
  8
0
  6
Continuous
 62
     7
370
    25
100
AcDbLine
 10
1264.36725150265
 20
543.62670252
 30
0.0
 11
1264.36725150265
 21
1193.62670252
 31
0.0
  0
INSERT
  5
220
330
DE
100
AcDbEntity
  8
0
 62
     7
100
AcDbBlockReference
  2
_OPEN30
 10
1264.36725150265
 20
543.62670252
 30
0.0
 41
15.00001393912182
 42
14.99994636989232
 50
270.0
  0
INSERT
  5
221
330
DE
100
AcDbEntity
  8
0
 62
     7
100
AcDbBlockReference
  2
_OPEN30
 10
1264.36725150265
 20
1193.62670252
 30
0.0
 41
15.00001393912182
 42
14.99994636989232
 50
90.0
  0
MTEXT
  5
222
330
DE
100
AcDbEntity
  8
0
 62
     7
100
AcDbMText
 10
1251.24225150265
 20
871.6702308311001
 30
0.0
 40
52.5
 41
213.28125
 71
     8
 72
     1
  1
\T1.00;650
  7
dcStyle0
 11
6.123031769111886E-17
 21
1.0
 31
0.0
 73
     1
 44
1.0
  0
ENDBLK
  5
E0
330
DE
100
AcDbEntity
  8
0
100
AcDbBlockEnd
  0
BLOCK
  5
E2
330
E1
100
AcDbEntity
  8
0
100
AcDbBlockBegin
  2
*D37
 70
     1
 10
0.0
 20
0.0
 30
0.0
  3
*D37
  1

  0
LINE
  5
223
330
E1
100
AcDbEntity
  8
0
  6
Continuous
 62
     7
370
    25
100
AcDbLine
 10
-690.4710050435052
 20
1038.569452677195
 30
0.0
 11
-730.691335134213
 21
946.7369754728223
 31
0.0
  0
LINE
  5
224
330
E1
100
AcDbEntity
  8
0
  6
Continuous
 62
     7
370
    25
100
AcDbLine
 10
85.82899495649498
 20
698.5694526771953
 30
0.0
 11
45.60866486606911
 21
606.7369754734658
 31
0.0
  0
LINE
  5
225
330
E1
100
AcDbEntity
  8
0
  6
Continuous
 62
     7
370
    25
100
AcDbLine
 10
-730.691335134213
 20
946.7369754728223
 30
0.0
 11
45.60866486606912
 21
606.7369754734658
 31
0.0
  0
INSERT
  5
226
330
E1
100
AcDbEntity
  8
0
 62
     7
100
AcDbBlockReference
  2
_OPEN30
 10
-730.691335134213
 20
946.7369754728223
 30
0.0
 41
15.00001393912182
 42
14.99994636989232
 50
156.3477826201
  0
INSERT
  5
227
330
E1
100
AcDbEntity
  8
0
 62
     7
100
AcDbBlockReference
  2
_OPEN30
 10
45.60866486606912
 20
606.7369754734658
 30
0.0
 41
15.00001393912182
 42
14.99994636989232
 50
336.3477826201
  0
MTEXT
  5
228
330
E1
100
AcDbEntity
  8
0
 62
     7
100
AcDbMText
 10
-351.9766097405101
 20
795.1980319232838
 30
0.0
 40
52.5
 41
311.7187499999999
 71
     8
 72
     1
  1
\T1.00;847.5
  7
dcStyle0
 11
0.9159974848749645
 21
-0.4011840072868548
 31
0.0
 73
     1
 44
1.0
  0
ENDBLK
  5
E3
330
E1
100
AcDbEntity
  8
0
100
AcDbBlockEnd
  0
BLOCK
  5
E5
330
E4
100
AcDbEntity
  8
0
100
AcDbBlockBegin
  2
*D38
 70
     1
 10
0.0
 20
0.0
 30
0.0
  3
*D38
  1

  0
LINE
  5
229
330
E4
100
AcDbEntity
  8
0
  6
Continuous
 62
     7
370
    25
100
AcDbLine
 10
866.7007023267507
 20
1041.25170252
 30
0.0
 11
857.6074355870504
 21
1036.00170252
 31
0.0
  0
LINE
  5
22A
330
E4
100
AcDbEntity
  8
0
  6
Continuous
 62
     7
370
    25
100
AcDbLine
 10
565.4304202986159
 20
867.3132240915404
 30
0.0
 11
857.6074355870504
 21
1036.00170252
 31
0.0
  0
INSERT
  5
22B
330
E4
100
AcDbEntity
  8
0
 62
     7
100
AcDbBlockReference
  2
_OPEN30
 10
857.6074355870504
 20
1036.00170252
 30
0.0
 41
15.00001393912182
 42
14.99994636989232
 50
30.00000000009717
  0
LINE
  5
22C
330
E4
100
AcDbEntity
  8
0
  6
Continuous
 62
     7
370
    25
100
AcDbLine
 10
888.3513374213405
 20
1053.751702520037
 30
0.0
 11
866.7007023267507
 21
1041.25170252
 31
0.0
  0
INSERT
  5
22D
330
E4
100
AcDbEntity
  8
0
 62
     7
100
AcDbBlockReference
  2
_OPEN30
 10
866.7007023267507
 20
1041.25170252
 30
0.0
 41
15.00001393912182
 42
14.99994636989232
 50
210.0000000000974
  0
MTEXT
  5
22E
330
E4
100
AcDbEntity
  8
0
 62
     7
100
AcDbMText
 10
801.8962992353667
 20
1018.992307516612
 30
0.0
 40
52.5
 41
410.1562500000001
 71
     9
 72
     1
  1
\T1.00;6-φ10.5
  7
dcStyle0
 11
0.8660254037835905
 21
0.500000000001469
 31
0.0
 73
     1
 44
1.0
  0
ENDBLK
  5
E6
330
E4
100
AcDbEntity
  8
0
100
AcDbBlockEnd
  0
BLOCK
  5
E8
330
E7
100
AcDbEntity
  8
0
100
AcDbBlockBegin
  2
DC_GROUP_PT3-SN01B-01-00_17
 70
     0
 10
0.0
 20
0.0
 30
0.0
  3
DC_GROUP_PT3-SN01B-01-00_17
  1

  0
LINE
  5
22F
330
E7
100
AcDbEntity
  8
0
  6
Continuous
 62
     7
370
    25
100
AcDbLine
 10
862.1540689568496
 20
1038.62670252
 30
0.0
 11
862.1540689568496
 21
1041.12670252
 31
0.0
  0
LINE
  5
230
330
E7
100
AcDbEntity
  8
0
  6
Continuous
 62
     7
370
    25
100
AcDbLine
 10
862.1540689568496
 20
1038.62670252
 30
0.0
 11
859.6540689568496
 21
1038.62670252
 31
0.0
  0
LINE
  5
231
330
E7
100
AcDbEntity
  8
0
  6
Continuous
 62
     7
370
    25
100
AcDbLine
 10
862.1540689568496
 20
1038.62670252
 30
0.0
 11
862.1540689568496
 21
1036.12670252
 31
0.0
  0
LINE
  5
232
330
E7
100
AcDbEntity
  8
0
  6
Continuous
 62
     7
370
    25
100
AcDbLine
 10
862.1540689568496
 20
1038.62670252
 30
0.0
 11
864.6540689568496
 21
1038.62670252
 31
0.0
  0
LINE
  5
233
330
E7
100
AcDbEntity
  8
0
  6
Continuous
 62
     7
370
    25
100
AcDbLine
 10
862.1540689568496
 20
1043.62670252
 30
0.0
 11
862.1540689568496
 21
1046.37670252
 31
0.0
  0
LINE
  5
234
330
E7
100
AcDbEntity
  8
0
  6
Continuous
 62
     7
370
    25
100
AcDbLine
 10
857.1540689568496
 20
1038.62670252
 30
0.0
 11
854.4040689568496
 21
1038.62670252
 31
0.0
  0
LINE
  5
235
330
E7
100
AcDbEntity
  8
0
  6
Continuous
 62
     7
370
    25
100
AcDbLine
 10
862.1540689568496
 20
1033.62670252
 30
0.0
 11
862.1540689568496
 21
1030.87670252
 31
0.0
  0
LINE
  5
236
330
E7
100
AcDbEntity
  8
0
  6
Continuous
 62
     7
370
    25
100
AcDbLine
 10
867.1540689568496
 20
1038.62670252
 30
0.0
 11
869.9040689568496
 21
1038.62670252
 31
0.0
  0
ENDBLK
  5
E9
330
E7
100
AcDbEntity
  8
0
100
AcDbBlockEnd
  0
BLOCK
  5
EB
330
EA
100
AcDbEntity
  8
0
100
AcDbBlockBegin
  2
DC_GROUP_PT3-SN01B-01-00_18
 70
     0
 10
0.0
 20
0.0
 30
0.0
  3
DC_GROUP_PT3-SN01B-01-00_18
  1

  0
LINE
  5
237
330
EA
100
AcDbEntity
  8
0
  6
Continuous
 62
     7
370
    25
100
AcDbLine
 10
862.1540689568496
 20
698.62670252
 30
0.0
 11
862.1540689568496
 21
701.12670252
 31
0.0
  0
LINE
  5
238
330
EA
100
AcDbEntity
  8
0
  6
Continuous
 62
     7
370
    25
100
AcDbLine
 10
862.1540689568496
 20
698.62670252
 30
0.0
 11
859.6540689568496
 21
698.62670252
 31
0.0
  0
LINE
  5
239
330
EA
100
AcDbEntity
  8
0
  6
Continuous
 62
     7
370
    25
100
AcDbLine
 10
862.1540689568496
 20
698.62670252
 30
0.0
 11
862.1540689568496
 21
696.12670252
 31
0.0
  0
LINE
  5
23A
330
EA
100
AcDbEntity
  8
0
  6
Continuous
 62
     7
370
    25
100
AcDbLine
 10
862.1540689568496
 20
698.62670252
 30
0.0
 11
864.6540689568496
 21
698.62670252
 31
0.0
  0
LINE
  5
23B
330
EA
100
AcDbEntity
  8
0
  6
Continuous
 62
     7
370
    25
100
AcDbLine
 10
862.1540689568496
 20
703.62670252
 30
0.0
 11
862.1540689568496
 21
706.37670252
 31
0.0
  0
LINE
  5
23C
330
EA
100
AcDbEntity
  8
0
  6
Continuous
 62
     7
370
    25
100
AcDbLine
 10
857.1540689568496
 20
698.62670252
 30
0.0
 11
854.4040689568496
 21
698.62670252
 31
0.0
  0
LINE
  5
23D
330
EA
100
AcDbEntity
  8
0
  6
Continuous
 62
     7
370
    25
100
AcDbLine
 10
862.1540689568496
 20
693.62670252
 30
0.0
 11
862.1540689568496
 21
690.87670252
 31
0.0
  0
LINE
  5
23E
330
EA
100
AcDbEntity
  8
0
  6
Continuous
 62
     7
370
    25
100
AcDbLine
 10
867.1540689568496
 20
698.62670252
 30
0.0
 11
869.9040689568496
 21
698.62670252
 31
0.0
  0
ENDBLK
  5
EC
330
EA
100
AcDbEntity
  8
0
100
AcDbBlockEnd
  0
BLOCK
  5
EE
330
ED
100
AcDbEntity
  8
0
100
AcDbBlockBegin
  2
DC_GROUP_PT3-SN01B-01-00_19
 70
     0
 10
0.0
 20
0.0
 30
0.0
  3
DC_GROUP_PT3-SN01B-01-00_19
  1

  0
LINE
  5
23F
330
ED
100
AcDbEntity
  8
0
  6
Continuous
 62
     7
370
    25
100
AcDbLine
 10
-690.4459310431498
 20
698.62670252
 30
0.0
 11
-690.4459310431498
 21
701.12670252
 31
0.0
  0
LINE
  5
240
330
ED
100
AcDbEntity
  8
0
  6
Continuous
 62
     7
370
    25
100
AcDbLine
 10
-690.4459310431498
 20
698.62670252
 30
0.0
 11
-692.9459310431498
 21
698.62670252
 31
0.0
  0
LINE
  5
241
330
ED
100
AcDbEntity
  8
0
  6
Continuous
 62
     7
370
    25
100
AcDbLine
 10
-690.4459310431498
 20
698.62670252
 30
0.0
 11
-690.4459310431498
 21
696.12670252
 31
0.0
  0
LINE
  5
242
330
ED
100
AcDbEntity
  8
0
  6
Continuous
 62
     7
370
    25
100
AcDbLine
 10
-690.4459310431498
 20
698.62670252
 30
0.0
 11
-687.9459310431498
 21
698.62670252
 31
0.0
  0
LINE
  5
243
330
ED
100
AcDbEntity
  8
0
  6
Continuous
 62
     7
370
    25
100
AcDbLine
 10
-690.4459310431498
 20
703.62670252
 30
0.0
 11
-690.4459310431498
 21
706.37670252
 31
0.0
  0
LINE
  5
244
330
ED
100
AcDbEntity
  8
0
  6
Continuous
 62
     7
370
    25
100
AcDbLine
 10
-695.4459310431498
 20
698.62670252
 30
0.0
 11
-698.1959310431498
 21
698.62670252
 31
0.0
  0
LINE
  5
245
330
ED
100
AcDbEntity
  8
0
  6
Continuous
 62
     7
370
    25
100
AcDbLine
 10
-690.4459310431498
 20
693.62670252
 30
0.0
 11
-690.4459310431498
 21
690.87670252
 31
0.0
  0
LINE
  5
246
330
ED
100
AcDbEntity
  8
0
  6
Continuous
 62
     7
370
    25
100
AcDbLine
 10
-685.4459310431498
 20
698.62670252
 30
0.0
 11
-682.6959310431498
 21
698.62670252
 31
0.0
  0
ENDBLK
  5
EF
330
ED
100
AcDbEntity
  8
0
100
AcDbBlockEnd
  0
BLOCK
  5
F1
330
F0
100
AcDbEntity
  8
0
100
AcDbBlockBegin
  2
DC_GROUP_PT3-SN01B-01-00_20
 70
     0
 10
0.0
 20
0.0
 30
0.0
  3
DC_GROUP_PT3-SN01B-01-00_20
  1

  0
LINE
  5
247
330
F0
100
AcDbEntity
  8
0
  6
Continuous
 62
     7
370
    25
100
AcDbLine
 10
-690.4459310431498
 20
1038.62670252
 30
0.0
 11
-690.4459310431498
 21
1041.12670252
 31
0.0
  0
LINE
  5
248
330
F0
100
AcDbEntity
  8
0
  6
Continuous
 62
     7
370
    25
100
AcDbLine
 10
-690.4459310431498
 20
1038.62670252
 30
0.0
 11
-692.9459310431498
 21
1038.62670252
 31
0.0
  0
LINE
  5
249
330
F0
100
AcDbEntity
  8
0
  6
Continuous
 62
     7
370
    25
100
AcDbLine
 10
-690.4459310431498
 20
1038.62670252
 30
0.0
 11
-690.4459310431498
 21
1036.12670252
 31
0.0
  0
LINE
  5
24A
330
F0
100
AcDbEntity
  8
0
  6
Continuous
 62
     7
370
    25
100
AcDbLine
 10
-690.4459310431498
 20
1038.62670252
 30
0.0
 11
-687.9459310431498
 21
1038.62670252
 31
0.0
  0
LINE
  5
24B
330
F0
100
AcDbEntity
  8
0
  6
Continuous
 62
     7
370
    25
100
AcDbLine
 10
-690.4459310431498
 20
1043.62670252
 30
0.0
 11
-690.4459310431498
 21
1046.37670252
 31
0.0
  0
LINE
  5
24C
330
F0
100
AcDbEntity
  8
0
  6
Continuous
 62
     7
370
    25
100
AcDbLine
 10
-695.4459310431498
 20
1038.62670252
 30
0.0
 11
-698.1959310431498
 21
1038.62670252
 31
0.0
  0
LINE
  5
24D
330
F0
100
AcDbEntity
  8
0
  6
Continuous
 62
     7
370
    25
100
AcDbLine
 10
-690.4459310431498
 20
1033.62670252
 30
0.0
 11
-690.4459310431498
 21
1030.87670252
 31
0.0
  0
LINE
  5
24E
330
F0
100
AcDbEntity
  8
0
  6
Continuous
 62
     7
370
    25
100
AcDbLine
 10
-685.4459310431498
 20
1038.62670252
 30
0.0
 11
-682.6959310431498
 21
1038.62670252
 31
0.0
  0
ENDBLK
  5
F2
330
F0
100
AcDbEntity
  8
0
100
AcDbBlockEnd
  0
BLOCK
  5
F4
330
F3
100
AcDbEntity
  8
0
100
AcDbBlockBegin
  2
DC_GROUP_PT3-SN01B-01-00_21
 70
     0
 10
0.0
 20
0.0
 30
0.0
  3
DC_GROUP_PT3-SN01B-01-00_21
  1

  0
LINE
  5
24F
330
F3
100
AcDbEntity
  8
0
  6
Continuous
 62
     7
370
    25
100
AcDbLine
 10
85.85406895695041
 20
1038.62670252
 30
0.0
 11
85.85406895695041
 21
1041.12670252
 31
0.0
  0
LINE
  5
250
330
F3
100
AcDbEntity
  8
0
  6
Continuous
 62
     7
370
    25
100
AcDbLine
 10
85.85406895695041
 20
1038.62670252
 30
0.0
 11
83.35406895695041
 21
1038.62670252
 31
0.0
  0
LINE
  5
251
330
F3
100
AcDbEntity
  8
0
  6
Continuous
 62
     7
370
    25
100
AcDbLine
 10
85.85406895695041
 20
1038.62670252
 30
0.0
 11
85.85406895695041
 21
1036.12670252
 31
0.0
  0
LINE
  5
252
330
F3
100
AcDbEntity
  8
0
  6
Continuous
 62
     7
370
    25
100
AcDbLine
 10
85.85406895695041
 20
1038.62670252
 30
0.0
 11
88.35406895695041
 21
1038.62670252
 31
0.0
  0
LINE
  5
253
330
F3
100
AcDbEntity
  8
0
  6
Continuous
 62
     7
370
    25
100
AcDbLine
 10
85.85406895695041
 20
1043.62670252
 30
0.0
 11
85.85406895695041
 21
1046.37670252
 31
0.0
  0
LINE
  5
254
330
F3
100
AcDbEntity
  8
0
  6
Continuous
 62
     7
370
    25
100
AcDbLine
 10
80.85406895695041
 20
1038.62670252
 30
0.0
 11
78.10406895695041
 21
1038.62670252
 31
0.0
  0
LINE
  5
255
330
F3
100
AcDbEntity
  8
0
  6
Continuous
 62
     7
370
    25
100
AcDbLine
 10
85.85406895695041
 20
1033.62670252
 30
0.0
 11
85.85406895695041
 21
1030.87670252
 31
0.0
  0
LINE
  5
256
330
F3
100
AcDbEntity
  8
0
  6
Continuous
 62
     7
370
    25
100
AcDbLine
 10
90.85406895695041
 20
1038.62670252
 30
0.0
 11
93.60406895695041
 21
1038.62670252
 31
0.0
  0
ENDBLK
  5
F5
330
F3
100
AcDbEntity
  8
0
100
AcDbBlockEnd
  0
BLOCK
  5
F7
330
F6
100
AcDbEntity
  8
0
100
AcDbBlockBegin
  2
DC_GROUP_PT3-SN01B-01-00_22
 70
     0
 10
0.0
 20
0.0
 30
0.0
  3
DC_GROUP_PT3-SN01B-01-00_22
  1

  0
LINE
  5
257
330
F6
100
AcDbEntity
  8
0
  6
Continuous
 62
     7
370
    25
100
AcDbLine
 10
85.85406895695041
 20
698.62670252
 30
0.0
 11
85.85406895695041
 21
701.12670252
 31
0.0
  0
LINE
  5
258
330
F6
100
AcDbEntity
  8
0
  6
Continuous
 62
     7
370
    25
100
AcDbLine
 10
85.85406895695041
 20
698.62670252
 30
0.0
 11
83.35406895695041
 21
698.62670252
 31
0.0
  0
LINE
  5
259
330
F6
100
AcDbEntity
  8
0
  6
Continuous
 62
     7
370
    25
100
AcDbLine
 10
85.85406895695041
 20
698.62670252
 30
0.0
 11
85.85406895695041
 21
696.12670252
 31
0.0
  0
LINE
  5
25A
330
F6
100
AcDbEntity
  8
0
  6
Continuous
 62
     7
370
    25
100
AcDbLine
 10
85.85406895695041
 20
698.62670252
 30
0.0
 11
88.35406895695041
 21
698.62670252
 31
0.0
  0
LINE
  5
25B
330
F6
100
AcDbEntity
  8
0
  6
Continuous
 62
     7
370
    25
100
AcDbLine
 10
85.85406895695041
 20
703.62670252
 30
0.0
 11
85.85406895695041
 21
706.37670252
 31
0.0
  0
LINE
  5
25C
330
F6
100
AcDbEntity
  8
0
  6
Continuous
 62
     7
370
    25
100
AcDbLine
 10
80.85406895695041
 20
698.62670252
 30
0.0
 11
78.10406895695041
 21
698.62670252
 31
0.0
  0
LINE
  5
25D
330
F6
100
AcDbEntity
  8
0
  6
Continuous
 62
     7
370
    25
100
AcDbLine
 10
85.85406895695041
 20
693.62670252
 30
0.0
 11
85.85406895695041
 21
690.87670252
 31
0.0
  0
LINE
  5
25E
330
F6
100
AcDbEntity
  8
0
  6
Continuous
 62
     7
370
    25
100
AcDbLine
 10
90.85406895695041
 20
698.62670252
 30
0.0
 11
93.60406895695041
 21
698.62670252
 31
0.0
  0
ENDBLK
  5
F8
330
F6
100
AcDbEntity
  8
0
100
AcDbBlockEnd
  0
BLOCK
  5
FA
330
F9
100
AcDbEntity
  8
0
100
AcDbBlockBegin
  2
*D45
 70
     1
 10
0.0
 20
0.0
 30
0.0
  3
*D45
  1

  0
LINE
  5
25F
330
F9
100
AcDbEntity
  8
0
  6
Continuous
 62
     7
370
    25
100
AcDbLine
 10
-2314.61447842925
 20
-580.6765733706
 30
0.0
 11
-2314.61447842925
 21
-269.5604002386001
 31
0.0
  0
LINE
  5
260
330
F9
100
AcDbEntity
  8
0
  6
Continuous
 62
     7
370
    25
100
AcDbLine
 10
-1514.61447842925
 20
-580.6765733706
 30
0.0
 11
-1514.61447842925
 21
-269.5604002386001
 31
0.0
  0
LINE
  5
261
330
F9
100
AcDbEntity
  8
0
  6
Continuous
 62
     7
370
    25
100
AcDbLine
 10
-2314.61447842925
 20
-269.5604002386001
 30
0.0
 11
-1514.61447842925
 21
-269.5604002386001
 31
0.0
  0
INSERT
  5
262
330
F9
100
AcDbEntity
  8
0
 62
     7
100
AcDbBlockReference
  2
_OPEN30
 10
-2314.61447842925
 20
-269.5604002386001
 30
0.0
 41
15.00001393912182
 42
14.99994636989232
 50
180.0
  0
INSERT
  5
263
330
F9
100
AcDbEntity
  8
0
 62
     7
100
AcDbBlockReference
  2
_OPEN30
 10
-1514.61447842925
 20
-269.5604002386001
 30
0.0
 41
15.00001393912182
 42
14.99994636989232
 50
360.0
  0
MTEXT
  5
264
330
F9
100
AcDbEntity
  8
0
 62
     7
100
AcDbMText
 10
-1930.48653498955
 20
-256.4354002386001
 30
0.0
 40
52.5
 41
508.59375
 71
     8
 72
     1
  1
\T1.00;800×(N-1)
  7
dcStyle0
 73
     1
 44
1.0
  0
ENDBLK
  5
FB
330
F9
100
AcDbEntity
  8
0
100
AcDbBlockEnd
  0
BLOCK
  5
FD
330
FC
100
AcDbEntity
  8
0
100
AcDbBlockBegin
  2
*D46
 70
     1
 10
0.0
 20
0.0
 30
0.0
  3
*D46
  1

  0
LINE
  5
265
330
FC
100
AcDbEntity
  8
0
  6
Continuous
 62
     7
370
    25
100
AcDbLine
 10
-3090.91447842925
 20
-580.6765733706
 30
0.0
 11
-3090.91447842925
 21
-269.5604002386001
 31
0.0
  0
LINE
  5
266
330
FC
100
AcDbEntity
  8
0
  6
Continuous
 62
     7
370
    25
100
AcDbLine
 10
-2314.61447842925
 20
-580.6765733706
 30
0.0
 11
-2314.61447842925
 21
-269.5604002386001
 31
0.0
  0
LINE
  5
267
330
FC
100
AcDbEntity
  8
0
  6
Continuous
 62
     7
370
    25
100
AcDbLine
 10
-3090.91447842925
 20
-269.5604002386001
 30
0.0
 11
-2314.61447842925
 21
-269.5604002386001
 31
0.0
  0
INSERT
  5
268
330
FC
100
AcDbEntity
  8
0
 62
     7
100
AcDbBlockReference
  2
_OPEN30
 10
-3090.91447842925
 20
-269.5604002386001
 30
0.0
 41
15.00001393912182
 42
14.99994636989232
 50
180.0
  0
INSERT
  5
269
330
FC
100
AcDbEntity
  8
0
 62
     7
100
AcDbBlockReference
  2
_OPEN30
 10
-2314.61447842925
 20
-269.5604002386001
 30
0.0
 41
15.00001393912182
 42
14.99994636989232
 50
360.0
  0
MTEXT
  5
26A
330
FC
100
AcDbEntity
  8
0
 62
     7
100
AcDbMText
 10
-2704.62858483885
 20
-256.4354002386001
 30
0.0
 40
52.5
 41
311.71875
 71
     8
 72
     1
  1
\T1.00;776.3
  7
dcStyle0
 73
     1
 44
1.0
  0
ENDBLK
  5
FE
330
FC
100
AcDbEntity
  8
0
100
AcDbBlockEnd
  0
BLOCK
  5
100
330
FF
100
AcDbEntity
  8
0
100
AcDbBlockBegin
  2
*D47
 70
     1
 10
0.0
 20
0.0
 30
0.0
  3
*D47
  1

  0
LINE
  5
26B
330
FF
100
AcDbEntity
  8
0
  6
Continuous
 62
     7
370
    25
100
AcDbLine
 10
-1514.61447842925
 20
-580.6765733706
 30
0.0
 11
-1514.61447842925
 21
-269.5604002386001
 31
0.0
  0
LINE
  5
26C
330
FF
100
AcDbEntity
  8
0
  6
Continuous
 62
     7
370
    25
100
AcDbLine
 10
-738.3144784292499
 20
-580.6765733706
 30
0.0
 11
-738.3144784292499
 21
-269.5604002386001
 31
0.0
  0
LINE
  5
26D
330
FF
100
AcDbEntity
  8
0
  6
Continuous
 62
     7
370
    25
100
AcDbLine
 10
-1514.61447842925
 20
-269.5604002386001
 30
0.0
 11
-738.3144784292499
 21
-269.5604002386001
 31
0.0
  0
INSERT
  5
26E
330
FF
100
AcDbEntity
  8
0
 62
     7
100
AcDbBlockReference
  2
_OPEN30
 10
-1514.61447842925
 20
-269.5604002386001
 30
0.0
 41
15.00001393912182
 42
14.99994636989232
 50
180.0
  0
INSERT
  5
26F
330
FF
100
AcDbEntity
  8
0
 62
     7
100
AcDbBlockReference
  2
_OPEN30
 10
-738.3144784292499
 20
-269.5604002386001
 30
0.0
 41
15.00001393912182
 42
14.99994636989232
 50
360.0
  0
MTEXT
  5
270
330
FF
100
AcDbEntity
  8
0
 62
     7
100
AcDbMText
 10
-1114.64006879865
 20
-256.4354002386001
 30
0.0
 40
52.5
 41
311.71875
 71
     8
 72
     1
  1
\T1.00;776.3
  7
dcStyle0
 73
     1
 44
1.0
  0
ENDBLK
  5
101
330
FF
100
AcDbEntity
  8
0
100
AcDbBlockEnd
  0
BLOCK
  5
103
330
102
100
AcDbEntity
  8
0
100
AcDbBlockBegin
  2
*D48
 70
     1
 10
0.0
 20
0.0
 30
0.0
  3
*D48
  1

  0
LINE
  5
271
330
102
100
AcDbEntity
  8
0
  6
Continuous
 62
     7
370
    25
100
AcDbLine
 10
-3214.61447842925
 20
-433.4265733706
 30
0.0
 11
-3214.61447842925
 21
-269.5604002386001
 31
0.0
  0
LINE
  5
272
330
102
100
AcDbEntity
  8
0
  6
Continuous
 62
     7
370
    25
100
AcDbLine
 10
-3090.91447842925
 20
-580.6765733706
 30
0.0
 11
-3090.91447842925
 21
-269.5604002386001
 31
0.0
  0
LINE
  5
273
330
102
100
AcDbEntity
  8
0
  6
Continuous
 62
     7
370
    25
100
AcDbLine
 10
-3090.91447842925
 20
-269.5604002386001
 30
0.0
 11
-3214.61447842925
 21
-269.5604002386001
 31
0.0
  0
LINE
  5
274
330
102
100
AcDbEntity
  8
0
  6
Continuous
 62
     7
370
    25
100
AcDbLine
 10
-3566.48947842925
 20
-269.5604002386001
 30
0.0
 11
-3214.61447842925
 21
-269.5604002386001
 31
0.0
  0
INSERT
  5
275
330
102
100
AcDbEntity
  8
0
 62
     7
100
AcDbBlockReference
  2
_OPEN30
 10
-3214.61447842925
 20
-269.5604002386001
 30
0.0
 41
15.00001393912182
 42
14.99994636989232
 50
360.0
  0
LINE
  5
276
330
102
100
AcDbEntity
  8
0
  6
Continuous
 62
     7
370
    25
100
AcDbLine
 10
-3065.91447842925
 20
-269.5604002386001
 30
0.0
 11
-3090.91447842925
 21
-269.5604002386001
 31
0.0
  0
INSERT
  5
277
330
102
100
AcDbEntity
  8
0
 62
     7
100
AcDbBlockReference
  2
_OPEN30
 10
-3090.91447842925
 20
-269.5604002386001
 30
0.0
 41
15.00001393912182
 42
14.99994636989232
 50
180.0
  0
MTEXT
  5
278
330
102
100
AcDbEntity
  8
0
 62
     7
100
AcDbMText
 10
-3364.61447842925
 20
-256.4354002386001
 30
0.0
 40
52.5
 41
311.71875
 71
     9
 72
     1
  1
\T1.00;123.7
  7
dcStyle0
 73
     1
 44
1.0
  0
ENDBLK
  5
104
330
102
100
AcDbEntity
  8
0
100
AcDbBlockEnd
  0
BLOCK
  5
106
330
105
100
AcDbEntity
  8
0
100
AcDbBlockBegin
  2
*D49
 70
     1
 10
0.0
 20
0.0
 30
0.0
  3
*D49
  1

  0
LINE
  5
279
330
105
100
AcDbEntity
  8
0
  6
Continuous
 62
     7
370
    25
100
AcDbLine
 10
-738.3144784292499
 20
-580.6765733706
 30
0.0
 11
-738.3144784292499
 21
-269.5604002386001
 31
0.0
  0
LINE
  5
27A
330
105
100
AcDbEntity
  8
0
  6
Continuous
 62
     7
370
    25
100
AcDbLine
 10
-614.6144784292501
 20
-433.4265733706
 30
0.0
 11
-614.6144784292501
 21
-269.5604002386001
 31
0.0
  0
LINE
  5
27B
330
105
100
AcDbEntity
  8
0
  6
Continuous
 62
     7
370
    25
100
AcDbLine
 10
-614.6144784292501
 20
-269.5604002386001
 30
0.0
 11
-738.3144784292499
 21
-269.5604002386001
 31
0.0
  0
LINE
  5
27C
330
105
100
AcDbEntity
  8
0
  6
Continuous
 62
     7
370
    25
100
AcDbLine
 10
-296.7057132719501
 20
-269.5604002386001
 30
0.0
 11
-614.6144784292501
 21
-269.5604002386001
 31
0.0
  0
INSERT
  5
27D
330
105
100
AcDbEntity
  8
0
 62
     7
100
AcDbBlockReference
  2
_OPEN30
 10
-614.6144784292501
 20
-269.5604002386001
 30
0.0
 41
15.00001393912182
 42
14.99994636989232
 50
180.0
  0
LINE
  5
27E
330
105
100
AcDbEntity
  8
0
  6
Continuous
 62
     7
370
    25
100
AcDbLine
 10
-763.3144784292499
 20
-269.5604002386001
 30
0.0
 11
-738.3144784292499
 21
-269.5604002386001
 31
0.0
  0
INSERT
  5
27F
330
105
100
AcDbEntity
  8
0
 62
     7
100
AcDbBlockReference
  2
_OPEN30
 10
-738.3144784292499
 20
-269.5604002386001
 30
0.0
 41
15.00001393912182
 42
14.99994636989232
 50
360.0
  0
MTEXT
  5
280
330
105
100
AcDbEntity
  8
0
 62
     7
100
AcDbMText
 10
-498.5807132719501
 20
-256.4354002386001
 30
0.0
 40
52.5
 41
311.71875
 71
     7
 72
     1
  1
\T1.00;123.7
  7
dcStyle0
 73
     1
 44
1.0
  0
ENDBLK
  5
107
330
105
100
AcDbEntity
  8
0
100
AcDbBlockEnd
  0
BLOCK
  5
109
330
108
100
AcDbEntity
  8
0
100
AcDbBlockBegin
  2
*D50
 70
     1
 10
0.0
 20
0.0
 30
0.0
  3
*D50
  1

  0
LINE
  5
281
330
108
100
AcDbEntity
  8
0
  6
Continuous
 62
     7
370
    25
100
AcDbLine
 10
-3214.61447842925
 20
-433.4265733706
 30
0.0
 11
-3214.61447842925
 21
-140.5851309476998
 31
0.0
  0
LINE
  5
282
330
108
100
AcDbEntity
  8
0
  6
Continuous
 62
     7
370
    25
100
AcDbLine
 10
-614.6144784292501
 20
-433.4265733706
 30
0.0
 11
-614.6144784292501
 21
-140.5851309476998
 31
0.0
  0
LINE
  5
283
330
108
100
AcDbEntity
  8
0
  6
Continuous
 62
     7
370
    25
100
AcDbLine
 10
-3214.61447842925
 20
-140.5851309476998
 30
0.0
 11
-614.6144784292501
 21
-140.5851309476998
 31
0.0
  0
INSERT
  5
284
330
108
100
AcDbEntity
  8
0
 62
     7
100
AcDbBlockReference
  2
_OPEN30
 10
-3214.61447842925
 20
-140.5851309476998
 30
0.0
 41
15.00001393912182
 42
14.99994636989232
 50
180.0
  0
INSERT
  5
285
330
108
100
AcDbEntity
  8
0
 62
     7
100
AcDbBlockReference
  2
_OPEN30
 10
-614.6144784292501
 20
-140.5851309476998
 30
0.0
 41
15.00001393912182
 42
14.99994636989232
 50
360.0
  0
MTEXT
  5
286
330
108
100
AcDbEntity
  8
0
 62
     7
100
AcDbMText
 10
-1930.48653498955
 20
-127.4601309476998
 30
0.0
 40
52.5
 41
557.8125
 71
     8
 72
     1
  1
\T1.00;1000+800×N
  7
dcStyle0
 73
     1
 44
1.0
  0
ENDBLK
  5
10A
330
108
100
AcDbEntity
  8
0
100
AcDbBlockEnd
  0
BLOCK
  5
10C
330
10B
100
AcDbEntity
  8
0
100
AcDbBlockBegin
  2
*D51
 70
     1
 10
0.0
 20
0.0
 30
0.0
  3
*D51
  1

  0
LINE
  5
287
330
10B
100
AcDbEntity
  8
0
  6
Continuous
 62
     7
370
    25
100
AcDbLine
 10
-730.5019784292499
 20
-928.4890733706
 30
0.0
 11
-464.6144784292501
 21
-928.4890733706
 31
0.0
  0
LINE
  5
288
330
10B
100
AcDbEntity
  8
0
  6
Continuous
 62
     7
370
    25
100
AcDbLine
 10
-730.5019784292499
 20
-588.4890733706
 30
0.0
 11
-464.6144784292501
 21
-588.4890733706
 31
0.0
  0
LINE
  5
289
330
10B
100
AcDbEntity
  8
0
  6
Continuous
 62
     7
370
    25
100
AcDbLine
 10
-464.6144784292501
 20
-928.4890733706
 30
0.0
 11
-464.6144784292501
 21
-588.4890733706
 31
0.0
  0
INSERT
  5
28A
330
10B
100
AcDbEntity
  8
0
 62
     7
100
AcDbBlockReference
  2
_OPEN30
 10
-464.6144784292501
 20
-928.4890733706
 30
0.0
 41
15.00001393912182
 42
14.99994636989232
 50
270.0
  0
INSERT
  5
28B
330
10B
100
AcDbEntity
  8
0
 62
     7
100
AcDbBlockReference
  2
_OPEN30
 10
-464.6144784292501
 20
-588.4890733706
 30
0.0
 41
15.00001393912182
 42
14.99994636989232
 50
90.0
  0
MTEXT
  5
28C
330
10B
100
AcDbEntity
  8
0
 62
     7
100
AcDbMText
 10
-477.7394784292501
 20
-766.4708588086
 30
0.0
 40
52.5
 41
213.28125
 71
     8
 72
     1
  1
\T1.00;340
  7
dcStyle0
 11
6.123031769111886E-17
 21
1.0
 31
0.0
 73
     1
 44
1.0
  0
ENDBLK
  5
10D
330
10B
100
AcDbEntity
  8
0
100
AcDbBlockEnd
  0
BLOCK
  5
10F
330
10E
100
AcDbEntity
  8
0
100
AcDbBlockBegin
  2
*D52
 70
     1
 10
0.0
 20
0.0
 30
0.0
  3
*D52
  1

  0
LINE
  5
28D
330
10E
100
AcDbEntity
  8
0
  6
Continuous
 62
     7
370
    25
100
AcDbLine
 10
-730.5019784292499
 20
-588.4890733706
 30
0.0
 11
-464.6144784292501
 21
-588.4890733706
 31
0.0
  0
LINE
  5
28E
330
10E
100
AcDbEntity
  8
0
  6
Continuous
 62
     7
370
    25
100
AcDbLine
 10
-614.5519784292501
 20
-433.4890733706
 30
0.0
 11
-464.6144784292501
 21
-433.4890733706
 31
0.0
  0
LINE
  5
28F
330
10E
100
AcDbEntity
  8
0
  6
Continuous
 62
     7
370
    25
100
AcDbLine
 10
-464.6144784292501
 20
-588.4890733706
 30
0.0
 11
-464.6144784292501
 21
-433.4890733706
 31
0.0
  0
INSERT
  5
290
330
10E
100
AcDbEntity
  8
0
 62
     7
100
AcDbBlockReference
  2
_OPEN30
 10
-464.6144784292501
 20
-588.4890733706
 30
0.0
 41
15.00001393912182
 42
14.99994636989232
 50
270.0
  0
INSERT
  5
291
330
10E
100
AcDbEntity
  8
0
 62
     7
100
AcDbBlockReference
  2
_OPEN30
 10
-464.6144784292501
 20
-433.4890733706
 30
0.0
 41
15.00001393912182
 42
14.99994636989232
 50
90.0
  0
MTEXT
  5
292
330
10E
100
AcDbEntity
  8
0
 62
     7
100
AcDbMText
 10
-477.7394784292501
 20
-514.3634825479
 30
0.0
 40
52.5
 41
213.28125
 71
     8
 72
     1
  1
\T1.00;155
  7
dcStyle0
 11
6.123031769111886E-17
 21
1.0
 31
0.0
 73
     1
 44
1.0
  0
ENDBLK
  5
110
330
10E
100
AcDbEntity
  8
0
100
AcDbBlockEnd
  0
BLOCK
  5
112
330
111
100
AcDbEntity
  8
0
100
AcDbBlockBegin
  2
*D53
 70
     1
 10
0.0
 20
0.0
 30
0.0
  3
*D53
  1

  0
LINE
  5
293
330
111
100
AcDbEntity
  8
0
  6
Continuous
 62
     7
370
    25
100
AcDbLine
 10
-614.5519784292501
 20
-1083.4890733706
 30
0.0
 11
-464.6144784292501
 21
-1083.4890733706
 31
0.0
  0
LINE
  5
294
330
111
100
AcDbEntity
  8
0
  6
Continuous
 62
     7
370
    25
100
AcDbLine
 10
-730.5019784292499
 20
-928.4890733706
 30
0.0
 11
-464.6144784292501
 21
-928.4890733706
 31
0.0
  0
LINE
  5
295
330
111
100
AcDbEntity
  8
0
  6
Continuous
 62
     7
370
    25
100
AcDbLine
 10
-464.6144784292501
 20
-1083.4890733706
 30
0.0
 11
-464.6144784292501
 21
-928.4890733706
 31
0.0
  0
INSERT
  5
296
330
111
100
AcDbEntity
  8
0
 62
     7
100
AcDbBlockReference
  2
_OPEN30
 10
-464.6144784292501
 20
-1083.4890733706
 30
0.0
 41
15.00001393912182
 42
14.99994636989232
 50
270.0
  0
INSERT
  5
297
330
111
100
AcDbEntity
  8
0
 62
     7
100
AcDbBlockReference
  2
_OPEN30
 10
-464.6144784292501
 20
-928.4890733706
 30
0.0
 41
15.00001393912182
 42
14.99994636989232
 50
90.0
  0
MTEXT
  5
298
330
111
100
AcDbEntity
  8
0
 62
     7
100
AcDbMText
 10
-477.7394784292501
 20
-1005.2732474041
 30
0.0
 40
52.5
 41
213.28125
 71
     8
 72
     1
  1
\T1.00;155
  7
dcStyle0
 11
6.123031769111886E-17
 21
1.0
 31
0.0
 73
     1
 44
1.0
  0
ENDBLK
  5
113
330
111
100
AcDbEntity
  8
0
100
AcDbBlockEnd
  0
BLOCK
  5
115
330
114
100
AcDbEntity
  8
0
100
AcDbBlockBegin
  2
*D54
 70
     1
 10
0.0
 20
0.0
 30
0.0
  3
*D54
  1

  0
LINE
  5
299
330
114
100
AcDbEntity
  8
0
  6
Continuous
 62
     7
370
    25
100
AcDbLine
 10
-614.5519784292501
 20
-1083.4890733706
 30
0.0
 11
-337.0339743147501
 21
-1083.4890733706
 31
0.0
  0
LINE
  5
29A
330
114
100
AcDbEntity
  8
0
  6
Continuous
 62
     7
370
    25
100
AcDbLine
 10
-614.5519784292501
 20
-433.4890733706
 30
0.0
 11
-337.0339743147501
 21
-433.4890733706
 31
0.0
  0
LINE
  5
29B
330
114
100
AcDbEntity
  8
0
  6
Continuous
 62
     7
370
    25
100
AcDbLine
 10
-337.0339743147501
 20
-1083.4890733706
 30
0.0
 11
-337.0339743147501
 21
-433.4890733706
 31
0.0
  0
INSERT
  5
29C
330
114
100
AcDbEntity
  8
0
 62
     7
100
AcDbBlockReference
  2
_OPEN30
 10
-337.0339743147501
 20
-1083.4890733706
 30
0.0
 41
15.00001393912182
 42
14.99994636989232
 50
270.0
  0
INSERT
  5
29D
330
114
100
AcDbEntity
  8
0
 62
     7
100
AcDbBlockReference
  2
_OPEN30
 10
-337.0339743147501
 20
-433.4890733706
 30
0.0
 41
15.00001393912182
 42
14.99994636989232
 50
90.0
  0
MTEXT
  5
29E
330
114
100
AcDbEntity
  8
0
 62
     7
100
AcDbMText
 10
-350.1589743147501
 20
-766.4708588086
 30
0.0
 40
52.5
 41
213.28125
 71
     8
 72
     1
  1
\T1.00;650
  7
dcStyle0
 11
6.123031769111886E-17
 21
1.0
 31
0.0
 73
     1
 44
1.0
  0
ENDBLK
  5
116
330
114
100
AcDbEntity
  8
0
100
AcDbBlockEnd
  0
BLOCK
  5
118
330
117
100
AcDbEntity
  8
0
100
AcDbBlockBegin
  2
*D55
 70
     1
 10
0.0
 20
0.0
 30
0.0
  3
*D55
  1

  0
LINE
  5
29F
330
117
100
AcDbEntity
  8
0
  6
Continuous
 62
     7
370
    25
100
AcDbLine
 10
-3090.939552429705
 20
-588.5463232134047
 30
0.0
 11
-3140.162879812612
 21
-700.9347615882174
 31
0.0
  0
LINE
  5
2A0
330
117
100
AcDbEntity
  8
0
  6
Continuous
 62
     7
370
    25
100
AcDbLine
 10
-2314.639552429705
 20
-928.5463232134047
 30
0.0
 11
-2363.86287981233
 21
-1040.934761587574
 31
0.0
  0
LINE
  5
2A1
330
117
100
AcDbEntity
  8
0
  6
Continuous
 62
     7
370
    25
100
AcDbLine
 10
-3140.162879812612
 20
-700.9347615882174
 30
0.0
 11
-2363.86287981233
 21
-1040.934761587574
 31
0.0
  0
INSERT
  5
2A2
330
117
100
AcDbEntity
  8
0
 62
     7
100
AcDbBlockReference
  2
_OPEN30
 10
-3140.162879812612
 20
-700.9347615882174
 30
0.0
 41
15.00001393912182
 42
14.99994636989232
 50
156.3477826201
  0
INSERT
  5
2A3
330
117
100
AcDbEntity
  8
0
 62
     7
100
AcDbBlockReference
  2
_OPEN30
 10
-2363.86287981233
 20
-1040.934761587574
 30
0.0
 41
15.00001393912182
 42
14.99994636989232
 50
336.3477826201
  0
MTEXT
  5
2A4
330
117
100
AcDbEntity
  8
0
 62
     7
100
AcDbMText
 10
-2796.54171059501
 20
-837.1036045325162
 30
0.0
 40
52.5
 41
311.7187500000002
 71
     8
 72
     1
  1
\T1.00;847.5
  7
dcStyle0
 11
0.9159974848749645
 21
-0.4011840072868548
 31
0.0
 73
     1
 44
1.0
  0
ENDBLK
  5
119
330
117
100
AcDbEntity
  8
0
100
AcDbBlockEnd
  0
BLOCK
  5
11B
330
11A
100
AcDbEntity
  8
0
100
AcDbBlockBegin
  2
*D56
 70
     1
 10
0.0
 20
0.0
 30
0.0
  3
*D56
  1

  0
LINE
  5
2A5
330
11A
100
AcDbEntity
  8
0
  6
Continuous
 62
     7
370
    25
100
AcDbLine
 10
-2314.638924719271
 20
-588.5465940530037
 30
0.0
 11
-2369.559958350674
 21
-717.7725555388326
 31
0.0
  0
LINE
  5
2A6
330
11A
100
AcDbEntity
  8
0
  6
Continuous
 62
     7
370
    25
100
AcDbLine
 10
-1514.638924719272
 20
-928.5465940530037
 30
0.0
 11
-1569.559958350508
 21
-1057.772555538441
 31
0.0
  0
LINE
  5
2A7
330
11A
100
AcDbEntity
  8
0
  6
Continuous
 62
     7
370
    25
100
AcDbLine
 10
-2369.559958350674
 20
-717.7725555388326
 30
0.0
 11
-1569.559958350508
 21
-1057.772555538441
 31
0.0
  0
INSERT
  5
2A8
330
11A
100
AcDbEntity
  8
0
 62
     7
100
AcDbBlockReference
  2
_OPEN30
 10
-2369.559958350674
 20
-717.7725555388326
 30
0.0
 41
15.00001393912182
 42
14.99994636989232
 50
156.9745079915
  0
INSERT
  5
2A9
330
11A
100
AcDbEntity
  8
0
 62
     7
100
AcDbBlockReference
  2
_OPEN30
 10
-1569.559958350508
 20
-1057.772555538441
 30
0.0
 41
15.00001393912182
 42
14.99994636989232
 50
336.9745079915
  0
MTEXT
  5
2AA
330
11A
100
AcDbEntity
  8
0
 62
     7
100
AcDbMText
 10
-1982.82814138383
 20
-867.87240306033
 30
0.0
 40
52.5
 41
311.7187499999998
 71
     8
 72
     1
  1
\T1.00;869.3
  7
dcStyle0
 11
0.9203309184586659
 21
-0.3911406403444015
 31
0.0
 73
     1
 44
1.0
  0
ENDBLK
  5
11C
330
11A
100
AcDbEntity
  8
0
100
AcDbBlockEnd
  0
BLOCK
  5
11E
330
11D
100
AcDbEntity
  8
0
100
AcDbBlockBegin
  2
*D57
 70
     1
 10
0.0
 20
0.0
 30
0.0
  3
*D57
  1

  0
LINE
  5
2AB
330
11D
100
AcDbEntity
  8
0
  6
Continuous
 62
     7
370
    25
100
AcDbLine
 10
-733.7678450593498
 20
-585.8640733706
 30
0.0
 11
-742.8611117990499
 21
-591.1140733706
 31
0.0
  0
LINE
  5
2AC
330
11D
100
AcDbEntity
  8
0
  6
Continuous
 62
     7
370
    25
100
AcDbLine
 10
-1166.303144953206
 20
-835.5884451993363
 30
0.0
 11
-742.8611117990499
 21
-591.1140733706
 31
0.0
  0
INSERT
  5
2AD
330
11D
100
AcDbEntity
  8
0
 62
     7
100
AcDbBlockReference
  2
_OPEN30
 10
-742.8611117990499
 20
-591.1140733706
 30
0.0
 41
15.00001393912182
 42
14.99994636989232
 50
30.00000000009962
  0
LINE
  5
2AE
330
11D
100
AcDbEntity
  8
0
  6
Continuous
 62
     7
370
    25
100
AcDbLine
 10
-712.1172099647606
 20
-573.3640733705623
 30
0.0
 11
-733.7678450593498
 21
-585.8640733706
 31
0.0
  0
INSERT
  5
2AF
330
11D
100
AcDbEntity
  8
0
 62
     7
100
AcDbBlockReference
  2
_OPEN30
 10
-733.7678450593498
 20
-585.8640733706
 30
0.0
 41
15.00001393912182
 42
14.99994636989232
 50
210.0000000000996
  0
MTEXT
  5
2B0
330
11D
100
AcDbEntity
  8
0
 62
     7
100
AcDbMText
 10
-793.43826492055
 20
-605.1593617740172
 30
0.0
 40
52.5
 41
607.0312499999999
 71
     9
 72
     1
  1
\T1.00;4+2×N-φ10.5
  7
dcStyle0
 11
0.8660254037835692
 21
0.5000000000015059
 31
0.0
 73
     1
 44
1.0
  0
ENDBLK
  5
11F
330
11D
100
AcDbEntity
  8
0
100
AcDbBlockEnd
  0
BLOCK
  5
121
330
120
100
AcDbEntity
  8
0
100
AcDbBlockBegin
  2
DC_GROUP_PT3-SN01B-01-00_23
 70
     0
 10
0.0
 20
0.0
 30
0.0
  3
DC_GROUP_PT3-SN01B-01-00_23
  1

  0
LINE
  5
2B1
330
120
100
AcDbEntity
  8
0
  6
Continuous
 62
     7
370
    25
100
AcDbLine
 10
-738.3144784292499
 20
-588.4890733706
 30
0.0
 11
-738.3144784292499
 21
-585.9890733706
 31
0.0
  0
LINE
  5
2B2
330
120
100
AcDbEntity
  8
0
  6
Continuous
 62
     7
370
    25
100
AcDbLine
 10
-738.3144784292499
 20
-588.4890733706
 30
0.0
 11
-740.8144784292499
 21
-588.4890733706
 31
0.0
  0
LINE
  5
2B3
330
120
100
AcDbEntity
  8
0
  6
Continuous
 62
     7
370
    25
100
AcDbLine
 10
-738.3144784292499
 20
-588.4890733706
 30
0.0
 11
-738.3144784292499
 21
-590.9890733706
 31
0.0
  0
LINE
  5
2B4
330
120
100
AcDbEntity
  8
0
  6
Continuous
 62
     7
370
    25
100
AcDbLine
 10
-738.3144784292499
 20
-588.4890733706
 30
0.0
 11
-735.8144784292499
 21
-588.4890733706
 31
0.0
  0
LINE
  5
2B5
330
120
100
AcDbEntity
  8
0
  6
Continuous
 62
     7
370
    25
100
AcDbLine
 10
-738.3144784292499
 20
-583.4890733706
 30
0.0
 11
-738.3144784292499
 21
-580.7390733706
 31
0.0
  0
LINE
  5
2B6
330
120
100
AcDbEntity
  8
0
  6
Continuous
 62
     7
370
    25
100
AcDbLine
 10
-743.3144784292499
 20
-588.4890733706
 30
0.0
 11
-746.0644784292499
 21
-588.4890733706
 31
0.0
  0
LINE
  5
2B7
330
120
100
AcDbEntity
  8
0
  6
Continuous
 62
     7
370
    25
100
AcDbLine
 10
-738.3144784292499
 20
-593.4890733706
 30
0.0
 11
-738.3144784292499
 21
-596.2390733706
 31
0.0
  0
LINE
  5
2B8
330
120
100
AcDbEntity
  8
0
  6
Continuous
 62
     7
370
    25
100
AcDbLine
 10
-733.3144784292499
 20
-588.4890733706
 30
0.0
 11
-730.5644784292499
 21
-588.4890733706
 31
0.0
  0
ENDBLK
  5
122
330
120
100
AcDbEntity
  8
0
100
AcDbBlockEnd
  0
BLOCK
  5
124
330
123
100
AcDbEntity
  8
0
100
AcDbBlockBegin
  2
DC_GROUP_PT3-SN01B-01-00_24
 70
     0
 10
0.0
 20
0.0
 30
0.0
  3
DC_GROUP_PT3-SN01B-01-00_24
  1

  0
LINE
  5
2B9
330
123
100
AcDbEntity
  8
0
  6
Continuous
 62
     7
370
    25
100
AcDbLine
 10
-738.3144784292499
 20
-928.4890733706
 30
0.0
 11
-738.3144784292499
 21
-925.9890733706
 31
0.0
  0
LINE
  5
2BA
330
123
100
AcDbEntity
  8
0
  6
Continuous
 62
     7
370
    25
100
AcDbLine
 10
-738.3144784292499
 20
-928.4890733706
 30
0.0
 11
-740.8144784292499
 21
-928.4890733706
 31
0.0
  0
LINE
  5
2BB
330
123
100
AcDbEntity
  8
0
  6
Continuous
 62
     7
370
    25
100
AcDbLine
 10
-738.3144784292499
 20
-928.4890733706
 30
0.0
 11
-738.3144784292499
 21
-930.9890733706
 31
0.0
  0
LINE
  5
2BC
330
123
100
AcDbEntity
  8
0
  6
Continuous
 62
     7
370
    25
100
AcDbLine
 10
-738.3144784292499
 20
-928.4890733706
 30
0.0
 11
-735.8144784292499
 21
-928.4890733706
 31
0.0
  0
LINE
  5
2BD
330
123
100
AcDbEntity
  8
0
  6
Continuous
 62
     7
370
    25
100
AcDbLine
 10
-738.3144784292499
 20
-923.4890733706
 30
0.0
 11
-738.3144784292499
 21
-920.7390733706
 31
0.0
  0
LINE
  5
2BE
330
123
100
AcDbEntity
  8
0
  6
Continuous
 62
     7
370
    25
100
AcDbLine
 10
-743.3144784292499
 20
-928.4890733706
 30
0.0
 11
-746.0644784292499
 21
-928.4890733706
 31
0.0
  0
LINE
  5
2BF
330
123
100
AcDbEntity
  8
0
  6
Continuous
 62
     7
370
    25
100
AcDbLine
 10
-738.3144784292499
 20
-933.4890733706
 30
0.0
 11
-738.3144784292499
 21
-936.2390733706
 31
0.0
  0
LINE
  5
2C0
330
123
100
AcDbEntity
  8
0
  6
Continuous
 62
     7
370
    25
100
AcDbLine
 10
-733.3144784292499
 20
-928.4890733706
 30
0.0
 11
-730.5644784292499
 21
-928.4890733706
 31
0.0
  0
ENDBLK
  5
125
330
123
100
AcDbEntity
  8
0
100
AcDbBlockEnd
  0
BLOCK
  5
127
330
126
100
AcDbEntity
  8
0
100
AcDbBlockBegin
  2
DC_GROUP_PT3-SN01B-01-00_25
 70
     0
 10
0.0
 20
0.0
 30
0.0
  3
DC_GROUP_PT3-SN01B-01-00_25
  1

  0
LINE
  5
2C1
330
126
100
AcDbEntity
  8
0
  6
Continuous
 62
     7
370
    25
100
AcDbLine
 10
-3090.91447842925
 20
-928.4890733706
 30
0.0
 11
-3090.91447842925
 21
-925.9890733706
 31
0.0
  0
LINE
  5
2C2
330
126
100
AcDbEntity
  8
0
  6
Continuous
 62
     7
370
    25
100
AcDbLine
 10
-3090.91447842925
 20
-928.4890733706
 30
0.0
 11
-3093.41447842925
 21
-928.4890733706
 31
0.0
  0
LINE
  5
2C3
330
126
100
AcDbEntity
  8
0
  6
Continuous
 62
     7
370
    25
100
AcDbLine
 10
-3090.91447842925
 20
-928.4890733706
 30
0.0
 11
-3090.91447842925
 21
-930.9890733706
 31
0.0
  0
LINE
  5
2C4
330
126
100
AcDbEntity
  8
0
  6
Continuous
 62
     7
370
    25
100
AcDbLine
 10
-3090.91447842925
 20
-928.4890733706
 30
0.0
 11
-3088.41447842925
 21
-928.4890733706
 31
0.0
  0
LINE
  5
2C5
330
126
100
AcDbEntity
  8
0
  6
Continuous
 62
     7
370
    25
100
AcDbLine
 10
-3090.91447842925
 20
-923.4890733706
 30
0.0
 11
-3090.91447842925
 21
-920.7390733706
 31
0.0
  0
LINE
  5
2C6
330
126
100
AcDbEntity
  8
0
  6
Continuous
 62
     7
370
    25
100
AcDbLine
 10
-3095.91447842925
 20
-928.4890733706
 30
0.0
 11
-3098.66447842925
 21
-928.4890733706
 31
0.0
  0
LINE
  5
2C7
330
126
100
AcDbEntity
  8
0
  6
Continuous
 62
     7
370
    25
100
AcDbLine
 10
-3090.91447842925
 20
-933.4890733706
 30
0.0
 11
-3090.91447842925
 21
-936.2390733706
 31
0.0
  0
LINE
  5
2C8
330
126
100
AcDbEntity
  8
0
  6
Continuous
 62
     7
370
    25
100
AcDbLine
 10
-3085.91447842925
 20
-928.4890733706
 30
0.0
 11
-3083.16447842925
 21
-928.4890733706
 31
0.0
  0
ENDBLK
  5
128
330
126
100
AcDbEntity
  8
0
100
AcDbBlockEnd
  0
BLOCK
  5
12A
330
129
100
AcDbEntity
  8
0
100
AcDbBlockBegin
  2
DC_GROUP_PT3-SN01B-01-00_26
 70
     0
 10
0.0
 20
0.0
 30
0.0
  3
DC_GROUP_PT3-SN01B-01-00_26
  1

  0
LINE
  5
2C9
330
129
100
AcDbEntity
  8
0
  6
Continuous
 62
     7
370
    25
100
AcDbLine
 10
-3090.91447842925
 20
-588.4890733706
 30
0.0
 11
-3090.91447842925
 21
-585.9890733706
 31
0.0
  0
LINE
  5
2CA
330
129
100
AcDbEntity
  8
0
  6
Continuous
 62
     7
370
    25
100
AcDbLine
 10
-3090.91447842925
 20
-588.4890733706
 30
0.0
 11
-3093.41447842925
 21
-588.4890733706
 31
0.0
  0
LINE
  5
2CB
330
129
100
AcDbEntity
  8
0
  6
Continuous
 62
     7
370
    25
100
AcDbLine
 10
-3090.91447842925
 20
-588.4890733706
 30
0.0
 11
-3090.91447842925
 21
-590.9890733706
 31
0.0
  0
LINE
  5
2CC
330
129
100
AcDbEntity
  8
0
  6
Continuous
 62
     7
370
    25
100
AcDbLine
 10
-3090.91447842925
 20
-588.4890733706
 30
0.0
 11
-3088.41447842925
 21
-588.4890733706
 31
0.0
  0
LINE
  5
2CD
330
129
100
AcDbEntity
  8
0
  6
Continuous
 62
     7
370
    25
100
AcDbLine
 10
-3090.91447842925
 20
-583.4890733706
 30
0.0
 11
-3090.91447842925
 21
-580.7390733706
 31
0.0
  0
LINE
  5
2CE
330
129
100
AcDbEntity
  8
0
  6
Continuous
 62
     7
370
    25
100
AcDbLine
 10
-3095.91447842925
 20
-588.4890733706
 30
0.0
 11
-3098.66447842925
 21
-588.4890733706
 31
0.0
  0
LINE
  5
2CF
330
129
100
AcDbEntity
  8
0
  6
Continuous
 62
     7
370
    25
100
AcDbLine
 10
-3090.91447842925
 20
-593.4890733706
 30
0.0
 11
-3090.91447842925
 21
-596.2390733706
 31
0.0
  0
LINE
  5
2D0
330
129
100
AcDbEntity
  8
0
  6
Continuous
 62
     7
370
    25
100
AcDbLine
 10
-3085.91447842925
 20
-588.4890733706
 30
0.0
 11
-3083.16447842925
 21
-588.4890733706
 31
0.0
  0
ENDBLK
  5
12B
330
129
100
AcDbEntity
  8
0
100
AcDbBlockEnd
  0
BLOCK
  5
12D
330
12C
100
AcDbEntity
  8
0
100
AcDbBlockBegin
  2
DC_GROUP_PT3-SN01B-01-00_27
 70
     0
 10
0.0
 20
0.0
 30
0.0
  3
DC_GROUP_PT3-SN01B-01-00_27
  1

  0
LINE
  5
2D1
330
12C
100
AcDbEntity
  8
0
  6
Continuous
 62
     7
370
    25
100
AcDbLine
 10
-1514.61447842925
 20
-588.4890733706
 30
0.0
 11
-1514.61447842925
 21
-585.9890733706
 31
0.0
  0
LINE
  5
2D2
330
12C
100
AcDbEntity
  8
0
  6
Continuous
 62
     7
370
    25
100
AcDbLine
 10
-1514.61447842925
 20
-588.4890733706
 30
0.0
 11
-1517.11447842925
 21
-588.4890733706
 31
0.0
  0
LINE
  5
2D3
330
12C
100
AcDbEntity
  8
0
  6
Continuous
 62
     7
370
    25
100
AcDbLine
 10
-1514.61447842925
 20
-588.4890733706
 30
0.0
 11
-1514.61447842925
 21
-590.9890733706
 31
0.0
  0
LINE
  5
2D4
330
12C
100
AcDbEntity
  8
0
  6
Continuous
 62
     7
370
    25
100
AcDbLine
 10
-1514.61447842925
 20
-588.4890733706
 30
0.0
 11
-1512.11447842925
 21
-588.4890733706
 31
0.0
  0
LINE
  5
2D5
330
12C
100
AcDbEntity
  8
0
  6
Continuous
 62
     7
370
    25
100
AcDbLine
 10
-1514.61447842925
 20
-583.4890733706
 30
0.0
 11
-1514.61447842925
 21
-580.7390733706
 31
0.0
  0
LINE
  5
2D6
330
12C
100
AcDbEntity
  8
0
  6
Continuous
 62
     7
370
    25
100
AcDbLine
 10
-1519.61447842925
 20
-588.4890733706
 30
0.0
 11
-1522.36447842925
 21
-588.4890733706
 31
0.0
  0
LINE
  5
2D7
330
12C
100
AcDbEntity
  8
0
  6
Continuous
 62
     7
370
    25
100
AcDbLine
 10
-1514.61447842925
 20
-593.4890733706
 30
0.0
 11
-1514.61447842925
 21
-596.2390733706
 31
0.0
  0
LINE
  5
2D8
330
12C
100
AcDbEntity
  8
0
  6
Continuous
 62
     7
370
    25
100
AcDbLine
 10
-1509.61447842925
 20
-588.4890733706
 30
0.0
 11
-1506.86447842925
 21
-588.4890733706
 31
0.0
  0
ENDBLK
  5
12E
330
12C
100
AcDbEntity
  8
0
100
AcDbBlockEnd
  0
BLOCK
  5
130
330
12F
100
AcDbEntity
  8
0
100
AcDbBlockBegin
  2
DC_GROUP_PT3-SN01B-01-00_28
 70
     0
 10
0.0
 20
0.0
 30
0.0
  3
DC_GROUP_PT3-SN01B-01-00_28
  1

  0
LINE
  5
2D9
330
12F
100
AcDbEntity
  8
0
  6
Continuous
 62
     7
370
    25
100
AcDbLine
 10
-1514.61447842925
 20
-928.4890733706
 30
0.0
 11
-1514.61447842925
 21
-925.9890733706
 31
0.0
  0
LINE
  5
2DA
330
12F
100
AcDbEntity
  8
0
  6
Continuous
 62
     7
370
    25
100
AcDbLine
 10
-1514.61447842925
 20
-928.4890733706
 30
0.0
 11
-1517.11447842925
 21
-928.4890733706
 31
0.0
  0
LINE
  5
2DB
330
12F
100
AcDbEntity
  8
0
  6
Continuous
 62
     7
370
    25
100
AcDbLine
 10
-1514.61447842925
 20
-928.4890733706
 30
0.0
 11
-1514.61447842925
 21
-930.9890733706
 31
0.0
  0
LINE
  5
2DC
330
12F
100
AcDbEntity
  8
0
  6
Continuous
 62
     7
370
    25
100
AcDbLine
 10
-1514.61447842925
 20
-928.4890733706
 30
0.0
 11
-1512.11447842925
 21
-928.4890733706
 31
0.0
  0
LINE
  5
2DD
330
12F
100
AcDbEntity
  8
0
  6
Continuous
 62
     7
370
    25
100
AcDbLine
 10
-1514.61447842925
 20
-923.4890733706
 30
0.0
 11
-1514.61447842925
 21
-920.7390733706
 31
0.0
  0
LINE
  5
2DE
330
12F
100
AcDbEntity
  8
0
  6
Continuous
 62
     7
370
    25
100
AcDbLine
 10
-1519.61447842925
 20
-928.4890733706
 30
0.0
 11
-1522.36447842925
 21
-928.4890733706
 31
0.0
  0
LINE
  5
2DF
330
12F
100
AcDbEntity
  8
0
  6
Continuous
 62
     7
370
    25
100
AcDbLine
 10
-1514.61447842925
 20
-933.4890733706
 30
0.0
 11
-1514.61447842925
 21
-936.2390733706
 31
0.0
  0
LINE
  5
2E0
330
12F
100
AcDbEntity
  8
0
  6
Continuous
 62
     7
370
    25
100
AcDbLine
 10
-1509.61447842925
 20
-928.4890733706
 30
0.0
 11
-1506.86447842925
 21
-928.4890733706
 31
0.0
  0
ENDBLK
  5
131
330
12F
100
AcDbEntity
  8
0
100
AcDbBlockEnd
  0
BLOCK
  5
133
330
132
100
AcDbEntity
  8
0
100
AcDbBlockBegin
  2
DC_GROUP_PT3-SN01B-01-00_29
 70
     0
 10
0.0
 20
0.0
 30
0.0
  3
DC_GROUP_PT3-SN01B-01-00_29
  1

  0
LINE
  5
2E1
330
132
100
AcDbEntity
  8
0
  6
Continuous
 62
     7
370
    25
100
AcDbLine
 10
-2314.61447842925
 20
-928.4890733706
 30
0.0
 11
-2314.61447842925
 21
-925.9890733706
 31
0.0
  0
LINE
  5
2E2
330
132
100
AcDbEntity
  8
0
  6
Continuous
 62
     7
370
    25
100
AcDbLine
 10
-2314.61447842925
 20
-928.4890733706
 30
0.0
 11
-2317.11447842925
 21
-928.4890733706
 31
0.0
  0
LINE
  5
2E3
330
132
100
AcDbEntity
  8
0
  6
Continuous
 62
     7
370
    25
100
AcDbLine
 10
-2314.61447842925
 20
-928.4890733706
 30
0.0
 11
-2314.61447842925
 21
-930.9890733706
 31
0.0
  0
LINE
  5
2E4
330
132
100
AcDbEntity
  8
0
  6
Continuous
 62
     7
370
    25
100
AcDbLine
 10
-2314.61447842925
 20
-928.4890733706
 30
0.0
 11
-2312.11447842925
 21
-928.4890733706
 31
0.0
  0
LINE
  5
2E5
330
132
100
AcDbEntity
  8
0
  6
Continuous
 62
     7
370
    25
100
AcDbLine
 10
-2314.61447842925
 20
-923.4890733706
 30
0.0
 11
-2314.61447842925
 21
-920.7390733706
 31
0.0
  0
LINE
  5
2E6
330
132
100
AcDbEntity
  8
0
  6
Continuous
 62
     7
370
    25
100
AcDbLine
 10
-2319.61447842925
 20
-928.4890733706
 30
0.0
 11
-2322.36447842925
 21
-928.4890733706
 31
0.0
  0
LINE
  5
2E7
330
132
100
AcDbEntity
  8
0
  6
Continuous
 62
     7
370
    25
100
AcDbLine
 10
-2314.61447842925
 20
-933.4890733706
 30
0.0
 11
-2314.61447842925
 21
-936.2390733706
 31
0.0
  0
LINE
  5
2E8
330
132
100
AcDbEntity
  8
0
  6
Continuous
 62
     7
370
    25
100
AcDbLine
 10
-2309.61447842925
 20
-928.4890733706
 30
0.0
 11
-2306.86447842925
 21
-928.4890733706
 31
0.0
  0
ENDBLK
  5
134
330
132
100
AcDbEntity
  8
0
100
AcDbBlockEnd
  0
BLOCK
  5
136
330
135
100
AcDbEntity
  8
0
100
AcDbBlockBegin
  2
DC_GROUP_PT3-SN01B-01-00_30
 70
     0
 10
0.0
 20
0.0
 30
0.0
  3
DC_GROUP_PT3-SN01B-01-00_30
  1

  0
LINE
  5
2E9
330
135
100
AcDbEntity
  8
0
  6
Continuous
 62
     7
370
    25
100
AcDbLine
 10
-2314.61447842925
 20
-588.4890733706
 30
0.0
 11
-2314.61447842925
 21
-585.9890733706
 31
0.0
  0
LINE
  5
2EA
330
135
100
AcDbEntity
  8
0
  6
Continuous
 62
     7
370
    25
100
AcDbLine
 10
-2314.61447842925
 20
-588.4890733706
 30
0.0
 11
-2317.11447842925
 21
-588.4890733706
 31
0.0
  0
LINE
  5
2EB
330
135
100
AcDbEntity
  8
0
  6
Continuous
 62
     7
370
    25
100
AcDbLine
 10
-2314.61447842925
 20
-588.4890733706
 30
0.0
 11
-2314.61447842925
 21
-590.9890733706
 31
0.0
  0
LINE
  5
2EC
330
135
100
AcDbEntity
  8
0
  6
Continuous
 62
     7
370
    25
100
AcDbLine
 10
-2314.61447842925
 20
-588.4890733706
 30
0.0
 11
-2312.11447842925
 21
-588.4890733706
 31
0.0
  0
LINE
  5
2ED
330
135
100
AcDbEntity
  8
0
  6
Continuous
 62
     7
370
    25
100
AcDbLine
 10
-2314.61447842925
 20
-583.4890733706
 30
0.0
 11
-2314.61447842925
 21
-580.7390733706
 31
0.0
  0
LINE
  5
2EE
330
135
100
AcDbEntity
  8
0
  6
Continuous
 62
     7
370
    25
100
AcDbLine
 10
-2319.61447842925
 20
-588.4890733706
 30
0.0
 11
-2322.36447842925
 21
-588.4890733706
 31
0.0
  0
LINE
  5
2EF
330
135
100
AcDbEntity
  8
0
  6
Continuous
 62
     7
370
    25
100
AcDbLine
 10
-2314.61447842925
 20
-593.4890733706
 30
0.0
 11
-2314.61447842925
 21
-596.2390733706
 31
0.0
  0
LINE
  5
2F0
330
135
100
AcDbEntity
  8
0
  6
Continuous
 62
     7
370
    25
100
AcDbLine
 10
-2309.61447842925
 20
-588.4890733706
 30
0.0
 11
-2306.86447842925
 21
-588.4890733706
 31
0.0
  0
ENDBLK
  5
137
330
135
100
AcDbEntity
  8
0
100
AcDbBlockEnd
  0
BLOCK
  5
139
330
138
100
AcDbEntity
  8
0
100
AcDbBlockBegin
  2
*D66
 70
     1
 10
0.0
 20
0.0
 30
0.0
  3
*D66
  1

  0
LINE
  5
2F1
330
138
100
AcDbEntity
  8
0
  6
Continuous
 62
     7
370
    25
100
AcDbLine
 10
1365.18796197285
 20
-712.8001888179001
 30
0.0
 11
1055.02778503265
 21
-712.8001888179001
 31
0.0
  0
LINE
  5
2F2
330
138
100
AcDbEntity
  8
0
  6
Continuous
 62
     7
370
    25
100
AcDbLine
 10
849.3228875256505
 20
-592.8001888179001
 30
0.0
 11
1055.02778503265
 21
-592.8001888179001
 31
0.0
  0
LINE
  5
2F3
330
138
100
AcDbEntity
  8
0
  6
Continuous
 62
     7
370
    25
100
AcDbLine
 10
1055.02778503265
 20
-712.8001888179001
 30
0.0
 11
1055.02778503265
 21
-592.8001888179001
 31
0.0
  0
INSERT
  5
2F4
330
138
100
AcDbEntity
  8
0
 62
     7
100
AcDbBlockReference
  2
_OPEN30
 10
1055.02778503265
 20
-712.8001888179001
 30
0.0
 41
15.00001393912182
 42
14.99994636989232
 50
270.0
  0
INSERT
  5
2F5
330
138
100
AcDbEntity
  8
0
 62
     7
100
AcDbBlockReference
  2
_OPEN30
 10
1055.02778503265
 20
-592.8001888179001
 30
0.0
 41
15.00001393912182
 42
14.99994636989232
 50
90.0
  0
MTEXT
  5
2F6
330
138
100
AcDbEntity
  8
0
 62
     7
100
AcDbMText
 10
1041.90278503265
 20
-648.1446202950001
 30
0.0
 40
52.5
 41
164.0625
 71
     8
 72
     1
  1
\T1.00;60
  7
dcStyle0
 11
6.123031769111886E-17
 21
1.0
 31
0.0
 73
     1
 44
1.0
  0
ENDBLK
  5
13A
330
138
100
AcDbEntity
  8
0
100
AcDbBlockEnd
  0
BLOCK
  5
13C
330
13B
100
AcDbEntity
  8
0
100
AcDbBlockBegin
  2
*D67
 70
     1
 10
0.0
 20
0.0
 30
0.0
  3
*D67
  1

  0
LINE
  5
2F7
330
13B
100
AcDbEntity
  8
0
  6
Continuous
 62
     7
370
    25
100
AcDbLine
 10
1128.41296197285
 20
-492.8001888179001
 30
0.0
 11
1515.25042859425
 21
-492.8001888179001
 31
0.0
  0
LINE
  5
2F8
330
13B
100
AcDbEntity
  8
0
  6
Continuous
 62
     7
370
    25
100
AcDbLine
 10
1365.31296197285
 20
-412.8001888179001
 30
0.0
 11
1515.25042859425
 21
-412.8001888179001
 31
0.0
  0
LINE
  5
2F9
330
13B
100
AcDbEntity
  8
0
  6
Continuous
 62
     7
370
    25
100
AcDbLine
 10
1515.25042859425
 20
-412.8001888179001
 30
0.0
 11
1515.25042859425
 21
-492.8001888179001
 31
0.0
  0
LINE
  5
2FA
330
13B
100
AcDbEntity
  8
0
  6
Continuous
 62
     7
370
    25
100
AcDbLine
 10
1515.25042859425
 20
266.8749526324
 30
0.0
 11
1515.25042859425
 21
-412.8001888179001
 31
0.0
  0
INSERT
  5
2FB
330
13B
100
AcDbEntity
  8
0
 62
     7
100
AcDbBlockReference
  2
_OPEN30
 10
1515.25042859425
 20
-412.8001888179001
 30
0.0
 41
15.00001393912182
 42
14.99994636989232
 50
270.0
  0
LINE
  5
2FC
330
13B
100
AcDbEntity
  8
0
  6
Continuous
 62
     7
370
    25
100
AcDbLine
 10
1515.25042859425
 20
-517.8001888179001
 30
0.0
 11
1515.25042859425
 21
-492.8001888179001
 31
0.0
  0
INSERT
  5
2FD
330
13B
100
AcDbEntity
  8
0
 62
     7
100
AcDbBlockReference
  2
_OPEN30
 10
1515.25042859425
 20
-492.8001888179001
 30
0.0
 41
15.00001393912182
 42
14.99994636989232
 50
90.0
  0
MTEXT
  5
2FE
330
13B
100
AcDbEntity
  8
0
 62
     7
100
AcDbMText
 10
1502.12542859425
 20
-131.8750473676
 30
0.0
 40
52.5
 41
557.8125
 71
     7
 72
     1
  1
\T1.00;40(埋め込み深さ)
  7
dcStyle0
 11
6.123031769111886E-17
 21
1.0
 31
0.0
 73
     1
 44
1.0
  0
ENDBLK
  5
13D
330
13B
100
AcDbEntity
  8
0
100
AcDbBlockEnd
  0
BLOCK
  5
13F
330
13E
100
AcDbEntity
  8
0
100
AcDbBlockBegin
  2
*D68
 70
     1
 10
0.0
 20
0.0
 30
0.0
  3
*D68
  1

  0
LINE
  5
2FF
330
13E
100
AcDbEntity
  8
0
  6
Continuous
 62
     7
370
    25
100
AcDbLine
 10
1365.31296197285
 20
-712.8001888179001
 30
0.0
 11
1679.33425932825
 21
-712.8001888179001
 31
0.0
  0
LINE
  5
300
330
13E
100
AcDbEntity
  8
0
  6
Continuous
 62
     7
370
    25
100
AcDbLine
 10
1365.31296197285
 20
-412.8001888179001
 30
0.0
 11
1679.33425932825
 21
-412.8001888179001
 31
0.0
  0
LINE
  5
301
330
13E
100
AcDbEntity
  8
0
  6
Continuous
 62
     7
370
    25
100
AcDbLine
 10
1679.33425932825
 20
-712.8001888179001
 30
0.0
 11
1679.33425932825
 21
-412.8001888179001
 31
0.0
  0
INSERT
  5
302
330
13E
100
AcDbEntity
  8
0
 62
     7
100
AcDbBlockReference
  2
_OPEN30
 10
1679.33425932825
 20
-712.8001888179001
 30
0.0
 41
15.00001393912182
 42
14.99994636989232
 50
270.0
  0
INSERT
  5
303
330
13E
100
AcDbEntity
  8
0
 62
     7
100
AcDbBlockReference
  2
_OPEN30
 10
1679.33425932825
 20
-412.8001888179001
 30
0.0
 41
15.00001393912182
 42
14.99994636989232
 50
90.0
  0
MTEXT
  5
304
330
13E
100
AcDbEntity
  8
0
 62
     7
100
AcDbMText
 10
1666.20925932825
 20
-583.7832730431
 30
0.0
 40
52.5
 41
213.28125
 71
     8
 72
     1
  1
\T1.00;150
  7
dcStyle0
 11
6.123031769111886E-17
 21
1.0
 31
0.0
 73
     1
 44
1.0
  0
ENDBLK
  5
140
330
13E
100
AcDbEntity
  8
0
100
AcDbBlockEnd
  0
BLOCK
  5
142
330
141
100
AcDbEntity
  8
0
100
AcDbBlockBegin
  2
*D69
 70
     1
 10
0.0
 20
0.0
 30
0.0
  3
*D69
  1

  0
LINE
  5
305
330
141
100
AcDbEntity
  8
0
  6
Continuous
 62
     7
370
    25
100
AcDbLine
 10
1107.35046197285
 20
-412.7376888179001
 30
0.0
 11
1107.35046197285
 21
-203.6523030701001
 31
0.0
  0
LINE
  5
306
330
141
100
AcDbEntity
  8
0
  6
Continuous
 62
     7
370
    25
100
AcDbLine
 10
1128.35046197285
 20
-412.7376888179001
 30
0.0
 11
1128.35046197285
 21
-203.6523030701001
 31
0.0
  0
LINE
  5
307
330
141
100
AcDbEntity
  8
0
  6
Continuous
 62
     7
370
    25
100
AcDbLine
 10
1128.35046197285
 20
-203.6523030701001
 30
0.0
 11
1107.35046197285
 21
-203.6523030701001
 31
0.0
  0
LINE
  5
308
330
141
100
AcDbEntity
  8
0
  6
Continuous
 62
     7
370
    25
100
AcDbLine
 10
761.1804835472499
 20
-203.6523030701001
 30
0.0
 11
1107.35046197285
 21
-203.6523030701001
 31
0.0
  0
INSERT
  5
309
330
141
100
AcDbEntity
  8
0
 62
     7
100
AcDbBlockReference
  2
_OPEN30
 10
1107.35046197285
 20
-203.6523030701001
 30
0.0
 41
15.00001393912182
 42
14.99994636989232
 50
360.0
  0
LINE
  5
30A
330
141
100
AcDbEntity
  8
0
  6
Continuous
 62
     7
370
    25
100
AcDbLine
 10
1153.35046197285
 20
-203.6523030701001
 30
0.0
 11
1128.35046197285
 21
-203.6523030701001
 31
0.0
  0
INSERT
  5
30B
330
141
100
AcDbEntity
  8
0
 62
     7
100
AcDbBlockReference
  2
_OPEN30
 10
1128.35046197285
 20
-203.6523030701001
 30
0.0
 41
15.00001393912182
 42
14.99994636989232
 50
180.0
  0
MTEXT
  5
30C
330
141
100
AcDbEntity
  8
0
 62
     7
100
AcDbMText
 10
963.0554835472499
 20
-190.5273030701001
 30
0.0
 40
52.5
 41
311.71875
 71
     9
 72
     1
  1
\T1.00;φ10.5
  7
dcStyle0
 73
     1
 44
1.0
  0
ENDBLK
  5
143
330
141
100
AcDbEntity
  8
0
100
AcDbBlockEnd
  0
BLOCK
  5
187
330
186
100
AcDbEntity
  8
0
100
AcDbBlockBegin
  2
_OPEN30
 70
     0
 10
0.0
 20
0.0
 30
0.0
  3
_OPEN30
  1

  0
LINE
  5
189
330
186
100
AcDbEntity
  8
0
  6
ByBlock
 62
     0
370
    -2
100
AcDbLine
 10
-1.0
 20
0.267949
 30
0.0
 11
0.0
 21
0.0
 31
0.0
  0
LINE
  5
18A
330
186
100
AcDbEntity
  8
0
  6
ByBlock
 62
     0
370
    -2
100
AcDbLine
 10
0.0
 20
0.0
 30
0.0
 11
-1.0
 21
-0.267949
 31
0.0
  0
LINE
  5
18B
330
186
100
AcDbEntity
  8
0
  6
ByBlock
 62
     0
370
    -2
100
AcDbLine
 10
0.0
 20
0.0
 30
0.0
 11
-1.0
 21
0.0
 31
0.0
  0
ENDBLK
  5
188
330
186
100
AcDbEntity
  8
0
100
AcDbBlockEnd
  0
ENDSEC
  0
SECTION
  2
ENTITIES
  0
LINE
  5
30D
330
1F
100
AcDbEntity
  8
0
  6
Continuous
 62
     7
370
    70
100
AcDbLine
 10
-3790.96394848295
 20
2107.5
 30
0.0
 11
2089.03605151705
 21
2107.5
 31
0.0
  0
LINE
  5
30E
330
1F
100
AcDbEntity
  8
0
  6
Continuous
 62
     7
370
    70
100
AcDbLine
 10
-3790.96394848295
 20
2107.5
 30
0.0
 11
-3790.96394848295
 21
-2107.5
 31
0.0
  0
LINE
  5
30F
330
1F
100
AcDbEntity
  8
0
  6
Continuous
 62
     7
370
    70
100
AcDbLine
 10
-3790.96394848295
 20
-2107.5
 30
0.0
 11
2089.03605151705
 21
-2107.5
 31
0.0
  0
LINE
  5
310
330
1F
100
AcDbEntity
  8
0
  6
Continuous
 62
     7
370
    70
100
AcDbLine
 10
2089.03605151705
 20
2107.5
 30
0.0
 11
2089.03605151705
 21
-2107.5
 31
0.0
  0
LINE
  5
311
330
1F
100
AcDbEntity
  8
0
  6
Continuous
 62
     7
370
    35
100
AcDbLine
 10
-160.9639484829499
 20
-1507.5
 30
0.0
 11
-160.9639484829499
 21
-2107.5
 31
0.0
  0
LINE
  5
312
330
1F
100
AcDbEntity
  8
0
  6
Continuous
 62
     7
370
    35
100
AcDbLine
 10
2089.03605151705
 20
-1507.5
 30
0.0
 11
-160.9639484829499
 21
-1507.5
 31
0.0
  0
LINE
  5
313
330
1F
100
AcDbEntity
  8
0
  6
Continuous
 62
     7
370
    35
100
AcDbLine
 10
2089.03605151705
 20
-1747.5
 30
0.0
 11
-160.9639484829499
 21
-1747.5
 31
0.0
  0
LINE
  5
314
330
1F
100
AcDbEntity
  8
0
  6
Continuous
 62
     7
370
    25
100
AcDbLine
 10
19.03605151705005
 20
-1897.5
 30
0.0
 11
19.03605151705005
 21
-2107.5
 31
0.0
  0
LINE
  5
315
330
1F
100
AcDbEntity
  8
0
  6
Continuous
 62
     7
370
    25
100
AcDbLine
 10
-160.9639484829499
 20
-1897.5
 30
0.0
 11
2089.03605151705
 21
-1897.5
 31
0.0
  0
LINE
  5
316
330
1F
100
AcDbEntity
  8
0
  6
Continuous
 62
     7
370
    25
100
AcDbLine
 10
-55.96394848294995
 20
-1507.5
 30
0.0
 11
-55.96394848294995
 21
-1897.5
 31
0.0
  0
LINE
  5
317
330
1F
100
AcDbEntity
  8
0
  6
Continuous
 62
     7
370
    25
100
AcDbLine
 10
859.03605151705
 20
-1747.5
 30
0.0
 11
859.03605151705
 21
-2107.5
 31
0.0
  0
LINE
  5
318
330
1F
100
AcDbEntity
  8
0
  6
Continuous
 62
     7
370
    25
100
AcDbLine
 10
469.0360515170501
 20
-1747.5
 30
0.0
 11
469.0360515170501
 21
-1897.5
 31
0.0
  0
LINE
  5
319
330
1F
100
AcDbEntity
  8
0
  6
Continuous
 62
     7
370
    25
100
AcDbLine
 10
574.03605151705
 20
-1747.5
 30
0.0
 11
574.03605151705
 21
-1897.5
 31
0.0
  0
LINE
  5
31A
330
1F
100
AcDbEntity
  8
0
  6
Continuous
 62
     7
370
    25
100
AcDbLine
 10
754.03605151705
 20
-1747.5
 30
0.0
 11
754.03605151705
 21
-1897.5
 31
0.0
  0
LINE
  5
31B
330
1F
100
AcDbEntity
  8
0
  6
Continuous
 62
     7
370
    25
100
AcDbLine
 10
1039.03605151705
 20
-1747.5
 30
0.0
 11
1039.03605151705
 21
-1897.5
 31
0.0
  0
LINE
  5
31C
330
1F
100
AcDbEntity
  8
0
  6
Continuous
 62
     7
370
    25
100
AcDbLine
 10
1144.03605151705
 20
-1747.5
 30
0.0
 11
1144.03605151705
 21
-1897.5
 31
0.0
  0
LINE
  5
31D
330
1F
100
AcDbEntity
  8
0
  6
Continuous
 62
     7
370
    25
100
AcDbLine
 10
1324.03605151705
 20
-1507.5
 30
0.0
 11
1324.03605151705
 21
-1897.5
 31
0.0
  0
LINE
  5
31E
330
1F
100
AcDbEntity
  8
0
  6
Continuous
 62
     7
370
    25
100
AcDbLine
 10
1429.03605151705
 20
-1507.5
 30
0.0
 11
1429.03605151705
 21
-1897.5
 31
0.0
  0
CIRCLE
  5
31F
330
1F
100
AcDbEntity
  8
0
  6
Continuous
 62
     7
370
    25
100
AcDbCircle
 10
-2230.53167474295
 20
1053.83877689
 30
0.0
 40
5.250000000000455
  0
CIRCLE
  5
320
330
1F
100
AcDbEntity
  8
0
  6
Continuous
 62
     7
370
    25
100
AcDbCircle
 10
-2230.53167474295
 20
713.8387768900002
 30
0.0
 40
5.25
  0
CIRCLE
  5
321
330
1F
100
AcDbEntity
  8
0
  6
Continuous
 62
     7
370
    25
100
AcDbCircle
 10
-2983.13167474295
 20
1053.83877689
 30
0.0
 40
5.249999999999545
  0
CIRCLE
  5
322
330
1F
100
AcDbEntity
  8
0
  6
Continuous
 62
     7
370
    25
100
AcDbCircle
 10
-2983.13167474295
 20
713.8387768900002
 30
0.0
 40
5.250000000000455
  0
LINE
  5
323
330
1F
100
AcDbEntity
  8
0
  6
Continuous
 62
     7
370
    25
100
AcDbLine
 10
-3106.83167474295
 20
558.8387768900002
 30
0.0
 11
-2106.83167474295
 21
558.8387768900002
 31
0.0
  0
LINE
  5
324
330
1F
100
AcDbEntity
  8
0
  6
Continuous
 62
     7
370
    25
100
AcDbLine
 10
-2106.83167474295
 20
558.8387768900002
 30
0.0
 11
-2106.83167474295
 21
1208.83877689
 31
0.0
  0
LINE
  5
325
330
1F
100
AcDbEntity
  8
0
  6
Continuous
 62
     7
370
    25
100
AcDbLine
 10
-2106.83167474295
 20
1208.83877689
 30
0.0
 11
-3106.83167474295
 21
1208.83877689
 31
0.0
  0
LINE
  5
326
330
1F
100
AcDbEntity
  8
0
  6
Continuous
 62
     7
370
    25
100
AcDbLine
 10
-3106.83167474295
 20
1208.83877689
 30
0.0
 11
-3106.83167474295
 21
558.8387768900002
 31
0.0
  0
CIRCLE
  5
327
330
1F
100
AcDbEntity
  8
0
  6
Continuous
 62
     7
370
    25
100
AcDbCircle
 10
862.1540689568496
 20
1038.62670252
 30
0.0
 40
5.25
  0
CIRCLE
  5
328
330
1F
100
AcDbEntity
  8
0
  6
Continuous
 62
     7
370
    25
100
AcDbCircle
 10
-690.4459310431498
 20
698.62670252
 30
0.0
 40
5.25
  0
CIRCLE
  5
329
330
1F
100
AcDbEntity
  8
0
  6
Continuous
 62
     7
370
    25
100
AcDbCircle
 10
-690.4459310431498
 20
1038.62670252
 30
0.0
 40
5.25
  0
CIRCLE
  5
32A
330
1F
100
AcDbEntity
  8
0
  6
Continuous
 62
     7
370
    25
100
AcDbCircle
 10
85.85406895695041
 20
1038.62670252
 30
0.0
 40
5.25
  0
CIRCLE
  5
32B
330
1F
100
AcDbEntity
  8
0
  6
Continuous
 62
     7
370
    25
100
AcDbCircle
 10
85.85406895695041
 20
698.62670252
 30
0.0
 40
5.25
  0
CIRCLE
  5
32C
330
1F
100
AcDbEntity
  8
0
  6
Continuous
 62
     7
370
    25
100
AcDbCircle
 10
862.1540689568496
 20
698.62670252
 30
0.0
 40
5.25
  0
LINE
  5
32D
330
1F
100
AcDbEntity
  8
0
  6
Continuous
 62
     7
370
    25
100
AcDbLine
 10
-814.1459310431501
 20
543.62670252
 30
0.0
 11
985.8540689569504
 21
543.62670252
 31
0.0
  0
LINE
  5
32E
330
1F
100
AcDbEntity
  8
0
  6
Continuous
 62
     7
370
    25
100
AcDbLine
 10
985.8540689569504
 20
543.62670252
 30
0.0
 11
985.8540689569504
 21
1193.62670252
 31
0.0
  0
LINE
  5
32F
330
1F
100
AcDbEntity
  8
0
  6
Continuous
 62
     7
370
    25
100
AcDbLine
 10
985.8540689569504
 20
1193.62670252
 30
0.0
 11
-814.1459310431501
 21
1193.62670252
 31
0.0
  0
LINE
  5
330
330
1F
100
AcDbEntity
  8
0
  6
Continuous
 62
     7
370
    25
100
AcDbLine
 10
-814.1459310431501
 20
1193.62670252
 30
0.0
 11
-814.1459310431501
 21
543.62670252
 31
0.0
  0
CIRCLE
  5
331
330
1F
100
AcDbEntity
  8
0
  6
Continuous
 62
     7
370
    25
100
AcDbCircle
 10
-738.3144784292499
 20
-588.4890733706
 30
0.0
 40
5.250000000000227
  0
CIRCLE
  5
332
330
1F
100
AcDbEntity
  8
0
  6
Continuous
 62
     7
370
    25
100
AcDbCircle
 10
-738.3144784292499
 20
-928.4890733706
 30
0.0
 40
5.250000000000227
  0
CIRCLE
  5
333
330
1F
100
AcDbEntity
  8
0
  6
Continuous
 62
     7
370
    25
100
AcDbCircle
 10
-3090.91447842925
 20
-928.4890733706
 30
0.0
 40
5.250000000000227
  0
CIRCLE
  5
334
330
1F
100
AcDbEntity
  8
0
  6
Continuous
 62
     7
370
    25
100
AcDbCircle
 10
-3090.91447842925
 20
-588.4890733706
 30
0.0
 40
5.250000000000227
  0
CIRCLE
  5
335
330
1F
100
AcDbEntity
  8
0
  6
Continuous
 62
     7
370
    25
100
AcDbCircle
 10
-1514.61447842925
 20
-928.4890733706
 30
0.0
 40
5.250000000000227
  0
CIRCLE
  5
336
330
1F
100
AcDbEntity
  8
0
  6
Continuous
 62
     7
370
    25
100
AcDbCircle
 10
-2314.61447842925
 20
-928.4890733706
 30
0.0
 40
5.249999999999773
  0
CIRCLE
  5
337
330
1F
100
AcDbEntity
  8
0
  6
Continuous
 62
     7
370
    25
100
AcDbCircle
 10
-2314.61447842925
 20
-588.4890733706
 30
0.0
 40
5.249999999999773
  0
CIRCLE
  5
338
330
1F
100
AcDbEntity
  8
0
  6
Continuous
 62
     7
370
    25
100
AcDbCircle
 10
-1514.61447842925
 20
-588.4890733706
 30
0.0
 40
5.250000000000227
  0
LINE
  5
339
330
1F
100
AcDbEntity
  8
0
  6
Continuous
 62
     7
370
    25
100
AcDbLine
 10
-3214.61447842925
 20
-1083.4890733706
 30
0.0
 11
-614.6144784292501
 21
-1083.4890733706
 31
0.0
  0
LINE
  5
33A
330
1F
100
AcDbEntity
  8
0
  6
Continuous
 62
     7
370
    25
100
AcDbLine
 10
-614.6144784292501
 20
-1083.4890733706
 30
0.0
 11
-614.6144784292501
 21
-433.4890733706
 31
0.0
  0
LINE
  5
33B
330
1F
100
AcDbEntity
  8
0
  6
Continuous
 62
     7
370
    25
100
AcDbLine
 10
-614.6144784292501
 20
-433.4890733706
 30
0.0
 11
-3214.61447842925
 21
-433.4890733706
 31
0.0
  0
LINE
  5
33C
330
1F
100
AcDbEntity
  8
0
  6
Continuous
 62
     7
370
    25
100
AcDbLine
 10
-3214.61447842925
 20
-433.4890733706
 30
0.0
 11
-3214.61447842925
 21
-1083.4890733706
 31
0.0
  0
LINE
  5
33D
330
1F
100
AcDbEntity
  8
0
  6
Continuous
 62
     7
370
    25
100
AcDbLine
 10
1365.25046197285
 20
-712.8001947784
 30
0.0
 11
1365.25046197285
 21
-412.8001828575
 31
0.0
  0
LINE
  5
33E
330
1F
100
AcDbEntity
  8
0
  6
Continuous
 62
     7
370
    25
100
AcDbLine
 10
870.9292348991498
 20
-412.8001828575
 30
0.0
 11
1365.25046197285
 21
-412.8001828575
 31
0.0
  0
LINE
  5
33F
330
1F
100
AcDbEntity
  8
0
  6
Continuous
 62
     7
370
    25
100
AcDbLine
 10
872.1829589973499
 20
-712.8001947784
 30
0.0
 11
1365.25046197285
 21
-712.8001947784
 31
0.0
  0
LINE
  5
340
330
1F
100
AcDbEntity
  8
0
  6
Continuous
 62
     7
370
    25
100
AcDbLine
 10
1365.25046197285
 20
-592.8001888179001
 30
0.0
 11
849.2603875256505
 21
-592.8001888179001
 31
0.0
  0
INSERT
  5
341
330
1F
100
AcDbEntity
  8
0
  6
Continuous
100
AcDbBlockReference
  2
DC_GROUP_PT3-SN01B-01-00_1
 10
0.0
 20
0.0
 30
0.0
  0
INSERT
  5
342
330
1F
100
AcDbEntity
  8
0
  6
Continuous
100
AcDbBlockReference
  2
DC_GROUP_PT3-SN01B-01-00_2
 10
0.0
 20
0.0
 30
0.0
  0
INSERT
  5
343
330
1F
100
AcDbEntity
  8
0
  6
Continuous
100
AcDbBlockReference
  2
DC_GROUP_PT3-SN01B-01-00_3
 10
0.0
 20
0.0
 30
0.0
  0
INSERT
  5
344
330
1F
100
AcDbEntity
  8
0
  6
Continuous
100
AcDbBlockReference
  2
DC_GROUP_PT3-SN01B-01-00_4
 10
0.0
 20
0.0
 30
0.0
  0
INSERT
  5
345
330
1F
100
AcDbEntity
  8
0
  6
Continuous
100
AcDbBlockReference
  2
DC_GROUP_PT3-SN01B-01-00_5
 10
0.0
 20
0.0
 30
0.0
  0
INSERT
  5
346
330
1F
100
AcDbEntity
  8
0
  6
Continuous
100
AcDbBlockReference
  2
DC_GROUP_PT3-SN01B-01-00_6
 10
0.0
 20
0.0
 30
0.0
  0
INSERT
  5
347
330
1F
100
AcDbEntity
  8
0
  6
Continuous
100
AcDbBlockReference
  2
DC_GROUP_PT3-SN01B-01-00_7
 10
0.0
 20
0.0
 30
0.0
  0
INSERT
  5
348
330
1F
100
AcDbEntity
  8
0
  6
Continuous
100
AcDbBlockReference
  2
DC_GROUP_PT3-SN01B-01-00_8
 10
0.0
 20
0.0
 30
0.0
  0
INSERT
  5
349
330
1F
100
AcDbEntity
  8
0
  6
Continuous
100
AcDbBlockReference
  2
DC_GROUP_PT3-SN01B-01-00_9
 10
0.0
 20
0.0
 30
0.0
  0
INSERT
  5
34A
330
1F
100
AcDbEntity
  8
0
  6
Continuous
100
AcDbBlockReference
  2
DC_GROUP_PT3-SN01B-01-00_10
 10
0.0
 20
0.0
 30
0.0
  0
INSERT
  5
34B
330
1F
100
AcDbEntity
  8
0
  6
Continuous
100
AcDbBlockReference
  2
DC_GROUP_PT3-SN01B-01-00_11
 10
0.0
 20
0.0
 30
0.0
  0
INSERT
  5
34C
330
1F
100
AcDbEntity
  8
0
  6
Continuous
100
AcDbBlockReference
  2
DC_GROUP_PT3-SN01B-01-00_12
 10
0.0
 20
0.0
 30
0.0
  0
DIMENSION
  5
34D
330
1F
100
AcDbEntity
  8
0
  6
Continuous
370
    13
100
AcDbDimension
  2
*D14
 10
-2230.53167474295
 20
1358.83877689
 30
0.0
 11
-2617.91123399945
 21
1358.83877689
 31
0.0
 70
   160
 71
     8
 42
-1.0
  3
dc_Rotated
100
AcDbAlignedDimension
 13
-2983.13167474295
 23
1056.65127689
 33
0.0
 14
-2230.53167474295
 24
1056.65127689
 34
0.0
100
AcDbRotatedDimension
1001
ACAD
1000
DSTYLE
1002
{
1070
   274
1070
     4
1070
    41
1040
15.00000941285121
1070
    79
1070
     2
1070
   343
1005
186
1070
   344
1005
186
1070
   176
1070
     7
1070
   177
1070
     7
1070
   178
1070
     7
1070
   271
1070
     1
1070
    44
1040
0.0
1070
    42
1040
5.0
1070
   147
1040
13.125
1070
   173
1070
     1
1070
    77
1070
     3
1070
    73
1070
     0
1070
   172
1070
     1
1070
    74
1070
     0
1070
   283
1070
     0
1070
   140
1040
52.5
1070
   284
1070
     8
1070
   288
1070
     1
1070
    78
1070
     8
1070
    90
1070
     1
1002
}
  0
DIMENSION
  5
34F
330
1F
100
AcDbEntity
  8
0
  6
Continuous
370
    13
100
AcDbDimension
  2
*D15
 10
-1911.83167474295
 20
1053.83877689
 30
0.0
 11
-1911.83167474295
 21
890.4084943215998
 31
0.0
 70
   160
 71
     8
 42
-1.0
  3
dc_Rotated
100
AcDbAlignedDimension
 13
-2227.71917474295
 23
713.8387768900002
 33
0.0
 14
-2227.71917474295
 24
1053.83877689
 34
0.0
 50
90.0
100
AcDbRotatedDimension
1001
ACAD
1000
DSTYLE
1002
{
1070
   274
1070
     4
1070
    41
1040
15.00000941285121
1070
    79
1070
     2
1070
   343
1005
186
1070
   344
1005
186
1070
   176
1070
     7
1070
   177
1070
     7
1070
   178
1070
     7
1070
   271
1070
     1
1070
    44
1040
0.0
1070
    42
1040
5.0
1070
   147
1040
13.125
1070
   173
1070
     1
1070
    77
1070
     3
1070
    73
1070
     0
1070
   174
1070
     1
1070
   172
1070
     1
1070
    74
1070
     0
1070
   283
1070
     0
1070
   140
1040
52.5
1070
   284
1070
     8
1070
   288
1070
     1
1070
    78
1070
     8
1070
    90
1070
     1
1002
}
  0
DIMENSION
  5
350
330
1F
100
AcDbEntity
  8
0
  6
Continuous
370
    13
100
AcDbDimension
  2
*D16
 10
-1776.83167474295
 20
1208.83877689
 30
0.0
 11
-1776.83167474295
 21
890.9146945877001
 31
0.0
 70
   160
 71
     8
 42
-1.0
  3
dc_Rotated
100
AcDbAlignedDimension
 13
-2111.76917474295
 23
558.8387768900002
 33
0.0
 14
-2111.76917474295
 24
1208.83877689
 34
0.0
 50
90.0
100
AcDbRotatedDimension
1001
ACAD
1000
DSTYLE
1002
{
1070
   274
1070
     4
1070
    41
1040
15.00000941285121
1070
    79
1070
     2
1070
   343
1005
186
1070
   344
1005
186
1070
   176
1070
     7
1070
   177
1070
     7
1070
   178
1070
     7
1070
   271
1070
     1
1070
    44
1040
0.0
1070
    42
1040
5.0
1070
   147
1040
13.125
1070
   173
1070
     1
1070
    77
1070
     3
1070
    73
1070
     0
1070
   172
1070
     1
1070
    74
1070
     0
1070
   283
1070
     0
1070
   140
1040
52.5
1070
   284
1070
     8
1070
   288
1070
     1
1070
    78
1070
     8
1070
    90
1070
     1
1002
}
  0
DIMENSION
  5
351
330
1F
100
AcDbEntity
  8
0
  6
Continuous
370
    13
100
AcDbDimension
  2
*D17
 10
-2106.83167474295
 20
1509.4381786875
 30
0.0
 11
-2617.91123399945
 21
1509.4381786875
 31
0.0
 70
   160
 71
     8
 42
-1.0
  3
dc_Rotated
100
AcDbAlignedDimension
 13
-3106.83167474295
 23
1203.90127689
 33
0.0
 14
-2106.83167474295
 24
1203.90127689
 34
0.0
100
AcDbRotatedDimension
1001
ACAD
1000
DSTYLE
1002
{
1070
   274
1070
     4
1070
    41
1040
15.00000941285121
1070
    79
1070
     2
1070
   343
1005
186
1070
   344
1005
186
1070
   176
1070
     7
1070
   177
1070
     7
1070
   178
1070
     7
1070
   271
1070
     1
1070
    44
1040
0.0
1070
    42
1040
5.0
1070
   147
1040
13.125
1070
   173
1070
     1
1070
    77
1070
     3
1070
    73
1070
     0
1070
   172
1070
     1
1070
    74
1070
     0
1070
   283
1070
     0
1070
   140
1040
52.5
1070
   284
1070
     8
1070
   288
1070
     1
1070
    78
1070
     8
1070
    90
1070
     1
1002
}
  0
DIMENSION
  5
352
330
1F
100
AcDbEntity
  8
0
  6
Continuous
370
    13
100
AcDbDimension
  2
*D18
 10
-3106.83167474295
 20
1358.83877689
 30
0.0
 11
-3329.61034648285
 21
1358.83877689
 31
0.0
 70
   160
 71
     8
 42
-1.0
  3
dc_Rotated
100
AcDbAlignedDimension
 13
-2983.13167474295
 23
1056.65127689
 33
0.0
 14
-3106.83167474295
 24
1203.90127689
 34
0.0
100
AcDbRotatedDimension
1001
ACAD
1000
DSTYLE
1002
{
1070
   274
1070
     4
1070
    41
1040
15.00000941285121
1070
    79
1070
     2
1070
   343
1005
186
1070
   344
1005
186
1070
   176
1070
     7
1070
   177
1070
     7
1070
   178
1070
     7
1070
   271
1070
     1
1070
    44
1040
0.0
1070
    42
1040
5.0
1070
   147
1040
13.125
1070
   173
1070
     1
1070
    77
1070
     3
1070
    73
1070
     0
1070
   172
1070
     1
1070
    74
1070
     0
1070
   283
1070
     0
1070
   140
1040
52.5
1070
   284
1070
     8
1070
   288
1070
     1
1070
    78
1070
     8
1070
    90
1070
     1
1002
}
  0
DIMENSION
  5
353
330
1F
100
AcDbEntity
  8
0
  6
Continuous
370
    13
100
AcDbDimension
  2
*D19
 10
-2230.53167474295
 20
1358.83877689
 30
0.0
 11
-1890.76598210775
 21
1358.83877689
 31
0.0
 70
   160
 71
     8
 42
-1.0
  3
dc_Rotated
100
AcDbAlignedDimension
 13
-2106.83167474295
 23
1203.90127689
 33
0.0
 14
-2230.53167474295
 24
1056.65127689
 34
0.0
100
AcDbRotatedDimension
1001
ACAD
1000
DSTYLE
1002
{
1070
   274
1070
     4
1070
    41
1040
15.00000941285121
1070
    79
1070
     2
1070
   343
1005
186
1070
   344
1005
186
1070
   176
1070
     7
1070
   177
1070
     7
1070
   178
1070
     7
1070
   271
1070
     1
1070
    44
1040
0.0
1070
    42
1040
5.0
1070
   147
1040
13.125
1070
   173
1070
     1
1070
    77
1070
     3
1070
    73
1070
     0
1070
   172
1070
     1
1070
    74
1070
     0
1070
   283
1070
     0
1070
   140
1040
52.5
1070
   284
1070
     8
1070
   288
1070
     1
1070
    78
1070
     8
1070
    90
1070
     1
1002
}
  0
DIMENSION
  5
354
330
1F
100
AcDbEntity
  8
0
  6
Continuous
370
    13
100
AcDbDimension
  2
*D20
 10
-1911.83167474295
 20
1208.83877689
 30
0.0
 11
-1911.83167474295
 21
1134.120198776
 31
0.0
 70
   160
 71
     8
 42
-1.0
  3
dc_Rotated
100
AcDbAlignedDimension
 13
-2227.71917474295
 23
1053.83877689
 33
0.0
 14
-2111.76917474295
 24
1208.83877689
 34
0.0
 50
90.0
100
AcDbRotatedDimension
1001
ACAD
1000
DSTYLE
1002
{
1070
   274
1070
     4
1070
    41
1040
15.00000941285121
1070
    79
1070
     2
1070
   343
1005
186
1070
   344
1005
186
1070
   176
1070
     7
1070
   177
1070
     7
1070
   178
1070
     7
1070
   271
1070
     1
1070
    44
1040
0.0
1070
    42
1040
5.0
1070
   147
1040
13.125
1070
   173
1070
     1
1070
    77
1070
     3
1070
    73
1070
     0
1070
   172
1070
     1
1070
    74
1070
     0
1070
   283
1070
     0
1070
   140
1040
52.5
1070
   284
1070
     8
1070
   288
1070
     1
1070
    78
1070
     8
1070
    90
1070
     1
1002
}
  0
DIMENSION
  5
355
330
1F
100
AcDbEntity
  8
0
  6
Continuous
370
    13
100
AcDbDimension
  2
*D21
 10
-1911.83167474295
 20
713.8387768900002
 30
0.0
 11
-1911.83167474295
 21
630.2949515261998
 31
0.0
 70
   160
 71
     8
 42
-1.0
  3
dc_Rotated
100
AcDbAlignedDimension
 13
-2111.76917474295
 23
558.8387768900002
 33
0.0
 14
-2227.71917474295
 24
713.8387768900002
 34
0.0
 50
90.0
100
AcDbRotatedDimension
1001
ACAD
1000
DSTYLE
1002
{
1070
   274
1070
     4
1070
    41
1040
15.00000941285121
1070
    79
1070
     2
1070
   343
1005
186
1070
   344
1005
186
1070
   176
1070
     7
1070
   177
1070
     7
1070
   178
1070
     7
1070
   271
1070
     1
1070
    44
1040
0.0
1070
    42
1040
5.0
1070
   147
1040
13.125
1070
   173
1070
     1
1070
    77
1070
     3
1070
    73
1070
     0
1070
   172
1070
     1
1070
    74
1070
     0
1070
   283
1070
     0
1070
   140
1040
52.5
1070
   284
1070
     8
1070
   288
1070
     1
1070
    78
1070
     8
1070
    90
1070
     1
1002
}
  0
DIMENSION
  5
356
330
1F
100
AcDbEntity
  8
0
  6
Continuous
370
    13
100
AcDbDimension
  2
*D22
 10
-2275.811827288269
 20
613.6098274618148
 30
0.0
 11
-2677.051061465052
 21
794.8765556311016
 31
0.0
 70
   160
 71
     8
 42
-1.0
  3
dc_Rotated
100
AcDbAlignedDimension
 13
-2981.098888626085
 23
1058.338408747506
 33
0.0
 14
-2228.498888626084
 24
718.3384087475057
 34
0.0
 50
155.6881078932
100
AcDbRotatedDimension
1001
ACAD
1000
DSTYLE
1002
{
1070
   274
1070
     4
1070
    41
1040
15.00000941285121
1070
    79
1070
     2
1070
   343
1005
186
1070
   344
1005
186
1070
   176
1070
     7
1070
   177
1070
     7
1070
   178
1070
     7
1070
   271
1070
     1
1070
    44
1040
0.0
1070
    42
1040
5.0
1070
   147
1040
13.12499999999995
1070
   173
1070
     1
1070
    77
1070
     3
1070
    73
1070
     0
1070
   172
1070
     1
1070
    74
1070
     0
1070
   283
1070
     0
1070
   140
1040
52.5
1070
   284
1070
     8
1070
   288
1070
     1
1070
    78
1070
     8
1070
    90
1070
     1
1002
}
  0
DIMENSION
  5
357
330
1F
100
AcDbEntity
  8
0
  6
Continuous
370
    13
100
AcDbDimension
  2
*D23
 10
-2235.078308112814
 20
1051.213776889992
 30
0.0
 11
-2382.961206113494
 21
965.8335459204435
 31
0.0
 70
   163
  1
4-φ10.5
 71
     8
 42
-1.0
  3
dc_Diam01
100
AcDbDiametricDimension
 15
-2225.985041373086
 25
1056.463776890008
 35
0.0
 40
0.0
1001
ACAD
1000
DSTYLE
1002
{
1070
   274
1070
     4
1070
    41
1040
15.00000941285121
1070
   289
1070
     1
1070
    79
1070
     2
1070
   343
1005
186
1070
   344
1005
186
1070
   176
1070
     7
1070
   177
1070
     7
1070
   178
1070
     7
1070
   271
1070
     1
1070
    44
1040
5.0
1070
    42
1040
5.0
1070
   147
1040
13.12499999999998
1070
   173
1070
     1
1070
    77
1070
     3
1070
    73
1070
     0
1070
   172
1070
     1
1070
    74
1070
     0
1070
   283
1070
     0
1070
   140
1040
52.5
1070
   284
1070
     8
1070
   288
1070
     1
1070
    78
1070
     8
1070
    90
1070
     1
1002
}
  0
INSERT
  5
359
330
1F
100
AcDbEntity
  8
0
  6
Continuous
100
AcDbBlockReference
  2
DC_GROUP_PT3-SN01B-01-00_13
 10
0.0
 20
0.0
 30
0.0
  0
INSERT
  5
35A
330
1F
100
AcDbEntity
  8
0
  6
Continuous
100
AcDbBlockReference
  2
DC_GROUP_PT3-SN01B-01-00_14
 10
0.0
 20
0.0
 30
0.0
  0
INSERT
  5
35B
330
1F
100
AcDbEntity
  8
0
  6
Continuous
100
AcDbBlockReference
  2
DC_GROUP_PT3-SN01B-01-00_15
 10
0.0
 20
0.0
 30
0.0
  0
INSERT
  5
35C
330
1F
100
AcDbEntity
  8
0
  6
Continuous
100
AcDbBlockReference
  2
DC_GROUP_PT3-SN01B-01-00_16
 10
0.0
 20
0.0
 30
0.0
  0
DIMENSION
  5
35D
330
1F
100
AcDbEntity
  8
0
  6
Continuous
370
    13
100
AcDbDimension
  2
*D28
 10
85.85406895695041
 20
1343.62670252
 30
0.0
 11
-303.9688931553501
 21
1343.62670252
 31
0.0
 70
   160
 71
     8
 42
-1.0
  3
dc_Rotated
100
AcDbAlignedDimension
 13
-690.4459310430498
 23
1041.43920252
 33
0.0
 14
85.85406895695041
 24
1041.43920252
 34
0.0
100
AcDbRotatedDimension
1001
ACAD
1000
DSTYLE
1002
{
1070
   274
1070
     4
1070
    41
1040
15.00000941285121
1070
    79
1070
     2
1070
   343
1005
186
1070
   344
1005
186
1070
   176
1070
     7
1070
   177
1070
     7
1070
   178
1070
     7
1070
   271
1070
     1
1070
    44
1040
0.0
1070
    42
1040
5.0
1070
   147
1040
13.125
1070
   173
1070
     1
1070
    77
1070
     3
1070
    73
1070
     0
1070
   172
1070
     1
1070
    74
1070
     0
1070
   283
1070
     0
1070
   140
1040
52.5
1070
   284
1070
     8
1070
   288
1070
     1
1070
    78
1070
     8
1070
    90
1070
     1
1002
}
  0
DIMENSION
  5
35E
330
1F
100
AcDbEntity
  8
0
  6
Continuous
370
    13
100
AcDbDimension
  2
*D29
 10
862.1540689568496
 20
1343.62670252
 30
0.0
 11
434.1137981224497
 21
1343.62670252
 31
0.0
 70
   160
 71
     8
 42
-1.0
  3
dc_Rotated
100
AcDbAlignedDimension
 13
85.85406895695041
 23
1041.43920252
 33
0.0
 14
862.1540689568496
 24
1041.43920252
 34
0.0
100
AcDbRotatedDimension
1001
ACAD
1000
DSTYLE
1002
{
1070
   274
1070
     4
1070
    41
1040
15.00000941285121
1070
    79
1070
     2
1070
   343
1005
186
1070
   344
1005
186
1070
   176
1070
     7
1070
   177
1070
     7
1070
   178
1070
     7
1070
   271
1070
     1
1070
    44
1040
0.0
1070
    42
1040
5.0
1070
   147
1040
13.125
1070
   173
1070
     1
1070
    77
1070
     3
1070
    73
1070
     0
1070
   172
1070
     1
1070
    74
1070
     0
1070
   283
1070
     0
1070
   140
1040
52.5
1070
   284
1070
     8
1070
   288
1070
     1
1070
    78
1070
     8
1070
    90
1070
     1
1002
}
  0
DIMENSION
  5
35F
330
1F
100
AcDbEntity
  8
0
  6
Continuous
370
    13
100
AcDbDimension
  2
*D30
 10
1135.85406895695
 20
1038.62670252
 30
0.0
 11
1135.85406895695
 21
871.6702308311001
 31
0.0
 70
   160
 71
     8
 42
-1.0
  3
dc_Rotated
100
AcDbAlignedDimension
 13
864.9665689568496
 23
698.62670252
 33
0.0
 14
864.9665689568496
 24
1038.62670252
 34
0.0
 50
90.0
100
AcDbRotatedDimension
1001
ACAD
1000
DSTYLE
1002
{
1070
   274
1070
     4
1070
    41
1040
15.00000941285121
1070
    79
1070
     2
1070
   343
1005
186
1070
   344
1005
186
1070
   176
1070
     7
1070
   177
1070
     7
1070
   178
1070
     7
1070
   271
1070
     1
1070
    44
1040
0.0
1070
    42
1040
5.0
1070
   147
1040
13.125
1070
   173
1070
     1
1070
    77
1070
     3
1070
    73
1070
     0
1070
   172
1070
     1
1070
    74
1070
     0
1070
   283
1070
     0
1070
   140
1040
52.5
1070
   284
1070
     8
1070
   288
1070
     1
1070
    78
1070
     8
1070
    90
1070
     1
1002
}
  0
DIMENSION
  5
360
330
1F
100
AcDbEntity
  8
0
  6
Continuous
370
    13
100
AcDbDimension
  2
*D31
 10
-814.1459310431501
 20
1343.62670252
 30
0.0
 11
-1062.58343104315
 21
1343.62670252
 31
0.0
 70
   160
 71
     8
 42
-1.0
  3
dc_Rotated
100
AcDbAlignedDimension
 13
-690.4459310430498
 23
1041.43920252
 33
0.0
 14
-814.1459310431501
 24
1188.68920252
 34
0.0
100
AcDbRotatedDimension
1001
ACAD
1000
DSTYLE
1002
{
1070
   274
1070
     4
1070
    41
1040
15.00000941285121
1070
    79
1070
     2
1070
   343
1005
186
1070
   344
1005
186
1070
   176
1070
     7
1070
   177
1070
     7
1070
   178
1070
     7
1070
   271
1070
     1
1070
    44
1040
0.0
1070
    42
1040
5.0
1070
   147
1040
13.125
1070
   173
1070
     1
1070
    77
1070
     3
1070
    73
1070
     0
1070
   174
1070
     1
1070
   172
1070
     1
1070
    74
1070
     0
1070
   283
1070
     0
1070
   140
1040
52.5
1070
   284
1070
     8
1070
   288
1070
     1
1070
    78
1070
     8
1070
    90
1070
     1
1002
}
  0
DIMENSION
  5
361
330
1F
100
AcDbEntity
  8
0
  6
Continuous
370
    13
100
AcDbDimension
  2
*D32
 10
862.1540689568496
 20
1343.62670252
 30
0.0
 11
1206.20740641615
 21
1343.62670252
 31
0.0
 70
   160
 71
     8
 42
-1.0
  3
dc_Rotated
100
AcDbAlignedDimension
 13
985.8540689569504
 23
1188.68920252
 33
0.0
 14
862.1540689568496
 24
1041.43920252
 34
0.0
100
AcDbRotatedDimension
1001
ACAD
1000
DSTYLE
1002
{
1070
   274
1070
     4
1070
    41
1040
15.00000941285121
1070
    79
1070
     2
1070
   343
1005
186
1070
   344
1005
186
1070
   176
1070
     7
1070
   177
1070
     7
1070
   178
1070
     7
1070
   271
1070
     1
1070
    44
1040
0.0
1070
    42
1040
5.0
1070
   147
1040
13.125
1070
   173
1070
     1
1070
    77
1070
     3
1070
    73
1070
     0
1070
   172
1070
     1
1070
    74
1070
     0
1070
   283
1070
     0
1070
   140
1040
52.5
1070
   284
1070
     8
1070
   288
1070
     1
1070
    78
1070
     8
1070
    90
1070
     1
1002
}
  0
DIMENSION
  5
362
330
1F
100
AcDbEntity
  8
0
  6
Continuous
370
    13
100
AcDbDimension
  2
*D33
 10
985.8540689569504
 20
1476.8317893455
 30
0.0
 11
77.68624399734972
 21
1476.8317893455
 31
0.0
 70
   160
 71
     8
 42
-1.0
  3
dc_Rotated
100
AcDbAlignedDimension
 13
-814.1459310431501
 23
1188.68920252
 33
0.0
 14
985.8540689569504
 24
1188.68920252
 34
0.0
100
AcDbRotatedDimension
1001
ACAD
1000
DSTYLE
1002
{
1070
   274
1070
     4
1070
    41
1040
15.00000941285121
1070
    79
1070
     2
1070
   343
1005
186
1070
   344
1005
186
1070
   176
1070
     7
1070
   177
1070
     7
1070
   178
1070
     7
1070
   271
1070
     1
1070
    44
1040
0.0
1070
    42
1040
5.0
1070
   147
1040
13.125
1070
   173
1070
     1
1070
    77
1070
     3
1070
    73
1070
     0
1070
   172
1070
     1
1070
    74
1070
     0
1070
   283
1070
     0
1070
   140
1040
52.5
1070
   284
1070
     8
1070
   288
1070
     1
1070
    78
1070
     8
1070
    90
1070
     1
1002
}
  0
DIMENSION
  5
363
330
1F
100
AcDbEntity
  8
0
  6
Continuous
370
    13
100
AcDbDimension
  2
*D34
 10
1135.85406895695
 20
1193.62670252
 30
0.0
 11
1135.85406895695
 21
1113.9083518204
 31
0.0
 70
   160
 71
     8
 42
-1.0
  3
dc_Rotated
100
AcDbAlignedDimension
 13
864.9665689568496
 23
1038.62670252
 33
0.0
 14
980.9165689569504
 24
1193.62670252
 34
0.0
 50
90.0
100
AcDbRotatedDimension
1001
ACAD
1000
DSTYLE
1002
{
1070
   274
1070
     4
1070
    41
1040
15.00000941285121
1070
    79
1070
     2
1070
   343
1005
186
1070
   344
1005
186
1070
   176
1070
     7
1070
   177
1070
     7
1070
   178
1070
     7
1070
   271
1070
     1
1070
    44
1040
0.0
1070
    42
1040
5.0
1070
   147
1040
13.125
1070
   173
1070
     1
1070
    77
1070
     3
1070
    73
1070
     0
1070
   172
1070
     1
1070
    74
1070
     0
1070
   283
1070
     0
1070
   140
1040
52.5
1070
   284
1070
     8
1070
   288
1070
     1
1070
    78
1070
     8
1070
    90
1070
     1
1002
}
  0
DIMENSION
  5
364
330
1F
100
AcDbEntity
  8
0
  6
Continuous
370
    13
100
AcDbDimension
  2
*D35
 10
1135.85406895695
 20
698.62670252
 30
0.0
 11
1135.85406895695
 21
614.2044095041001
 31
0.0
 70
   160
 71
     8
 42
-1.0
  3
dc_Rotated
100
AcDbAlignedDimension
 13
980.9165689569504
 23
543.62670252
 33
0.0
 14
864.9665689568496
 24
698.62670252
 34
0.0
 50
90.0
100
AcDbRotatedDimension
1001
ACAD
1000
DSTYLE
1002
{
1070
   274
1070
     4
1070
    41
1040
15.00000941285121
1070
    79
1070
     2
1070
   343
1005
186
1070
   344
1005
186
1070
   176
1070
     7
1070
   177
1070
     7
1070
   178
1070
     7
1070
   271
1070
     1
1070
    44
1040
0.0
1070
    42
1040
5.0
1070
   147
1040
13.125
1070
   173
1070
     1
1070
    77
1070
     3
1070
    73
1070
     0
1070
   172
1070
     1
1070
    74
1070
     0
1070
   283
1070
     0
1070
   140
1040
52.5
1070
   284
1070
     8
1070
   288
1070
     1
1070
    78
1070
     8
1070
    90
1070
     1
1002
}
  0
DIMENSION
  5
365
330
1F
100
AcDbEntity
  8
0
  6
Continuous
370
    13
100
AcDbDimension
  2
*D36
 10
1264.36725150265
 20
1193.62670252
 30
0.0
 11
1264.36725150265
 21
871.6702308311001
 31
0.0
 70
   160
 71
     8
 42
-1.0
  3
dc_Rotated
100
AcDbAlignedDimension
 13
980.9165689569504
 23
543.62670252
 33
0.0
 14
980.9165689569504
 24
1193.62670252
 34
0.0
 50
90.0
100
AcDbRotatedDimension
1001
ACAD
1000
DSTYLE
1002
{
1070
   274
1070
     4
1070
    41
1040
15.00000941285121
1070
    79
1070
     2
1070
   343
1005
186
1070
   344
1005
186
1070
   176
1070
     7
1070
   177
1070
     7
1070
   178
1070
     7
1070
   271
1070
     1
1070
    44
1040
0.0
1070
    42
1040
5.0
1070
   147
1040
13.125
1070
   173
1070
     1
1070
    77
1070
     3
1070
    73
1070
     0
1070
   172
1070
     1
1070
    74
1070
     0
1070
   283
1070
     0
1070
   140
1040
52.5
1070
   284
1070
     8
1070
   288
1070
     1
1070
    78
1070
     8
1070
    90
1070
     1
1002
}
  0
DIMENSION
  5
366
330
1F
100
AcDbEntity
  8
0
  6
Continuous
370
    13
100
AcDbDimension
  2
*D37
 10
45.60866486606912
 20
606.7369754734658
 30
0.0
 11
-357.2421498361502
 21
783.1755649342998
 31
0.0
 70
   160
 71
     8
 42
-1.0
  3
dc_Rotated
100
AcDbAlignedDimension
 13
-688.4650850070709
 23
1043.14944010157
 33
0.0
 14
87.83491499292926
 24
703.1494401015701
 34
0.0
 50
156.3477826201
100
AcDbRotatedDimension
1001
ACAD
1000
DSTYLE
1002
{
1070
   274
1070
     4
1070
    41
1040
15.00000941285121
1070
    79
1070
     2
1070
   343
1005
186
1070
   344
1005
186
1070
   176
1070
     7
1070
   177
1070
     7
1070
   178
1070
     7
1070
   271
1070
     1
1070
    44
1040
0.0
1070
    42
1040
5.0
1070
   147
1040
13.12500000000006
1070
   173
1070
     1
1070
    77
1070
     3
1070
    73
1070
     0
1070
   172
1070
     1
1070
    74
1070
     0
1070
   283
1070
     0
1070
   140
1040
52.5
1070
   284
1070
     8
1070
   288
1070
     1
1070
    78
1070
     8
1070
    90
1070
     1
1002
}
  0
DIMENSION
  5
367
330
1F
100
AcDbEntity
  8
0
  6
Continuous
370
    13
100
AcDbDimension
  2
*D38
 10
857.6074355869858
 20
1036.001702519992
 30
0.0
 11
689.1096732764598
 21
938.7194740917502
 31
0.0
 70
   163
  1
6-φ10.5
 71
     8
 42
-1.0
  3
dc_Diam01
100
AcDbDiametricDimension
 15
866.7007023267134
 25
1041.251702520008
 35
0.0
 40
0.0
1001
ACAD
1000
DSTYLE
1002
{
1070
   274
1070
     4
1070
    41
1040
15.00000941285121
1070
   289
1070
     1
1070
    79
1070
     2
1070
   343
1005
186
1070
   344
1005
186
1070
   176
1070
     7
1070
   177
1070
     7
1070
   178
1070
     7
1070
   271
1070
     1
1070
    44
1040
5.0
1070
    42
1040
5.0
1070
   147
1040
13.12499999999969
1070
   173
1070
     1
1070
    77
1070
     3
1070
    73
1070
     0
1070
   172
1070
     1
1070
    74
1070
     0
1070
   283
1070
     0
1070
   140
1040
52.5
1070
   284
1070
     8
1070
   288
1070
     1
1070
    78
1070
     8
1070
    90
1070
     1
1002
}
  0
INSERT
  5
368
330
1F
100
AcDbEntity
  8
0
  6
Continuous
100
AcDbBlockReference
  2
DC_GROUP_PT3-SN01B-01-00_17
 10
0.0
 20
0.0
 30
0.0
  0
INSERT
  5
369
330
1F
100
AcDbEntity
  8
0
  6
Continuous
100
AcDbBlockReference
  2
DC_GROUP_PT3-SN01B-01-00_18
 10
0.0
 20
0.0
 30
0.0
  0
INSERT
  5
36A
330
1F
100
AcDbEntity
  8
0
  6
Continuous
100
AcDbBlockReference
  2
DC_GROUP_PT3-SN01B-01-00_19
 10
0.0
 20
0.0
 30
0.0
  0
INSERT
  5
36B
330
1F
100
AcDbEntity
  8
0
  6
Continuous
100
AcDbBlockReference
  2
DC_GROUP_PT3-SN01B-01-00_20
 10
0.0
 20
0.0
 30
0.0
  0
INSERT
  5
36C
330
1F
100
AcDbEntity
  8
0
  6
Continuous
100
AcDbBlockReference
  2
DC_GROUP_PT3-SN01B-01-00_21
 10
0.0
 20
0.0
 30
0.0
  0
INSERT
  5
36D
330
1F
100
AcDbEntity
  8
0
  6
Continuous
100
AcDbBlockReference
  2
DC_GROUP_PT3-SN01B-01-00_22
 10
0.0
 20
0.0
 30
0.0
  0
DIMENSION
  5
36E
330
1F
100
AcDbEntity
  8
0
  6
Continuous
370
    13
100
AcDbDimension
  2
*D45
 10
-1514.61447842925
 20
-269.5604002386001
 30
0.0
 11
-1930.48653498955
 21
-269.5604002386001
 31
0.0
 70
   160
  1
<>×(N-1)
 71
     8
 42
-1.0
  3
dc_Rotated
100
AcDbAlignedDimension
 13
-2314.61447842925
 23
-585.6765733706
 33
0.0
 14
-1514.61447842925
 24
-585.6765733706
 34
0.0
100
AcDbRotatedDimension
1001
ACAD
1000
DSTYLE
1002
{
1070
   274
1070
     4
1070
    41
1040
15.00000941285121
1070
    79
1070
     2
1070
   343
1005
186
1070
   344
1005
186
1070
   176
1070
     7
1070
   177
1070
     7
1070
   178
1070
     7
1070
   271
1070
     1
1070
    44
1040
0.0
1070
    42
1040
5.0
1070
   147
1040
13.125
1070
   173
1070
     1
1070
    77
1070
     3
1070
    73
1070
     0
1070
   174
1070
     1
1070
   172
1070
     1
1070
    74
1070
     0
1070
   283
1070
     0
1070
   140
1040
52.5
1070
   284
1070
     8
1070
   288
1070
     1
1070
    78
1070
     8
1070
    90
1070
     1
1002
}
  0
DIMENSION
  5
36F
330
1F
100
AcDbEntity
  8
0
  6
Continuous
370
    13
100
AcDbDimension
  2
*D46
 10
-2314.61447842925
 20
-269.5604002386001
 30
0.0
 11
-2704.62858483885
 21
-269.5604002386001
 31
0.0
 70
   160
 71
     8
 42
-1.0
  3
dc_Rotated
100
AcDbAlignedDimension
 13
-3090.91447842925
 23
-585.6765733706
 33
0.0
 14
-2314.61447842925
 24
-585.6765733706
 34
0.0
100
AcDbRotatedDimension
1001
ACAD
1000
DSTYLE
1002
{
1070
   274
1070
     4
1070
    41
1040
15.00000941285121
1070
    79
1070
     2
1070
   343
1005
186
1070
   344
1005
186
1070
   176
1070
     7
1070
   177
1070
     7
1070
   178
1070
     7
1070
   271
1070
     1
1070
    44
1040
0.0
1070
    42
1040
5.0
1070
   147
1040
13.125
1070
   173
1070
     1
1070
    77
1070
     3
1070
    73
1070
     0
1070
   172
1070
     1
1070
    74
1070
     0
1070
   283
1070
     0
1070
   140
1040
52.5
1070
   284
1070
     8
1070
   288
1070
     1
1070
    78
1070
     8
1070
    90
1070
     1
1002
}
  0
DIMENSION
  5
370
330
1F
100
AcDbEntity
  8
0
  6
Continuous
370
    13
100
AcDbDimension
  2
*D47
 10
-738.3144784292499
 20
-269.5604002386001
 30
0.0
 11
-1114.64006879865
 21
-269.5604002386001
 31
0.0
 70
   160
 71
     8
 42
-1.0
  3
dc_Rotated
100
AcDbAlignedDimension
 13
-1514.61447842925
 23
-585.6765733706
 33
0.0
 14
-738.3144784292499
 24
-585.6765733706
 34
0.0
100
AcDbRotatedDimension
1001
ACAD
1000
DSTYLE
1002
{
1070
   274
1070
     4
1070
    41
1040
15.00000941285121
1070
    79
1070
     2
1070
   343
1005
186
1070
   344
1005
186
1070
   176
1070
     7
1070
   177
1070
     7
1070
   178
1070
     7
1070
   271
1070
     1
1070
    44
1040
0.0
1070
    42
1040
5.0
1070
   147
1040
13.125
1070
   173
1070
     1
1070
    77
1070
     3
1070
    73
1070
     0
1070
   172
1070
     1
1070
    74
1070
     0
1070
   283
1070
     0
1070
   140
1040
52.5
1070
   284
1070
     8
1070
   288
1070
     1
1070
    78
1070
     8
1070
    90
1070
     1
1002
}
  0
DIMENSION
  5
371
330
1F
100
AcDbEntity
  8
0
  6
Continuous
370
    13
100
AcDbDimension
  2
*D48
 10
-3214.61447842925
 20
-269.5604002386001
 30
0.0
 11
-3463.05197842925
 21
-269.5604002386001
 31
0.0
 70
   160
 71
     8
 42
-1.0
  3
dc_Rotated
100
AcDbAlignedDimension
 13
-3090.91447842925
 23
-585.6765733706
 33
0.0
 14
-3214.61447842925
 24
-438.4265733706
 34
0.0
100
AcDbRotatedDimension
1001
ACAD
1000
DSTYLE
1002
{
1070
   274
1070
     4
1070
    41
1040
15.00000941285121
1070
    79
1070
     2
1070
   343
1005
186
1070
   344
1005
186
1070
   176
1070
     7
1070
   177
1070
     7
1070
   178
1070
     7
1070
   271
1070
     1
1070
    44
1040
0.0
1070
    42
1040
5.0
1070
   147
1040
13.125
1070
   173
1070
     1
1070
    77
1070
     3
1070
    73
1070
     0
1070
   172
1070
     1
1070
    74
1070
     0
1070
   283
1070
     0
1070
   140
1040
52.5
1070
   284
1070
     8
1070
   288
1070
     1
1070
    78
1070
     8
1070
    90
1070
     1
1002
}
  0
DIMENSION
  5
372
330
1F
100
AcDbEntity
  8
0
  6
Continuous
370
    13
100
AcDbDimension
  2
*D49
 10
-738.3144784292499
 20
-269.5604002386001
 30
0.0
 11
-400.1432132719501
 21
-269.5604002386001
 31
0.0
 70
   160
 71
     8
 42
-1.0
  3
dc_Rotated
100
AcDbAlignedDimension
 13
-614.6144784292501
 23
-438.4265733706
 33
0.0
 14
-738.3144784292499
 24
-585.6765733706
 34
0.0
100
AcDbRotatedDimension
1001
ACAD
1000
DSTYLE
1002
{
1070
   274
1070
     4
1070
    41
1040
15.00000941285121
1070
    79
1070
     2
1070
   343
1005
186
1070
   344
1005
186
1070
   176
1070
     7
1070
   177
1070
     7
1070
   178
1070
     7
1070
   271
1070
     1
1070
    44
1040
0.0
1070
    42
1040
5.0
1070
   147
1040
13.125
1070
   173
1070
     1
1070
    77
1070
     3
1070
    73
1070
     0
1070
   172
1070
     1
1070
    74
1070
     0
1070
   283
1070
     0
1070
   140
1040
52.5
1070
   284
1070
     8
1070
   288
1070
     1
1070
    78
1070
     8
1070
    90
1070
     1
1002
}
  0
DIMENSION
  5
373
330
1F
100
AcDbEntity
  8
0
  6
Continuous
370
    13
100
AcDbDimension
  2
*D50
 10
-614.6144784292501
 20
-140.5851309476998
 30
0.0
 11
-1930.48653498955
 21
-140.5851309476998
 31
0.0
 70
   160
  1
1000+800×N
 71
     8
 42
-1.0
  3
dc_Rotated
100
AcDbAlignedDimension
 13
-3214.61447842925
 23
-438.4265733706
 33
0.0
 14
-614.6144784292501
 24
-438.4265733706
 34
0.0
100
AcDbRotatedDimension
1001
ACAD
1000
DSTYLE
1002
{
1070
   274
1070
     4
1070
    41
1040
15.00000941285121
1070
    79
1070
     2
1070
   343
1005
186
1070
   344
1005
186
1070
   176
1070
     7
1070
   177
1070
     7
1070
   178
1070
     7
1070
   271
1070
     1
1070
    44
1040
0.0
1070
    42
1040
5.0
1070
   147
1040
13.125
1070
   173
1070
     1
1070
    77
1070
     3
1070
    73
1070
     0
1070
   172
1070
     1
1070
    74
1070
     0
1070
   283
1070
     0
1070
   140
1040
52.5
1070
   284
1070
     8
1070
   288
1070
     1
1070
    78
1070
     8
1070
    90
1070
     1
1002
}
  0
DIMENSION
  5
374
330
1F
100
AcDbEntity
  8
0
  6
Continuous
370
    13
100
AcDbDimension
  2
*D51
 10
-464.6144784292501
 20
-588.4890733706
 30
0.0
 11
-464.6144784292501
 21
-766.4708588086
 31
0.0
 70
   160
 71
     8
 42
-1.0
  3
dc_Rotated
100
AcDbAlignedDimension
 13
-735.5019784292499
 23
-928.4890733706
 33
0.0
 14
-735.5019784292499
 24
-588.4890733706
 34
0.0
 50
90.0
100
AcDbRotatedDimension
1001
ACAD
1000
DSTYLE
1002
{
1070
   274
1070
     4
1070
    41
1040
15.00000941285121
1070
    79
1070
     2
1070
   343
1005
186
1070
   344
1005
186
1070
   176
1070
     7
1070
   177
1070
     7
1070
   178
1070
     7
1070
   271
1070
     1
1070
    44
1040
0.0
1070
    42
1040
5.0
1070
   147
1040
13.125
1070
   173
1070
     1
1070
    77
1070
     3
1070
    73
1070
     0
1070
   172
1070
     1
1070
    74
1070
     0
1070
   283
1070
     0
1070
   140
1040
52.5
1070
   284
1070
     8
1070
   288
1070
     1
1070
    78
1070
     8
1070
    90
1070
     1
1002
}
  0
DIMENSION
  5
375
330
1F
100
AcDbEntity
  8
0
  6
Continuous
370
    13
100
AcDbDimension
  2
*D52
 10
-464.6144784292501
 20
-433.4890733706
 30
0.0
 11
-464.6144784292501
 21
-514.3634825479
 31
0.0
 70
   160
 71
     8
 42
-1.0
  3
dc_Rotated
100
AcDbAlignedDimension
 13
-735.5019784292499
 23
-588.4890733706
 33
0.0
 14
-619.5519784292501
 24
-433.4890733706
 34
0.0
 50
90.0
100
AcDbRotatedDimension
1001
ACAD
1000
DSTYLE
1002
{
1070
   274
1070
     4
1070
    41
1040
15.00000941285121
1070
    79
1070
     2
1070
   343
1005
186
1070
   344
1005
186
1070
   176
1070
     7
1070
   177
1070
     7
1070
   178
1070
     7
1070
   271
1070
     1
1070
    44
1040
0.0
1070
    42
1040
5.0
1070
   147
1040
13.125
1070
   173
1070
     1
1070
    77
1070
     3
1070
    73
1070
     0
1070
   172
1070
     1
1070
    74
1070
     0
1070
   283
1070
     0
1070
   140
1040
52.5
1070
   284
1070
     8
1070
   288
1070
     1
1070
    78
1070
     8
1070
    90
1070
     1
1002
}
  0
DIMENSION
  5
376
330
1F
100
AcDbEntity
  8
0
  6
Continuous
370
    13
100
AcDbDimension
  2
*D53
 10
-464.6144784292501
 20
-928.4890733706
 30
0.0
 11
-464.6144784292501
 21
-1005.2732474041
 31
0.0
 70
   160
 71
     8
 42
-1.0
  3
dc_Rotated
100
AcDbAlignedDimension
 13
-619.5519784292501
 23
-1083.4890733706
 33
0.0
 14
-735.5019784292499
 24
-928.4890733706
 34
0.0
 50
90.0
100
AcDbRotatedDimension
1001
ACAD
1000
DSTYLE
1002
{
1070
   274
1070
     4
1070
    41
1040
15.00000941285121
1070
    79
1070
     2
1070
   343
1005
186
1070
   344
1005
186
1070
   176
1070
     7
1070
   177
1070
     7
1070
   178
1070
     7
1070
   271
1070
     1
1070
    44
1040
0.0
1070
    42
1040
5.0
1070
   147
1040
13.125
1070
   173
1070
     1
1070
    77
1070
     3
1070
    73
1070
     0
1070
   172
1070
     1
1070
    74
1070
     0
1070
   283
1070
     0
1070
   140
1040
52.5
1070
   284
1070
     8
1070
   288
1070
     1
1070
    78
1070
     8
1070
    90
1070
     1
1002
}
  0
DIMENSION
  5
377
330
1F
100
AcDbEntity
  8
0
  6
Continuous
370
    13
100
AcDbDimension
  2
*D54
 10
-337.0339743147501
 20
-433.4890733706
 30
0.0
 11
-337.0339743147501
 21
-766.4708588086
 31
0.0
 70
   160
 71
     8
 42
-1.0
  3
dc_Rotated
100
AcDbAlignedDimension
 13
-619.5519784292501
 23
-1083.4890733706
 33
0.0
 14
-619.5519784292501
 24
-433.4890733706
 34
0.0
 50
90.0
100
AcDbRotatedDimension
1001
ACAD
1000
DSTYLE
1002
{
1070
   274
1070
     4
1070
    41
1040
15.00000941285121
1070
    79
1070
     2
1070
   343
1005
186
1070
   344
1005
186
1070
   176
1070
     7
1070
   177
1070
     7
1070
   178
1070
     7
1070
   271
1070
     1
1070
    44
1040
0.0
1070
    42
1040
5.0
1070
   147
1040
13.125
1070
   173
1070
     1
1070
    77
1070
     3
1070
    73
1070
     0
1070
   172
1070
     1
1070
    74
1070
     0
1070
   283
1070
     0
1070
   140
1040
52.5
1070
   284
1070
     8
1070
   288
1070
     1
1070
    78
1070
     8
1070
    90
1070
     1
1002
}
  0
DIMENSION
  5
378
330
1F
100
AcDbEntity
  8
0
  6
Continuous
370
    13
100
AcDbDimension
  2
*D55
 10
-2363.86287981233
 20
-1040.934761587574
 30
0.0
 11
-2801.807250690644
 21
-849.1260715215021
 31
0.0
 70
   160
 71
     8
 42
-1.0
  3
dc_Rotated
100
AcDbAlignedDimension
 13
-3088.933632393271
 23
-583.9663357890298
 33
0.0
 14
-2312.633632393271
 24
-923.9663357890298
 34
0.0
 50
156.3477826201
100
AcDbRotatedDimension
1001
ACAD
1000
DSTYLE
1002
{
1070
   274
1070
     4
1070
    41
1040
15.00000941285121
1070
    79
1070
     2
1070
   343
1005
186
1070
   344
1005
186
1070
   176
1070
     7
1070
   177
1070
     7
1070
   178
1070
     7
1070
   271
1070
     1
1070
    44
1040
0.0
1070
    42
1040
5.0
1070
   147
1040
13.125
1070
   173
1070
     1
1070
    77
1070
     3
1070
    73
1070
     0
1070
   172
1070
     1
1070
    74
1070
     0
1070
   283
1070
     0
1070
   140
1040
52.5
1070
   284
1070
     8
1070
   288
1070
     1
1070
    78
1070
     8
1070
    90
1070
     1
1002
}
  0
DIMENSION
  5
379
330
1F
100
AcDbEntity
  8
0
  6
Continuous
370
    13
100
AcDbDimension
  2
*D56
 10
-1569.559958350508
 20
-1057.772555538441
 30
0.0
 11
-1987.961862288352
 21
-879.9517463650996
 31
0.0
 70
   160
 71
     8
 42
-1.0
  3
dc_Rotated
100
AcDbAlignedDimension
 13
-2312.68322151755
 23
-583.9449394607103
 33
0.0
 14
-1512.68322151755
 24
-923.9449394607103
 34
0.0
 50
156.9745079915
100
AcDbRotatedDimension
1001
ACAD
1000
DSTYLE
1002
{
1070
   274
1070
     4
1070
    41
1040
15.00000941285121
1070
    79
1070
     2
1070
   343
1005
186
1070
   344
1005
186
1070
   176
1070
     7
1070
   177
1070
     7
1070
   178
1070
     7
1070
   271
1070
     1
1070
    44
1040
0.0
1070
    42
1040
5.0
1070
   147
1040
13.12500000000027
1070
   173
1070
     1
1070
    77
1070
     3
1070
    73
1070
     0
1070
   172
1070
     1
1070
    74
1070
     0
1070
   283
1070
     0
1070
   140
1040
52.5
1070
   284
1070
     8
1070
   288
1070
     1
1070
    78
1070
     8
1070
    90
1070
     1
1002
}
  0
DIMENSION
  5
37A
330
1F
100
AcDbEntity
  8
0
  6
Continuous
370
    13
100
AcDbDimension
  2
*D57
 10
-742.8611117991138
 20
-591.114073370608
 30
0.0
 11
-974.4243914274093
 21
-724.8071951990028
 31
0.0
 70
   163
  1
4+2×N-φ10.5
 71
     8
 42
-1.0
  3
dc_Diam01
100
AcDbDiametricDimension
 15
-733.767845059386
 25
-585.8640733705919
 35
0.0
 40
0.0
1001
ACAD
1000
DSTYLE
1002
{
1070
   274
1070
     4
1070
    41
1040
15.00000941285121
1070
   289
1070
     1
1070
    79
1070
     2
1070
   343
1005
186
1070
   344
1005
186
1070
   176
1070
     7
1070
   177
1070
     7
1070
   178
1070
     7
1070
   271
1070
     1
1070
    44
1040
5.0
1070
    42
1040
5.0
1070
   147
1040
13.12500000000019
1070
   173
1070
     1
1070
    77
1070
     3
1070
    73
1070
     0
1070
   172
1070
     1
1070
    74
1070
     0
1070
   283
1070
     0
1070
   140
1040
52.5
1070
   284
1070
     8
1070
   288
1070
     1
1070
    78
1070
     8
1070
    90
1070
     1
1002
}
  0
INSERT
  5
37B
330
1F
100
AcDbEntity
  8
0
  6
Continuous
100
AcDbBlockReference
  2
DC_GROUP_PT3-SN01B-01-00_23
 10
0.0
 20
0.0
 30
0.0
  0
INSERT
  5
37C
330
1F
100
AcDbEntity
  8
0
  6
Continuous
100
AcDbBlockReference
  2
DC_GROUP_PT3-SN01B-01-00_24
 10
0.0
 20
0.0
 30
0.0
  0
INSERT
  5
37D
330
1F
100
AcDbEntity
  8
0
  6
Continuous
100
AcDbBlockReference
  2
DC_GROUP_PT3-SN01B-01-00_25
 10
0.0
 20
0.0
 30
0.0
  0
INSERT
  5
37E
330
1F
100
AcDbEntity
  8
0
  6
Continuous
100
AcDbBlockReference
  2
DC_GROUP_PT3-SN01B-01-00_26
 10
0.0
 20
0.0
 30
0.0
  0
INSERT
  5
37F
330
1F
100
AcDbEntity
  8
0
  6
Continuous
100
AcDbBlockReference
  2
DC_GROUP_PT3-SN01B-01-00_27
 10
0.0
 20
0.0
 30
0.0
  0
INSERT
  5
380
330
1F
100
AcDbEntity
  8
0
  6
Continuous
100
AcDbBlockReference
  2
DC_GROUP_PT3-SN01B-01-00_28
 10
0.0
 20
0.0
 30
0.0
  0
INSERT
  5
381
330
1F
100
AcDbEntity
  8
0
  6
Continuous
100
AcDbBlockReference
  2
DC_GROUP_PT3-SN01B-01-00_29
 10
0.0
 20
0.0
 30
0.0
  0
INSERT
  5
382
330
1F
100
AcDbEntity
  8
0
  6
Continuous
100
AcDbBlockReference
  2
DC_GROUP_PT3-SN01B-01-00_30
 10
0.0
 20
0.0
 30
0.0
  0
DIMENSION
  5
383
330
1F
100
AcDbEntity
  8
0
  6
Continuous
370
    13
100
AcDbDimension
  2
*D66
 10
1055.02778503265
 20
-592.8001888179001
 30
0.0
 11
1055.02778503265
 21
-648.1446202950001
 31
0.0
 70
   160
  1
60
 71
     8
 42
-1.0
  3
dc_Rotated
100
AcDbAlignedDimension
 13
1370.18796197285
 23
-712.8001888179001
 33
0.0
 14
844.3228875256505
 24
-592.8001888179001
 34
0.0
 50
90.0
100
AcDbRotatedDimension
1001
ACAD
1000
DSTYLE
1002
{
1070
   274
1070
     4
1070
    41
1040
15.00000941285121
1070
    79
1070
     2
1070
   343
1005
186
1070
   344
1005
186
1070
   176
1070
     7
1070
   177
1070
     7
1070
   178
1070
     7
1070
   271
1070
     1
1070
    44
1040
0.0
1070
    42
1040
5.0
1070
   147
1040
13.125
1070
   173
1070
     1
1070
    77
1070
     3
1070
    73
1070
     0
1070
   172
1070
     1
1070
    74
1070
     0
1070
   283
1070
     0
1070
   140
1040
52.5
1070
   284
1070
     8
1070
   288
1070
     1
1070
    78
1070
     8
1070
    90
1070
     1
1002
}
  0
DIMENSION
  5
384
330
1F
100
AcDbEntity
  8
0
  6
Continuous
370
    13
100
AcDbDimension
  2
*D67
 10
1515.25042859425
 20
-492.8001888179001
 30
0.0
 11
1515.25042859425
 21
64.99995263239998
 31
0.0
 70
   160
  1
40(埋め込み深さ)
 71
     8
 42
-1.0
  3
dc_Rotated
100
AcDbAlignedDimension
 13
1360.31296197285
 23
-412.8001888179001
 33
0.0
 14
1123.41296197285
 24
-492.8001888179001
 34
0.0
 50
90.0
100
AcDbRotatedDimension
1001
ACAD
1000
DSTYLE
1002
{
1070
   274
1070
     4
1070
    41
1040
15.00000941285121
1070
    79
1070
     2
1070
   343
1005
186
1070
   344
1005
186
1070
   176
1070
     7
1070
   177
1070
     7
1070
   178
1070
     7
1070
   271
1070
     1
1070
    44
1040
0.0
1070
    42
1040
5.0
1070
   147
1040
13.125
1070
   173
1070
     1
1070
    77
1070
     3
1070
    73
1070
     0
1070
   172
1070
     1
1070
    74
1070
     0
1070
   283
1070
     0
1070
   140
1040
52.5
1070
   284
1070
     8
1070
   288
1070
     1
1070
    78
1070
     8
1070
    90
1070
     1
1002
}
  0
DIMENSION
  5
385
330
1F
100
AcDbEntity
  8
0
  6
Continuous
370
    13
100
AcDbDimension
  2
*D68
 10
1679.33425932825
 20
-412.8001888179001
 30
0.0
 11
1679.33425932825
 21
-583.7832730431
 31
0.0
 70
   160
  1
150
 71
     8
 42
-1.0
  3
dc_Rotated
100
AcDbAlignedDimension
 13
1360.31296197285
 23
-712.8001888179001
 33
0.0
 14
1360.31296197285
 24
-412.8001888179001
 34
0.0
 50
90.0
100
AcDbRotatedDimension
1001
ACAD
1000
DSTYLE
1002
{
1070
   274
1070
     4
1070
    41
1040
15.00000941285121
1070
    79
1070
     2
1070
   343
1005
186
1070
   344
1005
186
1070
   176
1070
     7
1070
   177
1070
     7
1070
   178
1070
     7
1070
   271
1070
     1
1070
    44
1040
0.0
1070
    42
1040
5.0
1070
   147
1040
13.125
1070
   173
1070
     1
1070
    77
1070
     3
1070
    73
1070
     0
1070
   172
1070
     1
1070
    74
1070
     0
1070
   283
1070
     0
1070
   140
1040
52.5
1070
   284
1070
     8
1070
   288
1070
     1
1070
    78
1070
     8
1070
    90
1070
     1
1002
}
  0
DIMENSION
  5
386
330
1F
100
AcDbEntity
  8
0
  6
Continuous
370
    13
100
AcDbDimension
  2
*D69
 10
1107.35046197285
 20
-203.6523030701001
 30
0.0
 11
864.6179835472499
 21
-203.6523030701001
 31
0.0
 70
   160
  1
φ10.5
 71
     8
 42
-1.0
  3
dc_Rotated
100
AcDbAlignedDimension
 13
1128.35046197285
 23
-417.7376888179001
 33
0.0
 14
1107.35046197285
 24
-417.7376888179001
 34
0.0
100
AcDbRotatedDimension
1001
ACAD
1000
DSTYLE
1002
{
1070
   274
1070
     4
1070
    41
1040
15.00000941285121
1070
    79
1070
     2
1070
   343
1005
186
1070
   344
1005
186
1070
   176
1070
     7
1070
   177
1070
     7
1070
   178
1070
     7
1070
   271
1070
     1
1070
    44
1040
0.0
1070
    42
1040
5.0
1070
   147
1040
13.125
1070
   173
1070
     1
1070
    77
1070
     3
1070
    73
1070
     0
1070
   172
1070
     1
1070
    74
1070
     0
1070
   283
1070
     0
1070
   140
1040
52.5
1070
   284
1070
     8
1070
   288
1070
     1
1070
    78
1070
     8
1070
    90
1070
     1
1002
}
  0
TEXT
  5
387
330
1F
100
AcDbEntity
  8
0
 62
     7
100
AcDbText
 10
35.03560679414977
 20
-2026.7890647174
 30
0.0
 40
75.0
  1
-
 41
0.75
  7
dcStyle0
 72
     5
 11
91.28560679414977
 21
-2026.7890647174
 31
0.0
100
AcDbText
  0
TEXT
  5
388
330
1F
100
AcDbEntity
  8
0
 62
     7
100
AcDbText
 10
-41.02513332855006
 20
-1845.676711703
 30
0.0
 40
75.0
  1
-
 41
0.75
  7
dcStyle0
 72
     5
 11
15.22486667144994
 21
-1845.676711703
 31
0.0
100
AcDbText
  0
TEXT
  5
389
330
1F
100
AcDbEntity
  8
0
 62
     7
100
AcDbText
 10
586.5141308092502
 20
-1832.5371836692
 30
0.0
 40
60.0
  1
荒川
 41
0.625
  7
dcStyle0
 72
     5
 11
676.5141308092502
 21
-1832.5371836692
 31
0.0
100
AcDbText
  0
TEXT
  5
38A
330
1F
100
AcDbEntity
  8
0
 62
     7
100
AcDbText
 10
1156.38144882425
 20
-1832.122477055
 30
0.0
 40
60.0
  1
ｍｍ
 41
0.625
  7
dcStyle0
 72
     5
 11
1246.38144882425
 21
-1832.122477055
 31
0.0
100
AcDbText
  0
TEXT
  5
38B
330
1F
100
AcDbEntity
  8
0
 62
     7
100
AcDbText
 10
1456.27818815115
 20
-1832.3789131003
 30
0.0
 40
60.0
  1
2020/12/12
 41
0.75
  7
dcStyle0
 72
     5
 11
1906.27818815115
 21
-1832.3789131003
 31
0.0
100
AcDbText
  0
TEXT
  5
38C
330
1F
100
AcDbEntity
  8
0
 62
     7
100
AcDbText
 10
-29.22144295384987
 20
-1655.9246327833
 30
0.0
 40
79.375
  1
30-PT1・30-PT2基礎伏図
 41
0.7083333333333334
  7
dcStyle0
 72
     5
 11
982.8098070461501
 21
-1655.9246327833
 31
0.0
100
AcDbText
  0
TEXT
  5
38D
330
1F
100
AcDbEntity
  8
0
 62
     7
100
AcDbText
 10
1457.73672532995
 20
-1635.8901247163
 30
0.0
 40
55.5625
  1
PT3-SN01B-01-00
 41
0.75
  7
dcStyle0
 72
     5
 11
2082.81485032995
 21
-1635.8901247163
 31
0.0
100
AcDbText
  0
TEXT
  5
38E
330
1F
100
AcDbEntity
  8
0
 62
     7
100
AcDbText
 10
878.2026150009501
 20
-1839.5249281822
 30
0.0
 40
60.0
  1
山田
 41
0.625
  7
dcStyle0
 72
     5
 11
968.2026150009501
 21
-1839.5249281822
 31
0.0
100
AcDbText
  0
TEXT
  5
38F
330
1F
100
AcDbEntity
  8
0
 62
     7
100
AcDbText
 10
2115.75558304885
 20
-2070.4848881391
 30
0.0
 40
55.5625
  1
E
 41
0.75
  7
dcStyle0
 72
     5
 11
2157.42745804885
 21
-2070.4848881391
 31
0.0
100
AcDbText
  0
TEXT
  5
390
330
1F
100
AcDbEntity
  8
0
 62
     7
100
AcDbText
 10
-2886.95678191465
 20
1670.9761560561
 30
0.0
 40
87.3125
  1
30-PT1 のみ
 41
0.7180851063829787
  7
dcStyle0
 72
     5
 11
-2297.59740691465
 21
1670.9761560561
 31
0.0
100
AcDbText
  0
TEXT
  5
391
330
1F
100
AcDbEntity
  8
0
 62
     7
100
AcDbText
 10
-358.3912371383499
 20
1674.8789557837
 30
0.0
 40
87.3125
  1
30-PT1 + 30-PT2
 41
0.75
  7
dcStyle0
 72
     5
 11
623.8743878616501
 21
1674.8789557837
 31
0.0
100
AcDbText
  0
TEXT
  5
392
330
1F
100
AcDbEntity
  8
0
 62
     7
100
AcDbText
 10
-2407.97932647365
 20
23.12399999929994
 30
0.0
 40
87.3125
  1
30-PT1 + 30-PT2×N台
 41
0.7336956521739131
  7
dcStyle0
 72
     5
 11
-1229.26057647365
 21
23.12399999929994
 31
0.0
100
AcDbText
  0
TEXT
  5
393
330
1F
100
AcDbEntity
  8
0
 62
     7
100
AcDbText
 10
410.0017794168502
 20
-317.2938814659999
 30
0.0
 40
52.5
  1
アンカーボルト M10×60
 41
0.6730769230769231
  7
dcStyle0
 72
     5
 11
961.2517794168502
 21
-317.2938814659999
 31
0.0
100
AcDbText
  0
TEXT
  5
394
330
1F
100
AcDbEntity
  8
0
 62
     7
100
AcDbText
 10
1290.52285068085
 20
-824.5647408382999
 30
0.0
 40
52.5
  1
鉄筋
 41
0.625
  7
dcStyle0
 72
     5
 11
1369.27285068085
 21
-824.5647408382999
 31
0.0
100
AcDbText
  0
LINE
  5
395
330
1F
100
AcDbEntity
  8
0
  6
DASHED
 62
     7
370
    18
100
AcDbLine
 10
1107.35046235435
 20
-492.8001885199001
 30
0.0
 11
1128.35049001085
 21
-492.8001885199001
 31
0.0
  0
LINE
  5
396
330
1F
100
AcDbEntity
  8
0
  6
DASHED
 62
     7
370
    18
100
AcDbLine
 10
1107.35046235435
 20
-412.8001828575
 30
0.0
 11
1107.35046235435
 21
-492.8001885199001
 31
0.0
  0
LINE
  5
397
330
1F
100
AcDbEntity
  8
0
  6
DASHED
 62
     7
370
    18
100
AcDbLine
 10
1128.35049001085
 20
-492.8001885199001
 30
0.0
 11
1128.35049001085
 21
-412.8001828575
 31
0.0
  0
ARC
  5
398
330
1F
100
AcDbEntity
  8
0
  6
Continuous
 62
     7
370
    18
100
AcDbCircle
 10
1302.19964119275
 20
-561.0004949255999
 30
0.0
 40
456.0235693927303
100
AcDbArc
 50
161.0354012194
 51
199.4434833037
  0
VIEWPORT
  5
74
330
1B
100
AcDbEntity
 67
     1
  8
0
100
AcDbViewport
 10
-837.2291827170493
 20
0.0
 30
0.0
 40
17722.4085945954
 41
12645.0
 68
     1
 69
     1
 12
-837.2291827170493
 22
0.0
 13
0.0
 23
0.0
 14
0.5
 24
0.5
 15
0.0
 25
0.0
 16
0.0
 26
0.0
 36
1.0
 17
0.0
 27
0.0
 37
0.0
 42
50.0
 43
0.0
 44
0.0
 45
12645.0
 50
0.0
 51
0.0
 72
   100
 90
   557152
  1

281
     0
 71
     1
 74
     0
110
0.0
120
0.0
130
0.0
111
1.0
121
0.0
131
0.0
112
0.0
122
1.0
132
0.0
 79
     0
146
0.0
  0
ENDSEC
  0
SECTION
  2
OBJECTS
  0
DICTIONARY
  5
C
330
0
100
AcDbDictionary
281
     1
  3
ACAD_GROUP
350
D
  3
ACAD_LAYOUT
350
1A
  3
ACAD_MATERIAL
350
3B
  3
ACAD_MLEADERSTYLE
350
39B
  3
ACAD_MLINESTYLE
350
17
  3
ACAD_PLOTSETTINGS
350
19
  3
ACAD_PLOTSTYLENAME
350
E
  3
ACAD_SCALELIST
350
146
  3
ACAD_VISUALSTYLE
350
2A
  3
AcDbVariableDictionary
350
399
  0
DICTIONARY
  5
D
102
{ACAD_REACTORS
330
C
102
}
330
C
100
AcDbDictionary
281
     1
  0
DICTIONARY
  5
1A
102
{ACAD_REACTORS
330
C
102
}
330
C
100
AcDbDictionary
281
     1
  3
Layout1
350
1E
  3
Layout2
350
26
  3
Model
350
22
  0
DICTIONARY
  5
3B
102
{ACAD_REACTORS
330
C
102
}
330
C
100
AcDbDictionary
281
     1
  3
ByBlock
350
3D
  3
ByLayer
350
3C
  3
Global
350
3E
  0
DICTIONARY
  5
39B
102
{ACAD_REACTORS
330
C
102
}
330
C
100
AcDbDictionary
281
     1
  0
DICTIONARY
  5
17
102
{ACAD_REACTORS
330
C
102
}
330
C
100
AcDbDictionary
281
     1
  3
Standard
350
18
  0
DICTIONARY
  5
19
102
{ACAD_REACTORS
330
C
102
}
330
C
100
AcDbDictionary
281
     1
  0
ACDBDICTIONARYWDFLT
  5
E
102
{ACAD_REACTORS
330
C
102
}
330
C
100
AcDbDictionary
281
     1
  3
Normal
350
F
100
AcDbDictionaryWithDefault
340
F
  0
DICTIONARY
  5
146
102
{ACAD_REACTORS
330
C
102
}
330
C
100
AcDbDictionary
281
     1
  3
A0
350
147
  3
A1
350
148
  3
A2
350
149
  3
A3
350
14A
  3
A4
350
14B
  3
A5
350
14C
  3
A6
350
14D
  3
A7
350
14E
  3
A8
350
14F
  3
A9
350
150
  3
B0
350
151
  3
B1
350
152
  3
B2
350
153
  3
B3
350
154
  3
B4
350
155
  3
B5
350
156
  3
B6
350
157
  3
B7
350
158
  3
B8
350
159
  3
B9
350
15A
  3
C0
350
15B
  3
C1
350
15C
  3
C2
350
15D
  3
C3
350
15E
  3
C4
350
15F
  3
C5
350
160
  3
C6
350
161
  3
C7
350
162
  3
C8
350
163
  3
C9
350
164
  3
D0
350
165
  3
D1
350
166
  3
D2
350
167
  0
DICTIONARY
  5
2A
102
{ACAD_REACTORS
330
C
102
}
330
C
100
AcDbDictionary
281
     1
  3
2dWireframe
350
2F
  3
3D Hidden
350
31
  3
3dWireframe
350
30
  3
Basic
350
32
  3
Brighten
350
36
  3
ColorChange
350
3A
  3
Conceptual
350
34
  3
Dim
350
35
  3
Facepattern
350
39
  3
Flat
350
2B
  3
FlatWithEdges
350
2C
  3
Gouraud
350
2D
  3
GouraudWithEdges
350
2E
  3
Linepattern
350
38
  3
Realistic
350
33
  3
Thicken
350
37
  0
DICTIONARY
  5
399
102
{ACAD_REACTORS
330
C
102
}
330
C
100
AcDbDictionary
281
     1
  3
CANNOSCALE
350
39C
  3
DIMASSOC
350
39D
  3
HIDETEXT
350
39E
  0
LAYOUT
  5
1E
102
{ACAD_REACTORS
330
1A
102
}
330
1A
100
AcDbPlotSettings
  1

  2
none_device
  4

  6

 40
0.0
 41
0.0
 42
0.0
 43
0.0
 44
0.0
 45
0.0
 46
0.0
 47
0.0
 48
0.0
 49
0.0
140
0.0
141
0.0
142
1.0
143
1.0
 70
   688
 72
     0
 73
     0
 74
     5
  7

 75
    16
147
1.0
148
0.0
149
0.0
100
AcDbLayout
  1
Layout1
 70
     0
 71
     1
 10
0.0
 20
0.0
 11
12.0
 21
9.0
 12
0.0
 22
0.0
 32
0.0
 14
1.000000000000000E+20
 24
1.000000000000000E+20
 34
1.000000000000000E+20
 15
-1.000000000000000E+20
 25
-1.000000000000000E+20
 35
-1.000000000000000E+20
146
0.0
 13
0.0
 23
0.0
 33
0.0
 16
1.0
 26
0.0
 36
0.0
 17
0.0
 27
1.0
 37
0.0
 76
     0
330
1B
331
74
  0
LAYOUT
  5
26
102
{ACAD_REACTORS
330
1A
102
}
330
1A
100
AcDbPlotSettings
  1

  2
none_device
  4

  6

 40
0.0
 41
0.0
 42
0.0
 43
0.0
 44
0.0
 45
0.0
 46
0.0
 47
0.0
 48
0.0
 49
0.0
140
0.0
141
0.0
142
1.0
143
1.0
 70
   688
 72
     0
 73
     0
 74
     5
  7

 75
    16
147
1.0
148
0.0
149
0.0
100
AcDbLayout
  1
Layout2
 70
     1
 71
     2
 10
0.0
 20
0.0
 11
0.0
 21
0.0
 12
0.0
 22
0.0
 32
0.0
 14
0.0
 24
0.0
 34
0.0
 15
0.0
 25
0.0
 35
0.0
146
0.0
 13
0.0
 23
0.0
 33
0.0
 16
1.0
 26
0.0
 36
0.0
 17
0.0
 27
1.0
 37
0.0
 76
     0
330
23
  0
LAYOUT
  5
22
102
{ACAD_REACTORS
330
1A
102
}
330
1A
100
AcDbPlotSettings
  1

  2
none_device
  4

  6

 40
0.0
 41
0.0
 42
0.0
 43
0.0
 44
0.0
 45
0.0
 46
0.0
 47
0.0
 48
0.0
 49
0.0
140
0.0
141
0.0
142
1.0
143
1.0
 70
  1712
 72
     0
 73
     0
 74
     0
  7

 75
     0
147
1.0
148
0.0
149
0.0
100
AcDbLayout
  1
Model
 70
     1
 71
     0
 10
-2972.5
 20
-2102.5
 11
2972.5
 21
2102.5
 12
0.0
 22
0.0
 32
0.0
 14
-9698.43348001475
 24
-6322.5
 34
0.0
 15
8023.975114580651
 25
6322.5
 35
0.0
146
0.0
 13
0.0
 23
0.0
 33
0.0
 16
1.0
 26
0.0
 36
0.0
 17
0.0
 27
1.0
 37
0.0
 76
     0
330
1F
331
29
  0
MATERIAL
  5
3D
102
{ACAD_REACTORS
330
3B
102
}
102
{ACAD_XDICTIONARY
360
3C2
102
}
330
3B
100
AcDbMaterial
  1
ByBlock
  0
MATERIAL
  5
3C
102
{ACAD_REACTORS
330
3B
102
}
102
{ACAD_XDICTIONARY
360
3C0
102
}
330
3B
100
AcDbMaterial
  1
ByLayer
  0
MATERIAL
  5
3E
102
{ACAD_REACTORS
330
3B
102
}
102
{ACAD_XDICTIONARY
360
3C4
102
}
330
3B
100
AcDbMaterial
  1
Global
  0
MLINESTYLE
  5
18
102
{ACAD_REACTORS
330
17
102
}
330
17
100
AcDbMlineStyle
  2
Standard
 70
     0
  3

 62
   256
 51
90.0
 52
90.0
 71
     2
 49
0.5
 62
   256
  6
BYLAYER
 49
-0.5
 62
   256
  6
BYLAYER
  0
ACDBPLACEHOLDER
  5
F
102
{ACAD_REACTORS
330
E
102
}
330
E
  0
SCALE
  5
147
102
{ACAD_REACTORS
330
146
102
}
330
146
100
AcDbScale
 70
     0
300
1:1
140
1.0
141
1.0
290
     1
  0
SCALE
  5
148
102
{ACAD_REACTORS
330
146
102
}
330
146
100
AcDbScale
 70
     0
300
1:2
140
1.0
141
2.0
290
     0
  0
SCALE
  5
149
102
{ACAD_REACTORS
330
146
102
}
330
146
100
AcDbScale
 70
     0
300
1:4
140
1.0
141
4.0
290
     0
  0
SCALE
  5
14A
102
{ACAD_REACTORS
330
146
102
}
330
146
100
AcDbScale
 70
     0
300
1:5
140
1.0
141
5.0
290
     0
  0
SCALE
  5
14B
102
{ACAD_REACTORS
330
146
102
}
330
146
100
AcDbScale
 70
     0
300
1:8
140
1.0
141
8.0
290
     0
  0
SCALE
  5
14C
102
{ACAD_REACTORS
330
146
102
}
330
146
100
AcDbScale
 70
     0
300
1:10
140
1.0
141
10.0
290
     0
  0
SCALE
  5
14D
102
{ACAD_REACTORS
330
146
102
}
330
146
100
AcDbScale
 70
     0
300
1:16
140
1.0
141
16.0
290
     0
  0
SCALE
  5
14E
102
{ACAD_REACTORS
330
146
102
}
330
146
100
AcDbScale
 70
     0
300
1:20
140
1.0
141
20.0
290
     0
  0
SCALE
  5
14F
102
{ACAD_REACTORS
330
146
102
}
330
146
100
AcDbScale
 70
     0
300
1:30
140
1.0
141
30.0
290
     0
  0
SCALE
  5
150
102
{ACAD_REACTORS
330
146
102
}
330
146
100
AcDbScale
 70
     0
300
1:40
140
1.0
141
40.0
290
     0
  0
SCALE
  5
151
102
{ACAD_REACTORS
330
146
102
}
330
146
100
AcDbScale
 70
     0
300
1:50
140
1.0
141
50.0
290
     0
  0
SCALE
  5
152
102
{ACAD_REACTORS
330
146
102
}
330
146
100
AcDbScale
 70
     0
300
1:100
140
1.0
141
100.0
290
     0
  0
SCALE
  5
153
102
{ACAD_REACTORS
330
146
102
}
330
146
100
AcDbScale
 70
     0
300
2:1
140
2.0
141
1.0
290
     0
  0
SCALE
  5
154
102
{ACAD_REACTORS
330
146
102
}
330
146
100
AcDbScale
 70
     0
300
4:1
140
4.0
141
1.0
290
     0
  0
SCALE
  5
155
102
{ACAD_REACTORS
330
146
102
}
330
146
100
AcDbScale
 70
     0
300
8:1
140
8.0
141
1.0
290
     0
  0
SCALE
  5
156
102
{ACAD_REACTORS
330
146
102
}
330
146
100
AcDbScale
 70
     0
300
10:1
140
10.0
141
1.0
290
     0
  0
SCALE
  5
157
102
{ACAD_REACTORS
330
146
102
}
330
146
100
AcDbScale
 70
     0
300
100:1
140
100.0
141
1.0
290
     0
  0
SCALE
  5
158
102
{ACAD_REACTORS
330
146
102
}
330
146
100
AcDbScale
 70
     0
300
1/128" = 1'-0"
140
0.0078125
141
12.0
290
     0
  0
SCALE
  5
159
102
{ACAD_REACTORS
330
146
102
}
330
146
100
AcDbScale
 70
     0
300
1/64" = 1'-0"
140
0.015625
141
12.0
290
     0
  0
SCALE
  5
15A
102
{ACAD_REACTORS
330
146
102
}
330
146
100
AcDbScale
 70
     0
300
1/32" = 1'-0"
140
0.03125
141
12.0
290
     0
  0
SCALE
  5
15B
102
{ACAD_REACTORS
330
146
102
}
330
146
100
AcDbScale
 70
     0
300
1/16" = 1'-0"
140
0.0625
141
12.0
290
     0
  0
SCALE
  5
15C
102
{ACAD_REACTORS
330
146
102
}
330
146
100
AcDbScale
 70
     0
300
3/32" = 1'-0"
140
0.09375
141
12.0
290
     0
  0
SCALE
  5
15D
102
{ACAD_REACTORS
330
146
102
}
330
146
100
AcDbScale
 70
     0
300
1/8" = 1'-0"
140
0.125
141
12.0
290
     0
  0
SCALE
  5
15E
102
{ACAD_REACTORS
330
146
102
}
330
146
100
AcDbScale
 70
     0
300
3/16" = 1'-0"
140
0.1875
141
12.0
290
     0
  0
SCALE
  5
15F
102
{ACAD_REACTORS
330
146
102
}
330
146
100
AcDbScale
 70
     0
300
1/4" = 1'-0"
140
0.25
141
12.0
290
     0
  0
SCALE
  5
160
102
{ACAD_REACTORS
330
146
102
}
330
146
100
AcDbScale
 70
     0
300
3/8" = 1'-0"
140
0.375
141
12.0
290
     0
  0
SCALE
  5
161
102
{ACAD_REACTORS
330
146
102
}
330
146
100
AcDbScale
 70
     0
300
1/2" = 1'-0"
140
0.5
141
12.0
290
     0
  0
SCALE
  5
162
102
{ACAD_REACTORS
330
146
102
}
330
146
100
AcDbScale
 70
     0
300
3/4" = 1'-0"
140
0.75
141
12.0
290
     0
  0
SCALE
  5
163
102
{ACAD_REACTORS
330
146
102
}
330
146
100
AcDbScale
 70
     0
300
1" = 1'-0"
140
1.0
141
12.0
290
     0
  0
SCALE
  5
164
102
{ACAD_REACTORS
330
146
102
}
330
146
100
AcDbScale
 70
     0
300
1-1/2" = 1'-0"
140
1.5
141
12.0
290
     0
  0
SCALE
  5
165
102
{ACAD_REACTORS
330
146
102
}
330
146
100
AcDbScale
 70
     0
300
3" = 1'-0"
140
3.0
141
12.0
290
     0
  0
SCALE
  5
166
102
{ACAD_REACTORS
330
146
102
}
330
146
100
AcDbScale
 70
     0
300
6" = 1'-0"
140
6.0
141
12.0
290
     0
  0
SCALE
  5
167
102
{ACAD_REACTORS
330
146
102
}
330
146
100
AcDbScale
 70
     0
300
1'-0" = 1'-0"
140
12.0
141
12.0
290
     0
  0
VISUALSTYLE
  5
2F
102
{ACAD_REACTORS
330
2A
102
}
102
{ACAD_XDICTIONARY
360
3A8
102
}
330
2A
100
AcDbVisualStyle
  2
2dWireframe
 70
     4
 71
     0
 72
     2
 73
     0
 90
        0
 40
-0.6
 41
-30.0
 62
     5
 63
     7
 74
     1
 91
        4
 64
     7
 65
   257
 75
     1
175
     1
 42
1.0
 92
        0
 66
   257
 43
1.0
 76
     1
 77
     6
 78
     2
 67
     7
 79
     5
170
     0
171
     0
290
     0
174
     0
 93
        1
 44
0.0
173
     0
291
     0
 45
0.0
1001
ACAD
1000
AcDbSavedByObjectVersion
1070
     0
  0
VISUALSTYLE
  5
31
102
{ACAD_REACTORS
330
2A
102
}
102
{ACAD_XDICTIONARY
360
3AC
102
}
330
2A
100
AcDbVisualStyle
  2
3D Hidden
 70
     6
 71
     1
 72
     2
 73
     2
 90
        0
 40
-0.6
 41
-30.0
 62
     5
 63
     7
 74
     2
 91
        2
 64
     7
 65
   257
 75
     2
175
     1
 42
40.0
 92
        0
 66
   257
 43
1.0
 76
     1
 77
     6
 78
     2
 67
     7
 79
     3
170
     0
171
     0
290
     0
174
     0
 93
        1
 44
0.0
173
     0
291
     0
 45
0.0
1001
ACAD
1000
AcDbSavedByObjectVersion
1070
     0
  0
VISUALSTYLE
  5
30
102
{ACAD_REACTORS
330
2A
102
}
102
{ACAD_XDICTIONARY
360
3AA
102
}
330
2A
100
AcDbVisualStyle
  2
3dWireframe
 70
     5
 71
     0
 72
     2
 73
     0
 90
        0
 40
-0.6
 41
-30.0
 62
     5
 63
     7
 74
     1
 91
        4
 64
     7
 65
   257
 75
     1
175
     1
 42
1.0
 92
        0
 66
   257
 43
1.0
 76
     1
 77
     6
 78
     2
 67
     7
 79
     5
170
     0
171
     0
290
     0
174
     0
 93
        1
 44
0.0
173
     0
291
     0
 45
0.0
1001
ACAD
1000
AcDbSavedByObjectVersion
1070
     0
  0
VISUALSTYLE
  5
32
102
{ACAD_REACTORS
330
2A
102
}
102
{ACAD_XDICTIONARY
360
3AE
102
}
330
2A
100
AcDbVisualStyle
  2
Basic
 70
     7
 71
     1
 72
     0
 73
     1
 90
        0
 40
-0.6
 41
-30.0
 62
     5
 63
     7
 74
     0
 91
        4
 64
     7
 65
   257
 75
     1
175
     1
 42
1.0
 92
        8
 66
     7
 43
1.0
 76
     1
 77
     6
 78
     2
 67
     7
 79
     5
170
     0
171
     0
290
     0
174
     0
 93
        1
 44
0.0
173
     0
291
     1
 45
0.0
1001
ACAD
1000
AcDbSavedByObjectVersion
1070
     0
  0
VISUALSTYLE
  5
36
102
{ACAD_REACTORS
330
2A
102
}
102
{ACAD_XDICTIONARY
360
3B6
102
}
330
2A
100
AcDbVisualStyle
  2
Brighten
 70
    12
 71
     2
 72
     2
 73
     0
 90
        0
 40
-0.6
 41
-30.0
 62
     5
 63
     7
 74
     1
 91
        4
 64
     7
 65
   257
 75
     1
175
     1
 42
1.0
 92
        8
 66
     7
 43
1.0
 76
     1
 77
     6
 78
     2
 67
     7
 79
     5
170
     0
171
     0
290
     0
174
     0
 93
        1
 44
50.0
173
     0
291
     1
 45
0.0
1001
ACAD
1000
AcDbSavedByObjectVersion
1070
     0
  0
VISUALSTYLE
  5
3A
102
{ACAD_REACTORS
330
2A
102
}
102
{ACAD_XDICTIONARY
360
3BE
102
}
330
2A
100
AcDbVisualStyle
  2
ColorChange
 70
    16
 71
     2
 72
     2
 73
     3
 90
        0
 40
-0.6
 41
-30.0
 62
     5
 63
     8
 74
     1
 91
        4
 64
     7
 65
   257
 75
     1
175
     1
 42
1.0
 92
        8
 66
     8
 43
1.0
 76
     1
 77
     6
 78
     2
 67
     7
 79
     5
170
     0
171
     0
290
     0
174
     0
 93
        1
 44
0.0
173
     0
291
     1
 45
0.0
1001
ACAD
1000
AcDbSavedByObjectVersion
1070
     0
  0
VISUALSTYLE
  5
34
102
{ACAD_REACTORS
330
2A
102
}
102
{ACAD_XDICTIONARY
360
3B2
102
}
330
2A
100
AcDbVisualStyle
  2
Conceptual
 70
     9
 71
     3
 72
     2
 73
     0
 90
        0
 40
-0.6
 41
-30.0
 62
     5
 63
     7
 74
     2
 91
        2
 64
     7
 65
   257
 75
     1
175
     1
 42
40.0
 92
        8
 66
     7
 43
1.0
 76
     1
 77
     6
 78
     2
 67
     7
 79
     3
170
     0
171
     0
290
     0
174
     0
 93
        1
 44
0.0
173
     0
291
     0
 45
0.0
1001
ACAD
1000
AcDbSavedByObjectVersion
1070
     0
  0
VISUALSTYLE
  5
35
102
{ACAD_REACTORS
330
2A
102
}
102
{ACAD_XDICTIONARY
360
3B4
102
}
330
2A
100
AcDbVisualStyle
  2
Dim
 70
    11
 71
     2
 72
     2
 73
     0
 90
        0
 40
-0.6
 41
-30.0
 62
     5
 63
     7
 74
     1
 91
        4
 64
     7
 65
   257
 75
     1
175
     1
 42
1.0
 92
        8
 66
     7
 43
1.0
 76
     1
 77
     6
 78
     2
 67
     7
 79
     5
170
     0
171
     0
290
     0
174
     0
 93
        1
 44
-50.0
173
     0
291
     1
 45
0.0
1001
ACAD
1000
AcDbSavedByObjectVersion
1070
     0
  0
VISUALSTYLE
  5
39
102
{ACAD_REACTORS
330
2A
102
}
102
{ACAD_XDICTIONARY
360
3BC
102
}
330
2A
100
AcDbVisualStyle
  2
Facepattern
 70
    15
 71
     2
 72
     2
 73
     0
 90
        0
 40
-0.6
 41
-30.0
 62
     5
 63
     7
 74
     1
 91
        4
 64
     7
 65
   257
 75
     1
175
     1
 42
1.0
 92
        8
 66
     7
 43
1.0
 76
     1
 77
     6
 78
     2
 67
     7
 79
     5
170
     0
171
     0
290
     0
174
     0
 93
        1
 44
0.0
173
     0
291
     1
 45
0.0
1001
ACAD
1000
AcDbSavedByObjectVersion
1070
     0
  0
VISUALSTYLE
  5
2B
102
{ACAD_REACTORS
330
2A
102
}
102
{ACAD_XDICTIONARY
360
3A0
102
}
330
2A
100
AcDbVisualStyle
  2
Flat
 70
     0
 71
     2
 72
     1
 73
     1
 90
        2
 40
-0.6
 41
30.0
 62
     5
 63
     7
 74
     0
 91
        4
 64
     7
 65
   257
 75
     1
175
     1
 42
1.0
 92
        8
 66
     7
 43
1.0
 76
     1
 77
     6
 78
     2
 67
     7
 79
     5
170
     0
171
     0
290
     0
174
     0
 93
       13
 44
0.0
173
     0
291
     1
 45
0.0
1001
ACAD
1000
AcDbSavedByObjectVersion
1070
     0
  0
VISUALSTYLE
  5
2C
102
{ACAD_REACTORS
330
2A
102
}
102
{ACAD_XDICTIONARY
360
3A2
102
}
330
2A
100
AcDbVisualStyle
  2
FlatWithEdges
 70
     1
 71
     2
 72
     1
 73
     1
 90
        2
 40
-0.6
 41
30.0
 62
     5
 63
     7
 74
     1
 91
        4
 64
     7
 65
   257
 75
     1
175
     1
 42
1.0
 92
        0
 66
   257
 43
1.0
 76
     1
 77
     6
 78
     2
 67
     7
 79
     5
170
     0
171
     0
290
     0
174
     0
 93
       13
 44
0.0
173
     0
291
     1
 45
0.0
1001
ACAD
1000
AcDbSavedByObjectVersion
1070
     0
  0
VISUALSTYLE
  5
2D
102
{ACAD_REACTORS
330
2A
102
}
102
{ACAD_XDICTIONARY
360
3A4
102
}
330
2A
100
AcDbVisualStyle
  2
Gouraud
 70
     2
 71
     2
 72
     2
 73
     1
 90
        2
 40
-0.6
 41
30.0
 62
     5
 63
     7
 74
     0
 91
        4
 64
     7
 65
   257
 75
     1
175
     1
 42
1.0
 92
        0
 66
     7
 43
1.0
 76
     1
 77
     6
 78
     2
 67
     7
 79
     5
170
     0
171
     0
290
     0
174
     0
 93
       13
 44
0.0
173
     0
291
     1
 45
0.0
1001
ACAD
1000
AcDbSavedByObjectVersion
1070
     0
  0
VISUALSTYLE
  5
2E
102
{ACAD_REACTORS
330
2A
102
}
102
{ACAD_XDICTIONARY
360
3A6
102
}
330
2A
100
AcDbVisualStyle
  2
GouraudWithEdges
 70
     3
 71
     2
 72
     2
 73
     1
 90
        2
 40
-0.6
 41
30.0
 62
     5
 63
     7
 74
     1
 91
        4
 64
     7
 65
   257
 75
     1
175
     1
 42
1.0
 92
        0
 66
   257
 43
1.0
 76
     1
 77
     6
 78
     2
 67
     7
 79
     5
170
     0
171
     0
290
     0
174
     0
 93
       13
 44
0.0
173
     0
291
     1
 45
0.0
1001
ACAD
1000
AcDbSavedByObjectVersion
1070
     0
  0
VISUALSTYLE
  5
38
102
{ACAD_REACTORS
330
2A
102
}
102
{ACAD_XDICTIONARY
360
3BA
102
}
330
2A
100
AcDbVisualStyle
  2
Linepattern
 70
    14
 71
     2
 72
     2
 73
     0
 90
        0
 40
-0.6
 41
-30.0
 62
     5
 63
     7
 74
     1
 91
        4
 64
     7
 65
   257
 75
     7
175
     7
 42
1.0
 92
        8
 66
     7
 43
1.0
 76
     1
 77
     6
 78
     2
 67
     7
 79
     5
170
     0
171
     0
290
     0
174
     0
 93
        1
 44
0.0
173
     0
291
     1
 45
0.0
1001
ACAD
1000
AcDbSavedByObjectVersion
1070
     0
  0
VISUALSTYLE
  5
33
102
{ACAD_REACTORS
330
2A
102
}
102
{ACAD_XDICTIONARY
360
3B0
102
}
330
2A
100
AcDbVisualStyle
  2
Realistic
 70
     8
 71
     2
 72
     2
 73
     0
 90
        0
 40
-0.6
 41
-30.0
 62
     5
 63
     7
 74
     1
 91
        0
 64
     7
 65
   257
 75
     1
175
     1
 42
1.0
 92
        8
 66
     8
 43
1.0
 76
     1
 77
     6
 78
     2
 67
     7
 79
     5
170
     0
171
     0
290
     0
174
     0
 93
       13
 44
0.0
173
     0
291
     0
 45
0.0
1001
ACAD
1000
AcDbSavedByObjectVersion
1070
     0
  0
VISUALSTYLE
  5
37
102
{ACAD_REACTORS
330
2A
102
}
102
{ACAD_XDICTIONARY
360
3B8
102
}
330
2A
100
AcDbVisualStyle
  2
Thicken
 70
    13
 71
     2
 72
     2
 73
     0
 90
        0
 40
-0.6
 41
-30.0
 62
     5
 63
     7
 74
     1
 91
        4
 64
     7
 65
   257
 75
     1
175
     1
 42
1.0
 92
       12
 66
     7
 43
1.0
 76
     1
 77
     6
 78
     2
 67
     7
 79
     5
170
     0
171
     0
290
     0
174
     0
 93
        1
 44
0.0
173
     0
291
     1
 45
0.0
1001
ACAD
1000
AcDbSavedByObjectVersion
1070
     0
  0
DICTIONARYVAR
  5
39C
102
{ACAD_REACTORS
330
399
102
}
330
399
100
DictionaryVariables
280
     0
  1
1:1
  0
DICTIONARYVAR
  5
39D
102
{ACAD_REACTORS
330
399
102
}
330
399
100
DictionaryVariables
280
     0
  1
2
  0
DICTIONARYVAR
  5
39E
102
{ACAD_REACTORS
330
399
102
}
330
399
100
DictionaryVariables
280
     0
  1
1
  0
DICTIONARY
  5
3C2
330
3D
100
AcDbDictionary
280
     1
281
     1
  3
ACAD_XREC_ROUNDTRIP
360
3C3
  0
DICTIONARY
  5
3C0
330
3C
100
AcDbDictionary
280
     1
281
     1
  3
ACAD_XREC_ROUNDTRIP
360
3C1
  0
DICTIONARY
  5
3C4
330
3E
100
AcDbDictionary
280
     1
281
     1
  3
ACAD_XREC_ROUNDTRIP
360
3C5
  0
DICTIONARY
  5
3A8
330
2F
100
AcDbDictionary
280
     1
281
     1
  3
ACAD_XREC_ROUNDTRIP
360
3A9
  0
DICTIONARY
  5
3AC
330
31
100
AcDbDictionary
280
     1
281
     1
  3
ACAD_XREC_ROUNDTRIP
360
3AD
  0
DICTIONARY
  5
3AA
330
30
100
AcDbDictionary
280
     1
281
     1
  3
ACAD_XREC_ROUNDTRIP
360
3AB
  0
DICTIONARY
  5
3AE
330
32
100
AcDbDictionary
280
     1
281
     1
  3
ACAD_XREC_ROUNDTRIP
360
3AF
  0
DICTIONARY
  5
3B6
330
36
100
AcDbDictionary
280
     1
281
     1
  3
ACAD_XREC_ROUNDTRIP
360
3B7
  0
DICTIONARY
  5
3BE
330
3A
100
AcDbDictionary
280
     1
281
     1
  3
ACAD_XREC_ROUNDTRIP
360
3BF
  0
DICTIONARY
  5
3B2
330
34
100
AcDbDictionary
280
     1
281
     1
  3
ACAD_XREC_ROUNDTRIP
360
3B3
  0
DICTIONARY
  5
3B4
330
35
100
AcDbDictionary
280
     1
281
     1
  3
ACAD_XREC_ROUNDTRIP
360
3B5
  0
DICTIONARY
  5
3BC
330
39
100
AcDbDictionary
280
     1
281
     1
  3
ACAD_XREC_ROUNDTRIP
360
3BD
  0
DICTIONARY
  5
3A0
330
2B
100
AcDbDictionary
280
     1
281
     1
  3
ACAD_XREC_ROUNDTRIP
360
3A1
  0
DICTIONARY
  5
3A2
330
2C
100
AcDbDictionary
280
     1
281
     1
  3
ACAD_XREC_ROUNDTRIP
360
3A3
  0
DICTIONARY
  5
3A4
330
2D
100
AcDbDictionary
280
     1
281
     1
  3
ACAD_XREC_ROUNDTRIP
360
3A5
  0
DICTIONARY
  5
3A6
330
2E
100
AcDbDictionary
280
     1
281
     1
  3
ACAD_XREC_ROUNDTRIP
360
3A7
  0
DICTIONARY
  5
3BA
330
38
100
AcDbDictionary
280
     1
281
     1
  3
ACAD_XREC_ROUNDTRIP
360
3BB
  0
DICTIONARY
  5
3B0
330
33
100
AcDbDictionary
280
     1
281
     1
  3
ACAD_XREC_ROUNDTRIP
360
3B1
  0
DICTIONARY
  5
3B8
330
37
100
AcDbDictionary
280
     1
281
     1
  3
ACAD_XREC_ROUNDTRIP
360
3B9
  0
XRECORD
  5
3C3
102
{ACAD_REACTORS
330
3C2
102
}
330
3C2
100
AcDbXrecord
280
     1
102
MATERIAL
148
0.0
149
0.0
149
0.0
 93
        0
 94
      127
282
     0
 72
     1
 77
     1
171
     1
175
     1
179
     1
273
     0
  0
XRECORD
  5
3C1
102
{ACAD_REACTORS
330
3C0
102
}
330
3C0
100
AcDbXrecord
280
     1
102
MATERIAL
148
0.0
149
0.0
149
0.0
 93
        0
 94
      127
282
     0
 72
     1
 77
     1
171
     1
175
     1
179
     1
273
     0
  0
XRECORD
  5
3C5
102
{ACAD_REACTORS
330
3C4
102
}
330
3C4
100
AcDbXrecord
280
     1
102
MATERIAL
148
0.0
149
0.0
149
0.0
 93
        0
 94
      127
282
     0
 72
     1
 77
     1
171
     1
175
     1
179
     1
273
     0
  0
XRECORD
  5
3A9
102
{ACAD_REACTORS
330
3A8
102
}
330
3A8
100
AcDbXrecord
280
     1
102
RTVSPropertyOp0
 70
     1
102
RTVSPropertyOp1
 70
     1
102
RTVSPropertyOp2
 70
     1
102
RTVSPropertyOp3
 70
     1
102
RTVSPropertyOp4
 70
     1
102
RTVSPropertyOp5
 70
     1
102
RTVSPropertyOp6
 70
     1
102
RTVSPropertyOp7
 70
     1
102
RTVSPropertyOp8
 70
     1
102
RTVSPropertyOp9
 70
     1
102
RTVSPropertyOp10
 70
     1
102
RTVSPropertyOp11
 70
     1
102
RTVSPropertyOp12
 70
     1
102
RTVSPropertyOp13
 70
     1
102
RTVSPropertyOp14
 70
     1
102
RTVSPropertyOp15
 70
     1
102
RTVSPropertyOp16
 70
     1
102
RTVSPropertyOp17
 70
     1
102
RTVSPropertyOp18
 70
     1
102
RTVSPropertyOp19
 70
     1
102
RTVSPropertyOp20
 70
     1
102
RTVSPropertyOp21
 70
     1
102
RTVSPropertyOp22
 70
     1
102
RTVSPropertyOp23
 70
     1
102
RTVSPropertyOp24
 70
     1
102
RTVSPropertyOp25
 70
     1
102
RTVSPropertyOp26
 70
     1
102
RTVSPropertyOp27
 70
     1
  0
XRECORD
  5
3AD
102
{ACAD_REACTORS
330
3AC
102
}
330
3AC
100
AcDbXrecord
280
     1
102
RTVSPropertyOp0
 70
     1
102
RTVSPropertyOp1
 70
     1
102
RTVSPropertyOp2
 70
     1
102
RTVSPropertyOp3
 70
     1
102
RTVSPropertyOp4
 70
     1
102
RTVSPropertyOp5
 70
     1
102
RTVSPropertyOp6
 70
     1
102
RTVSPropertyOp7
 70
     1
102
RTVSPropertyOp8
 70
     1
102
RTVSPropertyOp9
 70
     1
102
RTVSPropertyOp10
 70
     1
102
RTVSPropertyOp11
 70
     1
102
RTVSPropertyOp12
 70
     1
102
RTVSPropertyOp13
 70
     1
102
RTVSPropertyOp14
 70
     1
102
RTVSPropertyOp15
 70
     1
102
RTVSPropertyOp16
 70
     1
102
RTVSPropertyOp17
 70
     1
102
RTVSPropertyOp18
 70
     1
102
RTVSPropertyOp19
 70
     1
102
RTVSPropertyOp20
 70
     1
102
RTVSPropertyOp21
 70
     1
102
RTVSPropertyOp22
 70
     1
102
RTVSPropertyOp23
 70
     1
102
RTVSPropertyOp24
 70
     1
102
RTVSPropertyOp25
 70
     1
102
RTVSPropertyOp26
 70
     1
102
RTVSPropertyOp27
 70
     1
  0
XRECORD
  5
3AB
102
{ACAD_REACTORS
330
3AA
102
}
330
3AA
100
AcDbXrecord
280
     1
102
RTVSPropertyOp0
 70
     1
102
RTVSPropertyOp1
 70
     1
102
RTVSPropertyOp2
 70
     1
102
RTVSPropertyOp3
 70
     1
102
RTVSPropertyOp4
 70
     1
102
RTVSPropertyOp5
 70
     1
102
RTVSPropertyOp6
 70
     1
102
RTVSPropertyOp7
 70
     1
102
RTVSPropertyOp8
 70
     1
102
RTVSPropertyOp9
 70
     1
102
RTVSPropertyOp10
 70
     1
102
RTVSPropertyOp11
 70
     1
102
RTVSPropertyOp12
 70
     1
102
RTVSPropertyOp13
 70
     1
102
RTVSPropertyOp14
 70
     1
102
RTVSPropertyOp15
 70
     1
102
RTVSPropertyOp16
 70
     1
102
RTVSPropertyOp17
 70
     1
102
RTVSPropertyOp18
 70
     1
102
RTVSPropertyOp19
 70
     1
102
RTVSPropertyOp20
 70
     1
102
RTVSPropertyOp21
 70
     1
102
RTVSPropertyOp22
 70
     1
102
RTVSPropertyOp23
 70
     1
102
RTVSPropertyOp24
 70
     1
102
RTVSPropertyOp25
 70
     1
102
RTVSPropertyOp26
 70
     1
102
RTVSPropertyOp27
 70
     1
  0
XRECORD
  5
3AF
102
{ACAD_REACTORS
330
3AE
102
}
330
3AE
100
AcDbXrecord
280
     1
102
RTVSPropertyOp0
 70
     1
102
RTVSPropertyOp1
 70
     1
102
RTVSPropertyOp2
 70
     1
102
RTVSPropertyOp3
 70
     1
102
RTVSPropertyOp4
 70
     1
102
RTVSPropertyOp5
 70
     1
102
RTVSPropertyOp6
 70
     1
102
RTVSPropertyOp7
 70
     1
102
RTVSPropertyOp8
 70
     1
102
RTVSPropertyOp9
 70
     1
102
RTVSPropertyOp10
 70
     1
102
RTVSPropertyOp11
 70
     1
102
RTVSPropertyOp12
 70
     1
102
RTVSPropertyOp13
 70
     1
102
RTVSPropertyOp14
 70
     1
102
RTVSPropertyOp15
 70
     1
102
RTVSPropertyOp16
 70
     1
102
RTVSPropertyOp17
 70
     1
102
RTVSPropertyOp18
 70
     1
102
RTVSPropertyOp19
 70
     1
102
RTVSPropertyOp20
 70
     1
102
RTVSPropertyOp21
 70
     1
102
RTVSPropertyOp22
 70
     1
102
RTVSPropertyOp23
 70
     1
102
RTVSPropertyOp24
 70
     1
102
RTVSPropertyOp25
 70
     1
102
RTVSPropertyOp26
 70
     1
102
RTVSPropertyOp27
 70
     1
  0
XRECORD
  5
3B7
102
{ACAD_REACTORS
330
3B6
102
}
330
3B6
100
AcDbXrecord
280
     1
102
RTVSPropertyOp0
 70
     1
102
RTVSPropertyOp1
 70
     1
102
RTVSPropertyOp2
 70
     1
102
RTVSPropertyOp3
 70
     1
102
RTVSPropertyOp4
 70
     1
102
RTVSPropertyOp5
 70
     1
102
RTVSPropertyOp6
 70
     1
102
RTVSPropertyOp7
 70
     1
102
RTVSPropertyOp8
 70
     1
102
RTVSPropertyOp9
 70
     1
102
RTVSPropertyOp10
 70
     1
102
RTVSPropertyOp11
 70
     1
102
RTVSPropertyOp12
 70
     1
102
RTVSPropertyOp13
 70
     1
102
RTVSPropertyOp14
 70
     1
102
RTVSPropertyOp15
 70
     1
102
RTVSPropertyOp16
 70
     1
102
RTVSPropertyOp17
 70
     1
102
RTVSPropertyOp18
 70
     1
102
RTVSPropertyOp19
 70
     1
102
RTVSPropertyOp20
 70
     1
102
RTVSPropertyOp21
 70
     1
102
RTVSPropertyOp22
 70
     1
102
RTVSPropertyOp23
 70
     1
102
RTVSPropertyOp24
 70
     1
102
RTVSPropertyOp25
 70
     1
102
RTVSPropertyOp26
 70
     1
102
RTVSPropertyOp27
 70
     1
  0
XRECORD
  5
3BF
102
{ACAD_REACTORS
330
3BE
102
}
330
3BE
100
AcDbXrecord
280
     1
102
RTVSPropertyOp0
 70
     1
102
RTVSPropertyOp1
 70
     1
102
RTVSPropertyOp2
 70
     1
102
RTVSPropertyOp3
 70
     1
102
RTVSPropertyOp4
 70
     1
102
RTVSPropertyOp5
 70
     1
102
RTVSPropertyOp6
 70
     1
102
RTVSPropertyOp7
 70
     1
102
RTVSPropertyOp8
 70
     1
102
RTVSPropertyOp9
 70
     1
102
RTVSPropertyOp10
 70
     1
102
RTVSPropertyOp11
 70
     1
102
RTVSPropertyOp12
 70
     1
102
RTVSPropertyOp13
 70
     1
102
RTVSPropertyOp14
 70
     1
102
RTVSPropertyOp15
 70
     1
102
RTVSPropertyOp16
 70
     1
102
RTVSPropertyOp17
 70
     1
102
RTVSPropertyOp18
 70
     1
102
RTVSPropertyOp19
 70
     1
102
RTVSPropertyOp20
 70
     1
102
RTVSPropertyOp21
 70
     1
102
RTVSPropertyOp22
 70
     1
102
RTVSPropertyOp23
 70
     1
102
RTVSPropertyOp24
 70
     1
102
RTVSPropertyOp25
 70
     1
102
RTVSPropertyOp26
 70
     1
102
RTVSPropertyOp27
 70
     1
  0
XRECORD
  5
3B3
102
{ACAD_REACTORS
330
3B2
102
}
330
3B2
100
AcDbXrecord
280
     1
102
RTVSPropertyOp0
 70
     1
102
RTVSPropertyOp1
 70
     1
102
RTVSPropertyOp2
 70
     1
102
RTVSPropertyOp3
 70
     1
102
RTVSPropertyOp4
 70
     1
102
RTVSPropertyOp5
 70
     1
102
RTVSPropertyOp6
 70
     1
102
RTVSPropertyOp7
 70
     1
102
RTVSPropertyOp8
 70
     1
102
RTVSPropertyOp9
 70
     1
102
RTVSPropertyOp10
 70
     1
102
RTVSPropertyOp11
 70
     1
102
RTVSPropertyOp12
 70
     1
102
RTVSPropertyOp13
 70
     1
102
RTVSPropertyOp14
 70
     1
102
RTVSPropertyOp15
 70
     1
102
RTVSPropertyOp16
 70
     1
102
RTVSPropertyOp17
 70
     1
102
RTVSPropertyOp18
 70
     1
102
RTVSPropertyOp19
 70
     1
102
RTVSPropertyOp20
 70
     1
102
RTVSPropertyOp21
 70
     1
102
RTVSPropertyOp22
 70
     1
102
RTVSPropertyOp23
 70
     1
102
RTVSPropertyOp24
 70
     1
102
RTVSPropertyOp25
 70
     1
102
RTVSPropertyOp26
 70
     1
102
RTVSPropertyOp27
 70
     1
  0
XRECORD
  5
3B5
102
{ACAD_REACTORS
330
3B4
102
}
330
3B4
100
AcDbXrecord
280
     1
102
RTVSPropertyOp0
 70
     1
102
RTVSPropertyOp1
 70
     1
102
RTVSPropertyOp2
 70
     1
102
RTVSPropertyOp3
 70
     1
102
RTVSPropertyOp4
 70
     1
102
RTVSPropertyOp5
 70
     1
102
RTVSPropertyOp6
 70
     1
102
RTVSPropertyOp7
 70
     1
102
RTVSPropertyOp8
 70
     1
102
RTVSPropertyOp9
 70
     1
102
RTVSPropertyOp10
 70
     1
102
RTVSPropertyOp11
 70
     1
102
RTVSPropertyOp12
 70
     1
102
RTVSPropertyOp13
 70
     1
102
RTVSPropertyOp14
 70
     1
102
RTVSPropertyOp15
 70
     1
102
RTVSPropertyOp16
 70
     1
102
RTVSPropertyOp17
 70
     1
102
RTVSPropertyOp18
 70
     1
102
RTVSPropertyOp19
 70
     1
102
RTVSPropertyOp20
 70
     1
102
RTVSPropertyOp21
 70
     1
102
RTVSPropertyOp22
 70
     1
102
RTVSPropertyOp23
 70
     1
102
RTVSPropertyOp24
 70
     1
102
RTVSPropertyOp25
 70
     1
102
RTVSPropertyOp26
 70
     1
102
RTVSPropertyOp27
 70
     1
  0
XRECORD
  5
3BD
102
{ACAD_REACTORS
330
3BC
102
}
330
3BC
100
AcDbXrecord
280
     1
102
RTVSPropertyOp0
 70
     1
102
RTVSPropertyOp1
 70
     1
102
RTVSPropertyOp2
 70
     1
102
RTVSPropertyOp3
 70
     1
102
RTVSPropertyOp4
 70
     1
102
RTVSPropertyOp5
 70
     1
102
RTVSPropertyOp6
 70
     1
102
RTVSPropertyOp7
 70
     1
102
RTVSPropertyOp8
 70
     1
102
RTVSPropertyOp9
 70
     1
102
RTVSPropertyOp10
 70
     1
102
RTVSPropertyOp11
 70
     1
102
RTVSPropertyOp12
 70
     1
102
RTVSPropertyOp13
 70
     1
102
RTVSPropertyOp14
 70
     1
102
RTVSPropertyOp15
 70
     1
102
RTVSPropertyOp16
 70
     1
102
RTVSPropertyOp17
 70
     1
102
RTVSPropertyOp18
 70
     1
102
RTVSPropertyOp19
 70
     1
102
RTVSPropertyOp20
 70
     1
102
RTVSPropertyOp21
 70
     1
102
RTVSPropertyOp22
 70
     1
102
RTVSPropertyOp23
 70
     1
102
RTVSPropertyOp24
 70
     1
102
RTVSPropertyOp25
 70
     1
102
RTVSPropertyOp26
 70
     1
102
RTVSPropertyOp27
 70
     1
  0
XRECORD
  5
3A1
102
{ACAD_REACTORS
330
3A0
102
}
330
3A0
100
AcDbXrecord
280
     1
102
RTVSPropertyOp0
 70
     1
102
RTVSPropertyOp1
 70
     1
102
RTVSPropertyOp2
 70
     1
102
RTVSPropertyOp3
 70
     1
102
RTVSPropertyOp4
 70
     1
102
RTVSPropertyOp5
 70
     1
102
RTVSPropertyOp6
 70
     1
102
RTVSPropertyOp7
 70
     1
102
RTVSPropertyOp8
 70
     1
102
RTVSPropertyOp9
 70
     1
102
RTVSPropertyOp10
 70
     1
102
RTVSPropertyOp11
 70
     1
102
RTVSPropertyOp12
 70
     1
102
RTVSPropertyOp13
 70
     1
102
RTVSPropertyOp14
 70
     1
102
RTVSPropertyOp15
 70
     1
102
RTVSPropertyOp16
 70
     1
102
RTVSPropertyOp17
 70
     1
102
RTVSPropertyOp18
 70
     1
102
RTVSPropertyOp19
 70
     1
102
RTVSPropertyOp20
 70
     1
102
RTVSPropertyOp21
 70
     1
102
RTVSPropertyOp22
 70
     1
102
RTVSPropertyOp23
 70
     1
102
RTVSPropertyOp24
 70
     1
102
RTVSPropertyOp25
 70
     1
102
RTVSPropertyOp26
 70
     1
102
RTVSPropertyOp27
 70
     1
  0
XRECORD
  5
3A3
102
{ACAD_REACTORS
330
3A2
102
}
330
3A2
100
AcDbXrecord
280
     1
102
RTVSPropertyOp0
 70
     1
102
RTVSPropertyOp1
 70
     1
102
RTVSPropertyOp2
 70
     1
102
RTVSPropertyOp3
 70
     1
102
RTVSPropertyOp4
 70
     1
102
RTVSPropertyOp5
 70
     1
102
RTVSPropertyOp6
 70
     1
102
RTVSPropertyOp7
 70
     1
102
RTVSPropertyOp8
 70
     1
102
RTVSPropertyOp9
 70
     1
102
RTVSPropertyOp10
 70
     1
102
RTVSPropertyOp11
 70
     1
102
RTVSPropertyOp12
 70
     1
102
RTVSPropertyOp13
 70
     1
102
RTVSPropertyOp14
 70
     1
102
RTVSPropertyOp15
 70
     1
102
RTVSPropertyOp16
 70
     1
102
RTVSPropertyOp17
 70
     1
102
RTVSPropertyOp18
 70
     1
102
RTVSPropertyOp19
 70
     1
102
RTVSPropertyOp20
 70
     1
102
RTVSPropertyOp21
 70
     1
102
RTVSPropertyOp22
 70
     1
102
RTVSPropertyOp23
 70
     1
102
RTVSPropertyOp24
 70
     1
102
RTVSPropertyOp25
 70
     1
102
RTVSPropertyOp26
 70
     1
102
RTVSPropertyOp27
 70
     1
  0
XRECORD
  5
3A5
102
{ACAD_REACTORS
330
3A4
102
}
330
3A4
100
AcDbXrecord
280
     1
102
RTVSPropertyOp0
 70
     1
102
RTVSPropertyOp1
 70
     1
102
RTVSPropertyOp2
 70
     1
102
RTVSPropertyOp3
 70
     1
102
RTVSPropertyOp4
 70
     1
102
RTVSPropertyOp5
 70
     1
102
RTVSPropertyOp6
 70
     1
102
RTVSPropertyOp7
 70
     1
102
RTVSPropertyOp8
 70
     1
102
RTVSPropertyOp9
 70
     1
102
RTVSPropertyOp10
 70
     1
102
RTVSPropertyOp11
 70
     1
102
RTVSPropertyOp12
 70
     1
102
RTVSPropertyOp13
 70
     1
102
RTVSPropertyOp14
 70
     1
102
RTVSPropertyOp15
 70
     1
102
RTVSPropertyOp16
 70
     1
102
RTVSPropertyOp17
 70
     1
102
RTVSPropertyOp18
 70
     1
102
RTVSPropertyOp19
 70
     1
102
RTVSPropertyOp20
 70
     1
102
RTVSPropertyOp21
 70
     1
102
RTVSPropertyOp22
 70
     1
102
RTVSPropertyOp23
 70
     1
102
RTVSPropertyOp24
 70
     1
102
RTVSPropertyOp25
 70
     1
102
RTVSPropertyOp26
 70
     1
102
RTVSPropertyOp27
 70
     1
  0
XRECORD
  5
3A7
102
{ACAD_REACTORS
330
3A6
102
}
330
3A6
100
AcDbXrecord
280
     1
102
RTVSPropertyOp0
 70
     1
102
RTVSPropertyOp1
 70
     1
102
RTVSPropertyOp2
 70
     1
102
RTVSPropertyOp3
 70
     1
102
RTVSPropertyOp4
 70
     1
102
RTVSPropertyOp5
 70
     1
102
RTVSPropertyOp6
 70
     1
102
RTVSPropertyOp7
 70
     1
102
RTVSPropertyOp8
 70
     1
102
RTVSPropertyOp9
 70
     1
102
RTVSPropertyOp10
 70
     1
102
RTVSPropertyOp11
 70
     1
102
RTVSPropertyOp12
 70
     1
102
RTVSPropertyOp13
 70
     1
102
RTVSPropertyOp14
 70
     1
102
RTVSPropertyOp15
 70
     1
102
RTVSPropertyOp16
 70
     1
102
RTVSPropertyOp17
 70
     1
102
RTVSPropertyOp18
 70
     1
102
RTVSPropertyOp19
 70
     1
102
RTVSPropertyOp20
 70
     1
102
RTVSPropertyOp21
 70
     1
102
RTVSPropertyOp22
 70
     1
102
RTVSPropertyOp23
 70
     1
102
RTVSPropertyOp24
 70
     1
102
RTVSPropertyOp25
 70
     1
102
RTVSPropertyOp26
 70
     1
102
RTVSPropertyOp27
 70
     1
  0
XRECORD
  5
3BB
102
{ACAD_REACTORS
330
3BA
102
}
330
3BA
100
AcDbXrecord
280
     1
102
RTVSPropertyOp0
 70
     1
102
RTVSPropertyOp1
 70
     1
102
RTVSPropertyOp2
 70
     1
102
RTVSPropertyOp3
 70
     1
102
RTVSPropertyOp4
 70
     1
102
RTVSPropertyOp5
 70
     1
102
RTVSPropertyOp6
 70
     1
102
RTVSPropertyOp7
 70
     1
102
RTVSPropertyOp8
 70
     1
102
RTVSPropertyOp9
 70
     1
102
RTVSPropertyOp10
 70
     1
102
RTVSPropertyOp11
 70
     1
102
RTVSPropertyOp12
 70
     1
102
RTVSPropertyOp13
 70
     1
102
RTVSPropertyOp14
 70
     1
102
RTVSPropertyOp15
 70
     1
102
RTVSPropertyOp16
 70
     1
102
RTVSPropertyOp17
 70
     1
102
RTVSPropertyOp18
 70
     1
102
RTVSPropertyOp19
 70
     1
102
RTVSPropertyOp20
 70
     1
102
RTVSPropertyOp21
 70
     1
102
RTVSPropertyOp22
 70
     1
102
RTVSPropertyOp23
 70
     1
102
RTVSPropertyOp24
 70
     1
102
RTVSPropertyOp25
 70
     1
102
RTVSPropertyOp26
 70
     1
102
RTVSPropertyOp27
 70
     1
  0
XRECORD
  5
3B1
102
{ACAD_REACTORS
330
3B0
102
}
330
3B0
100
AcDbXrecord
280
     1
102
RTVSPropertyOp0
 70
     1
102
RTVSPropertyOp1
 70
     1
102
RTVSPropertyOp2
 70
     1
102
RTVSPropertyOp3
 70
     1
102
RTVSPropertyOp4
 70
     1
102
RTVSPropertyOp5
 70
     1
102
RTVSPropertyOp6
 70
     1
102
RTVSPropertyOp7
 70
     1
102
RTVSPropertyOp8
 70
     1
102
RTVSPropertyOp9
 70
     1
102
RTVSPropertyOp10
 70
     1
102
RTVSPropertyOp11
 70
     1
102
RTVSPropertyOp12
 70
     1
102
RTVSPropertyOp13
 70
     1
102
RTVSPropertyOp14
 70
     1
102
RTVSPropertyOp15
 70
     1
102
RTVSPropertyOp16
 70
     1
102
RTVSPropertyOp17
 70
     1
102
RTVSPropertyOp18
 70
     1
102
RTVSPropertyOp19
 70
     1
102
RTVSPropertyOp20
 70
     1
102
RTVSPropertyOp21
 70
     1
102
RTVSPropertyOp22
 70
     1
102
RTVSPropertyOp23
 70
     1
102
RTVSPropertyOp24
 70
     1
102
RTVSPropertyOp25
 70
     1
102
RTVSPropertyOp26
 70
     1
102
RTVSPropertyOp27
 70
     1
  0
XRECORD
  5
3B9
102
{ACAD_REACTORS
330
3B8
102
}
330
3B8
100
AcDbXrecord
280
     1
102
RTVSPropertyOp0
 70
     1
102
RTVSPropertyOp1
 70
     1
102
RTVSPropertyOp2
 70
     1
102
RTVSPropertyOp3
 70
     1
102
RTVSPropertyOp4
 70
     1
102
RTVSPropertyOp5
 70
     1
102
RTVSPropertyOp6
 70
     1
102
RTVSPropertyOp7
 70
     1
102
RTVSPropertyOp8
 70
     1
102
RTVSPropertyOp9
 70
     1
102
RTVSPropertyOp10
 70
     1
102
RTVSPropertyOp11
 70
     1
102
RTVSPropertyOp12
 70
     1
102
RTVSPropertyOp13
 70
     1
102
RTVSPropertyOp14
 70
     1
102
RTVSPropertyOp15
 70
     1
102
RTVSPropertyOp16
 70
     1
102
RTVSPropertyOp17
 70
     1
102
RTVSPropertyOp18
 70
     1
102
RTVSPropertyOp19
 70
     1
102
RTVSPropertyOp20
 70
     1
102
RTVSPropertyOp21
 70
     1
102
RTVSPropertyOp22
 70
     1
102
RTVSPropertyOp23
 70
     1
102
RTVSPropertyOp24
 70
     1
102
RTVSPropertyOp25
 70
     1
102
RTVSPropertyOp26
 70
     1
102
RTVSPropertyOp27
 70
     1
  0
ENDSEC
  0
EOF
