  0
SECTION
  2
HEADER
  9
$ACADVER
  1
AC1009
  9
$DWGCODEPAGE
  3
dos932
  9
$INSBASE
 10
0.0
 20
0.0
 30
0.0
  9
$EXTMIN
 10
0.0
 20
0.0
 30
0.0
  9
$EXTMAX
 10
4200.0
 20
2970.0
 30
0.0
  9
$LIMMIN
 10
0.0
 20
0.0
  9
$LIMMAX
 10
4200.0
 20
2970.0
  9
$ORTHOMODE
 70
     0
  9
$REGENMODE
 70
     1
  9
$FILLMODE
 70
     1
  9
$QTEXTMODE
 70
     0
  9
$MIRRTEXT
 70
     1
  9
$DRAGMODE
 70
     2
  9
$LTSCALE
 40
10.0
  9
$OSMODE
 70
    37
  9
$ATTMODE
 70
     1
  9
$TEXTSIZE
 40
35.0
  9
$TRACEWID
 40
1.0
  9
$TEXTSTYLE
  7
STANDARD
  9
$CLAYER
  8
0
  9
$CELTYPE
  6
BYLAYER
  9
$CECOLOR
 62
   256
  9
$DIMSCALE
 40
1.0
  9
$DIMASZ
 40
30.0
  9
$DIMEXO
 40
10.0
  9
$DIMDLI
 40
3.75
  9
$DIMRND
 40
0.0
  9
$DIMDLE
 40
0.0
  9
$DIMEXE
 40
10.0
  9
$DIMTP
 40
0.0
  9
$DIMTM
 40
0.0
  9
$DIMTXT
 40
35.0
  9
$DIMCEN
 40
2.5
  9
$DIMTSZ
 40
0.0
  9
$DIMTOL
 70
     0
  9
$DIMLIM
 70
     0
  9
$DIMTIH
 70
     1
  9
$DIMTOH
 70
     1
  9
$DIMSE1
 70
     0
  9
$DIMSE2
 70
     0
  9
$DIMTAD
 70
     1
  9
$DIMZIN
 70
     0
  9
$DIMBLK
  1

  9
$DIMASO
 70
     1
  9
$DIMSHO
 70
     1
  9
$DIMPOST
  1

  9
$DIMAPOST
  1

  9
$DIMALT
 70
     0
  9
$DIMALTD
 70
     3
  9
$DIMALTF
 40
0.0393700787
  9
$DIMLFAC
 40
1.0
  9
$DIMTOFL
 70
     1
  9
$DIMTVP
 40
0.0
  9
$DIMTIX
 70
     0
  9
$DIMSOXD
 70
     0
  9
$DIMSAH
 70
     0
  9
$DIMBLK1
  1

  9
$DIMBLK2
  1

  9
$DIMSTYLE
  2
ISO-25
  9
$DIMCLRD
 70
     0
  9
$DIMCLRE
 70
     0
  9
$DIMCLRT
 70
     0
  9
$DIMTFAC
 40
1.0
  9
$DIMGAP
 40
15.24
  9
$LUNITS
 70
     2
  9
$LUPREC
 70
     1
  9
$SKETCHINC
 40
1.0
  9
$FILLETRAD
 40
10.0
  9
$AUNITS
 70
     0
  9
$AUPREC
 70
     1
  9
$MENU
  1
.
  9
$ELEVATION
 40
0.0
  9
$PELEVATION
 40
0.0
  9
$THICKNESS
 40
0.0
  9
$LIMCHECK
 70
     0
  9
$CHAMFERA
 40
0.0
  9
$CHAMFERB
 40
0.0
  9
$SKPOLY
 70
     0
  9
$TDCREATE
 40
2459276.434582535
  9
$TDUPDATE
 40
2459276.434586794
  9
$TDINDWG
 40
0.0000000116
  9
$TDUSRTIMER
 40
0.0000000116
  9
$USRTIMER
 70
     1
  9
$ANGBASE
 50
0.0
  9
$ANGDIR
 70
     0
  9
$PDMODE
 70
     0
  9
$PDSIZE
 40
-1.0
  9
$PLINEWID
 40
0.0
  9
$COORDS
 70
     1
  9
$SPLFRAME
 70
     0
  9
$SPLINETYPE
 70
     6
  9
$SPLINESEGS
 70
     8
  9
$ATTDIA
 70
     0
  9
$ATTREQ
 70
     1
  9
$HANDLING
 70
     1
  9
$HANDSEED
  5
3A5
  9
$SURFTAB1
 70
     6
  9
$SURFTAB2
 70
     6
  9
$SURFTYPE
 70
     6
  9
$SURFU
 70
     6
  9
$SURFV
 70
     6
  9
$UCSNAME
  2

  9
$UCSORG
 10
0.0
 20
0.0
 30
0.0
  9
$UCSXDIR
 10
1.0
 20
0.0
 30
0.0
  9
$UCSYDIR
 10
0.0
 20
1.0
 30
0.0
  9
$PUCSNAME
  2

  9
$PUCSORG
 10
0.0
 20
0.0
 30
0.0
  9
$PUCSXDIR
 10
1.0
 20
0.0
 30
0.0
  9
$PUCSYDIR
 10
0.0
 20
1.0
 30
0.0
  9
$USERI1
 70
     0
  9
$USERI2
 70
     0
  9
$USERI3
 70
     0
  9
$USERI4
 70
     0
  9
$USERI5
 70
     0
  9
$USERR1
 40
0.0
  9
$USERR2
 40
0.0
  9
$USERR3
 40
0.0
  9
$USERR4
 40
0.0
  9
$USERR5
 40
0.0
  9
$WORLDVIEW
 70
     1
  9
$SHADEDGE
 70
     3
  9
$SHADEDIF
 70
    70
  9
$TILEMODE
 70
     1
  9
$MAXACTVP
 70
    64
  9
$PLIMCHECK
 70
     0
  9
$PEXTMIN
 10
1.0000000000E+20
 20
1.0000000000E+20
 30
1.0000000000E+20
  9
$PEXTMAX
 10
-1.0000000000E+20
 20
-1.0000000000E+20
 30
-1.0000000000E+20
  9
$PLIMMIN
 10
0.0
 20
0.0
  9
$PLIMMAX
 10
420.0
 20
297.0
  9
$UNITMODE
 70
     0
  9
$VISRETAIN
 70
     1
  9
$PLINEGEN
 70
     0
  9
$PSLTSCALE
 70
     1
  0
ENDSEC
  0
SECTION
  2
TABLES
  0
TABLE
  2
VPORT
 70
     1
  0
VPORT
  2
*ACTIVE
 70
     0
 10
0.0
 20
0.0
 11
1.0
 21
1.0
 12
2100.0
 22
1485.0
 13
0.0
 23
0.0
 14
10.0
 24
10.0
 15
10.0
 25
10.0
 16
0.0
 26
0.0
 36
1.0
 17
0.0
 27
0.0
 37
0.0
 40
2970.0
 41
1.4141414141
 42
50.0
 43
0.0
 44
0.0
 50
0.0
 51
0.0
 71
     0
 72
  2000
 73
     1
 74
     3
 75
     0
 76
     0
 77
     0
 78
     0
  0
ENDTAB
  0
TABLE
  2
LTYPE
 70
     6
  0
LTYPE
  2
CONTINUOUS
 70
     0
  3
Solid line
 72
    65
 73
     0
 40
0.0
  0
LTYPE
  2
HIDDEN
 70
     0
  3
Hidden __ __ __ __ __ __ __ __ __ __ __ __ __ __
 72
    65
 73
     2
 40
1.905
 49
1.27
 49
-0.635
  0
LTYPE
  2
PHANTOM
 70
     0
  3
Phantom ______  __  __  ______  __  __  ______
 72
    65
 73
     6
 40
12.7
 49
6.35
 49
-1.27
 49
1.27
 49
-1.27
 49
1.27
 49
-1.27
  0
LTYPE
  2
CENTER
 70
     0
  3
Center ____ _ ____ _ ____ _ ____ _ ____ _ ____
 72
    65
 73
     4
 40
10.16
 49
6.35
 49
-1.27
 49
1.27
 49
-1.27
  0
LTYPE
  2
CENTERX2
 70
     0
  3
Center (2x) ________  __  ________  __  _____
 72
    65
 73
     4
 40
20.32
 49
12.7
 49
-2.54
 49
2.54
 49
-2.54
  0
LTYPE
  2
DOT2
 70
     0
  3
Dot (.5x) ........................................
 72
    65
 73
     2
 40
0.635
 49
0.0
 49
-0.635
  0
ENDTAB
  0
TABLE
  2
LAYER
 70
     4
  0
LAYER
  2
0
 70
     0
 62
     7
  6
CONTINUOUS
  0
LAYER
  2
太線
 70
     0
 62
     7
  6
CONTINUOUS
  0
LAYER
  2
中太線
 70
     0
 62
     7
  6
CONTINUOUS
  0
LAYER
  2
細線
 70
     0
 62
     7
  6
CONTINUOUS
  0
ENDTAB
  0
TABLE
  2
STYLE
 70
     1
  0
STYLE
  2
STANDARD
 70
     0
 40
0.0
 41
1.0
 50
0.0
 71
     0
 42
35.0
  3
txt
  4
bigfont
  0
ENDTAB
  0
TABLE
  2
VIEW
 70
     0
  0
ENDTAB
  0
TABLE
  2
UCS
 70
     0
  0
ENDTAB
  0
TABLE
  2
APPID
 70
     1
  0
APPID
  2
ACAD
 70
     0
  0
ENDTAB
  0
TABLE
  2
DIMSTYLE
 70
     5
  0
DIMSTYLE
  2
ISO-25
 70
     0
  3

  4

  5

  6

  7

 40
1.0
 41
2.5
 42
0.625
 43
3.75
 44
1.25
 45
0.0
 46
0.0
 47
0.0
 48
0.0
140
2.5
141
2.5
142
0.0
143
0.0393700787
144
1.0
145
0.0
146
1.0
147
0.625
 71
     0
 72
     0
 73
     0
 74
     0
 75
     0
 76
     0
 77
     1
 78
     8
170
     0
171
     3
172
     1
173
     0
174
     0
175
     0
176
     0
177
     0
178
     0
  0
DIMSTYLE
  2
SLDDIMSTYLE0
 70
     0
  3

  4

  5

  6
OPEN30
  7
OPEN30
 40
1.0
 41
30.0
 42
0.0625
 43
0.38
 44
0.0
 45
0.000000001
 46
0.0
 47
0.0
 48
0.0
140
54.5703125
141
0.09
142
0.0
143
25.4
144
1.0
145
0.0
146
1.0
147
13.642578125
 71
     0
 72
     0
 73
     0
 74
     0
 75
     0
 76
     0
 77
     3
 78
    12
170
     0
171
     2
172
     0
173
     1
174
     0
175
     0
176
     0
177
     0
178
     0
  0
DIMSTYLE
  2
SLDDIMSTYLE1
 70
     0
  3

  4

  5

  6
OPEN30
  7
OPEN30
 40
1.0
 41
30.0
 42
0.0625
 43
0.38
 44
0.0
 45
0.000000001
 46
0.0
 47
0.0
 48
0.0
140
35.0
141
0.09
142
0.0
143
25.4
144
1.0
145
0.0
146
1.0
147
8.75
 71
     0
 72
     0
 73
     0
 74
     0
 75
     0
 76
     0
 77
     3
 78
    12
170
     0
171
     2
172
     1
173
     1
174
     0
175
     0
176
     0
177
     0
178
     0
  0
DIMSTYLE
  2
SLDDIMSTYLE2
 70
     0
  3

  4

  5

  6
OPEN30
  7
OPEN30
 40
1.0
 41
30.0
 42
0.0625
 43
0.38
 44
0.0
 45
0.000000001
 46
0.0
 47
0.0
 48
0.0
140
35.0
141
0.09
142
0.0
143
25.4
144
1.0
145
0.0
146
1.0
147
8.75
 71
     0
 72
     0
 73
     0
 74
     0
 75
     0
 76
     0
 77
     3
 78
    12
170
     0
171
     2
172
     0
173
     1
174
     0
175
     0
176
     0
177
     0
178
     0
  0
DIMSTYLE
  2
SLDDIMSTYLE3
 70
     0
  3

  4

  5

  6
OPEN30
  7
OPEN30
 40
1.0
 41
30.0
 42
0.0625
 43
0.38
 44
0.0
 45
0.000000001
 46
0.0
 47
0.0
 48
0.0
140
54.5703125
141
0.09
142
0.0
143
25.4
144
1.0
145
0.0
146
1.0
147
13.642578125
 71
     0
 72
     0
 73
     0
 74
     0
 75
     0
 76
     0
 77
     3
 78
    12
170
     0
171
     2
172
     1
173
     1
174
     0
175
     0
176
     0
177
     0
178
     0
  0
ENDTAB
  0
ENDSEC
  0
SECTION
  2
BLOCKS
  0
BLOCK
  8
0
  2
$MODEL_SPACE
 70
     0
 10
0.0
 20
0.0
 30
0.0
  3
$MODEL_SPACE
  1

  0
ENDBLK
  5
21
  8
0
  0
BLOCK
 67
     1
  8
0
  2
$PAPER_SPACE
 70
     0
 10
0.0
 20
0.0
 30
0.0
  3
$PAPER_SPACE
  1

  0
ENDBLK
  5
1D
 67
     1
  8
0
  0
BLOCK
  8
0
  2
SW_NOTE_0
 70
     0
 10
0.0
 20
0.0
 30
0.0
  3
SW_NOTE_0
  1

  0
CIRCLE
  5
8B
  8
細線
 62
     0
 10
30.6482908268
 20
58.668371294
 30
0.0
 40
62.16146795179861
  0
TEXT
  5
8C
  8
細線
 62
     0
 10
0.0
 20
26.1706829205
 30
0.0
 40
74.0833333333
  1
A
 41
0.7
 11
0.0
 21
0.0
 31
0.0
 73
     1
  0
ENDBLK
  5
8A
  8
0
  0
BLOCK
  8
0
  2
SW_NOTE_1
 70
     0
 10
0.0
 20
0.0
 30
0.0
  3
SW_NOTE_1
  1

  0
CIRCLE
  5
91
  8
細線
 62
     0
 10
31.2679777527
 20
58.8083721631
 30
0.0
 40
62.95391513527374
  0
TEXT
  5
92
  8
細線
 62
     0
 10
0.0
 20
26.1706829205
 30
0.0
 40
74.0833333333
  1
B
 41
0.7
 11
0.0
 21
0.0
 31
0.0
 73
     1
  0
ENDBLK
  5
90
  8
0
  0
BLOCK
  8
0
  2
SW_NOTE_2
 70
     0
 10
0.0
 20
0.0
 30
0.0
  3
SW_NOTE_2
  1

  0
TEXT
  5
99
  8
細線
 62
     0
 10
0.0
 20
10.2813397188
 30
0.0
 40
29.1041666667
  1
基礎の厚さは、風速40m/sの場合でも基礎・収納庫ごとの転倒を防げる計算上の数字です。
 41
0.7
 11
0.0
 21
0.0
 31
0.0
 73
     1
  0
TEXT
  5
9A
  8
細線
 62
     0
 10
0.0
 20
-38.5242146786
 30
0.0
 40
29.1041666667
  1
（収納庫の部品はすべて取付し、最大容器本数(2本)の半数が空、残りの半数が満タンにガスが入っている計算です)
 41
0.7
 11
0.0
 21
-48.8055543974
 31
0.0
 73
     1
  0
ENDBLK
  5
98
  8
0
  0
BLOCK
  8
0
  2
SW_NOTE_3
 70
     0
 10
0.0
 20
0.0
 30
0.0
  3
SW_NOTE_3
  1

  0
TEXT
  5
9F
  8
細線
 62
     0
 10
0.0
 20
12.3641021672
 30
0.0
 40
35.0
  1
尺
 41
0.7
 11
0.0
 21
0.0
 31
0.0
 73
     1
  0
TEXT
  5
A0
  8
細線
 62
     0
 10
0.0
 20
-37.6358967152
 30
0.0
 40
35.0
  1
度
 41
0.7
 11
0.0
 21
-49.9999988824
 31
0.0
 73
     1
  0
ENDBLK
  5
9E
  8
0
  0
BLOCK
  8
0
  2
SW_NOTE_4
 70
     0
 10
0.0
 20
0.0
 30
0.0
  3
SW_NOTE_4
  1

  0
TEXT
  5
A5
  8
細線
 62
     0
 10
0.0
 20
12.3641021672
 30
0.0
 40
35.0
  1
製
 41
0.7
 11
0.0
 21
0.0
 31
0.0
 73
     1
  0
TEXT
  5
A6
  8
細線
 62
     0
 10
0.0
 20
-37.6358967152
 30
0.0
 40
35.0
  1
図
 41
0.7
 11
0.0
 21
-49.9999988824
 31
0.0
 73
     1
  0
ENDBLK
  5
A4
  8
0
  0
BLOCK
  8
0
  2
SW_NOTE_5
 70
     0
 10
0.0
 20
0.0
 30
0.0
  3
SW_NOTE_5
  1

  0
TEXT
  5
AB
  8
細線
 62
     0
 10
0.0
 20
12.3641021672
 30
0.0
 40
35.0
  1
検
 41
0.7
 11
0.0
 21
0.0
 31
0.0
 73
     1
  0
TEXT
  5
AC
  8
細線
 62
     0
 10
0.0
 20
-37.6358967152
 30
0.0
 40
35.0
  1
図
 41
0.7
 11
0.0
 21
-49.9999988824
 31
0.0
 73
     1
  0
ENDBLK
  5
AA
  8
0
  0
BLOCK
  8
0
  2
SW_NOTE_6
 70
     0
 10
0.0
 20
0.0
 30
0.0
  3
SW_NOTE_6
  1

  0
TEXT
  5
B1
  8
細線
 62
     0
 10
0.0
 20
12.3641021672
 30
0.0
 40
35.0
  1
単
 41
0.7
 11
0.0
 21
0.0
 31
0.0
 73
     1
  0
TEXT
  5
B2
  8
細線
 62
     0
 10
0.0
 20
-37.6358967152
 30
0.0
 40
35.0
  1
位
 41
0.7
 11
0.0
 21
-49.9999988824
 31
0.0
 73
     1
  0
ENDBLK
  5
B0
  8
0
  0
BLOCK
  8
0
  2
SW_NOTE_7
 70
     0
 10
0.0
 20
0.0
 30
0.0
  3
SW_NOTE_7
  1

  0
TEXT
  5
B7
  8
細線
 62
     0
 10
0.0
 20
12.3641021672
 30
0.0
 40
35.0
  1
日
 41
0.7
 11
0.0
 21
0.0
 31
0.0
 73
     1
  0
TEXT
  5
B8
  8
細線
 62
     0
 10
0.0
 20
-37.6358967152
 30
0.0
 40
35.0
  1
付
 41
0.7
 11
0.0
 21
-49.9999988824
 31
0.0
 73
     1
  0
ENDBLK
  5
B6
  8
0
  0
BLOCK
  8
0
  2
SW_NOTE_8
 70
     0
 10
0.0
 20
0.0
 30
0.0
  3
SW_NOTE_8
  1

  0
LINE
  5
C2
  8
細線
 62
     0
 10
-0.1867529269
 20
0.8431147441
 30
0.0
 11
-0.1867529269
 21
64.7223249648
 31
0.0
  0
LINE
  5
C3
  8
細線
 62
     0
 10
-0.1867529269
 20
64.7223249648
 30
0.0
 11
190.2894375493
 21
64.7223249648
 31
0.0
  0
LINE
  5
C4
  8
細線
 62
     0
 10
190.2894375493
 20
64.7223249648
 30
0.0
 11
190.2894375493
 21
0.8431147441
 31
0.0
  0
LINE
  5
C5
  8
細線
 62
     0
 10
190.2894375493
 20
0.8431147441
 30
0.0
 11
-0.1867529269
 21
0.8431147441
 31
0.0
  0
TEXT
  5
C6
  8
細線
 62
     0
 10
0.0
 20
16.8240104489
 30
0.0
 40
47.625
  1
基礎図
 41
0.7
 11
0.0
 21
0.0
 31
0.0
 73
     1
  0
ENDBLK
  5
C1
  8
0
  0
BLOCK
  8
0
  2
SW_NOTE_9
 70
     0
 10
0.0
 20
0.0
 30
0.0
  3
SW_NOTE_9
  1

  0
TEXT
  5
CB
  8
細線
 62
     0
 10
0.0
 20
12.3641021672
 30
0.0
 40
35.0
  1
図
 41
0.7
 11
0.0
 21
0.0
 31
0.0
 73
     1
  0
TEXT
  5
CC
  8
細線
 62
     0
 10
0.0
 20
-37.6358967152
 30
0.0
 40
35.0
  1
名
 41
0.7
 11
0.0
 21
-49.9999988824
 31
0.0
 73
     1
  0
ENDBLK
  5
CA
  8
0
  0
BLOCK
  8
0
  2
SW_NOTE_10
 70
     0
 10
0.0
 20
0.0
 30
0.0
  3
SW_NOTE_10
  1

  0
TEXT
  5
D1
  8
細線
 62
     0
 10
0.0
 20
11.2160069659
 30
0.0
 40
31.75
  1
表面
 41
0.7
 11
0.0
 21
0.0
 31
0.0
 73
     1
  0
TEXT
  5
D2
  8
細線
 62
     0
 10
0.0
 20
-31.1173258558
 30
0.0
 40
31.75
  1
処理
 41
0.7
 11
0.0
 21
-42.3333328217
 31
0.0
 73
     1
  0
ENDBLK
  5
D0
  8
0
  0
BLOCK
  8
0
  2
SW_NOTE_11
 70
     0
 10
0.0
 20
0.0
 30
0.0
  3
SW_NOTE_11
  1

  0
TEXT
  5
D7
  8
細線
 62
     0
 10
0.0
 20
12.3641021672
 30
0.0
 40
35.0
  1
図
 41
0.7
 11
0.0
 21
0.0
 31
0.0
 73
     1
  0
TEXT
  5
D8
  8
細線
 62
     0
 10
0.0
 20
-37.6358967152
 30
0.0
 40
35.0
  1
番
 41
0.7
 11
0.0
 21
-49.9999988824
 31
0.0
 73
     1
  0
ENDBLK
  5
D6
  8
0
  0
BLOCK
  8
0
  2
SW_TABLEANNOTATION_0
 70
     0
 10
0.0
 20
0.0
 30
0.0
  3
SW_TABLEANNOTATION_0
  1

  0
LINE
  5
E1
  8
細線
 62
     0
 10
0.0
 20
0.0
 30
0.0
 11
0.0
 21
-115.1389794812
 31
0.0
  0
LINE
  5
E2
  8
細線
 62
     0
 10
0.0
 20
-115.1389794812
 30
0.0
 11
839.0833578878
 21
-115.1389794812
 31
0.0
  0
LINE
  5
E3
  8
細線
 62
     0
 10
839.0833578878
 20
-115.1389794812
 30
0.0
 11
839.0833578878
 21
0.0
 31
0.0
  0
LINE
  5
E4
  8
細線
 62
     0
 10
839.0833578878
 20
0.0
 30
0.0
 11
0.0
 21
0.0
 31
0.0
  0
LINE
  5
E5
  8
細線
 62
     0
 10
180.7086958798
 20
-57.5694897406
 30
0.0
 11
180.7086958798
 21
-115.1389794812
 31
0.0
  0
LINE
  5
E6
  8
細線
 62
     0
 10
580.4706532405
 20
-57.5694897406
 30
0.0
 11
580.4706532405
 21
-115.1389794812
 31
0.0
  0
LINE
  5
E7
  8
細線
 62
     0
 10
671.9428731398
 20
-57.5694897406
 30
0.0
 11
671.9428731398
 21
-115.1389794812
 31
0.0
  0
LINE
  5
E8
  8
細線
 62
     0
 10
180.7086958798
 20
0.0
 30
0.0
 11
180.7086958798
 21
-57.5694897406
 31
0.0
  0
LINE
  5
E9
  8
細線
 62
     0
 10
580.4706532405
 20
0.0
 30
0.0
 11
580.4706532405
 21
-57.5694897406
 31
0.0
  0
LINE
  5
EA
  8
細線
 62
     0
 10
671.9428731398
 20
0.0
 30
0.0
 11
671.9428731398
 21
-57.5694897406
 31
0.0
  0
LINE
  5
EB
  8
細線
 62
     0
 10
0.0
 20
-57.5694897406
 30
0.0
 11
839.0833578878
 21
-57.5694897406
 31
0.0
  0
TEXT
  5
EC
  8
細線
 62
     0
 10
8.8821280406
 20
-96.997039921
 30
0.0
 40
35.0
  1
部品番号
 41
0.7
 11
8.8821280406
 21
-109.3611420882
 31
0.0
 73
     1
  0
TEXT
  5
ED
  8
細線
 62
     0
 10
339.8535646105
 20
-96.997039921
 30
0.0
 40
35.0
  1
品名
 41
0.7
 11
339.8535646105
 21
-109.3611420882
 31
0.0
 73
     1
  0
TEXT
  5
EE
  8
細線
 62
     0
 10
585.4706532405
 20
-96.997039921
 30
0.0
 40
35.0
  1
個数
 41
0.7
 11
585.4706532405
 21
-109.3611420882
 31
0.0
 73
     1
  0
TEXT
  5
EF
  8
細線
 62
     0
 10
714.7770055642
 20
-96.997039921
 30
0.0
 40
35.0
  1
材質
 41
0.7
 11
714.7770055642
 21
-109.3611420882
 31
0.0
 73
     1
  0
TEXT
  5
F0
  8
細線
 62
     0
 10
80.1703204525
 20
-39.4275501805
 30
0.0
 40
35.0
  1
1
 41
0.7
 11
80.1703204525
 21
-51.7916523476
 31
0.0
 73
     1
  0
TEXT
  5
F1
  8
細線
 62
     0
 10
207.4612037817
 20
-39.4275501805
 30
0.0
 40
35.0
  1
BN-100ST 基礎伏図
 41
0.7
 11
207.4612037817
 21
-51.7916523476
 31
0.0
 73
     1
  0
TEXT
  5
F2
  8
細線
 62
     0
 10
616.0227357027
 20
-39.4275501805
 30
0.0
 40
35.0
  1
1
 41
0.7
 11
616.0227357027
 21
-51.7916523476
 31
0.0
 73
     1
  0
TEXT
  5
F3
  8
細線
 62
     0
 10
694.4089529177
 20
-39.4275501805
 30
0.0
 40
35.0
  1
ｺﾝｸﾘｰﾄ
 41
0.7
 11
694.4089529177
 21
-51.7916523476
 31
0.0
 73
     1
  0
ENDBLK
  5
E0
  8
0
  0
BLOCK
  8
0
  2
_OPEN30
 70
     0
 10
0.0
 20
0.0
 30
0.0
  3
_OPEN30
  1

  0
LINE
  5
174
  8
0
  6
BYBLOCK
 62
     0
 10
-1.0
 20
0.267949
 30
0.0
 11
0.0
 21
0.0
 31
0.0
  0
LINE
  5
175
  8
0
  6
BYBLOCK
 62
     0
 10
0.0
 20
0.0
 30
0.0
 11
-1.0
 21
-0.267949
 31
0.0
  0
LINE
  5
176
  8
0
  6
BYBLOCK
 62
     0
 10
0.0
 20
0.0
 30
0.0
 11
-1.0
 21
0.0
 31
0.0
  0
ENDBLK
  5
173
  8
0
  0
BLOCK
  8
0
  2
_D
 70
     0
 10
0.0
 20
0.0
 30
0.0
  3
_D
  1

  0
INSERT
  5
17A
  8
細線
  2
_OPEN30
 10
788.3458840829
 20
2370.4024499662
 30
-939.4647598786
 41
30.0
 42
30.0
 50
180.0
  0
INSERT
  5
17B
  8
細線
  2
_OPEN30
 10
1568.3458840829
 20
2370.4024499662
 30
-939.4647598786
 41
30.0
 42
30.0
 50
0.0
  0
LINE
  5
17C
  8
細線
 10
788.3458840829
 20
2050.4024499662
 30
0.0
 11
788.3458840829
 21
2380.4024499662
 31
0.0
  0
LINE
  5
17D
  8
細線
 10
1568.3458840829
 20
2050.4024499662
 30
0.0
 11
1568.3458840829
 21
2380.4024499662
 31
0.0
  0
LINE
  5
17E
  8
細線
 10
788.3458840829
 20
2370.4024499662
 30
0.0
 11
1568.3458840829
 21
2370.4024499662
 31
0.0
  0
TEXT
  5
17F
  8
細線
 10
1126.9383841673
 20
2387.2264609972
 30
-939.4647598786
 40
47.625
  1
780
 50
0.0
 41
0.7
 11
1126.9383841673
 21
2370.4024505482
 31
-939.4647598786
 73
     1
  0
ENDBLK
  5
179
  8
0
  0
BLOCK
  8
0
  2
_D_1
 70
     0
 10
0.0
 20
0.0
 30
0.0
  3
_D_1
  1

  0
INSERT
  5
185
  8
細線
  2
_OPEN30
 10
628.3458840829
 20
2370.4024499662
 30
-939.4647598786
 41
30.0
 42
30.0
 50
0.0
  0
INSERT
  5
186
  8
細線
  2
_OPEN30
 10
788.3458840829
 20
2370.4024499662
 30
-939.4647598786
 41
30.0
 42
30.0
 50
180.0
  0
LINE
  5
187
  8
細線
 10
628.3458840829
 20
2280.4024499662
 30
0.0
 11
628.3458840829
 21
2380.4024499662
 31
0.0
  0
LINE
  5
188
  8
細線
 10
788.3458840829
 20
2050.4024499662
 30
0.0
 11
788.3458840829
 21
2380.4024499662
 31
0.0
  0
LINE
  5
189
  8
細線
 10
628.3458840829
 20
2370.4024499662
 30
0.0
 11
568.3458840829
 21
2370.4024499662
 31
0.0
  0
LINE
  5
18A
  8
細線
 10
628.3458840829
 20
2370.4024499662
 30
0.0
 11
788.3458840829
 21
2370.4024499662
 31
0.0
  0
LINE
  5
18B
  8
細線
 10
788.3458840829
 20
2370.4024499662
 30
0.0
 11
848.3458840829
 21
2370.4024499662
 31
0.0
  0
TEXT
  5
18C
  8
細線
 10
669.5807061306
 20
2382.766549805
 30
-939.4647598786
 40
35.0
  1
160
 41
0.7
 11
669.5807061306
 21
2370.4024476379
 31
-939.4647598786
 73
     1
  0
ENDBLK
  5
184
  8
0
  0
BLOCK
  8
0
  2
_D_2
 70
     0
 10
0.0
 20
0.0
 30
0.0
  3
_D_2
  1

  0
INSERT
  5
191
  8
細線
  2
_OPEN30
 10
1568.3458840829
 20
2370.4024499662
 30
-939.4647598786
 41
30.0
 42
30.0
 50
0.0
  0
INSERT
  5
192
  8
細線
  2
_OPEN30
 10
1728.3458840829
 20
2370.4024499662
 30
-939.4647598786
 41
30.0
 42
30.0
 50
180.0
  0
LINE
  5
193
  8
細線
 10
1568.3458840829
 20
2050.4024499662
 30
0.0
 11
1568.3458840829
 21
2380.4024499662
 31
0.0
  0
LINE
  5
194
  8
細線
 10
1728.3458840829
 20
2280.4024499662
 30
0.0
 11
1728.3458840829
 21
2380.4024499662
 31
0.0
  0
LINE
  5
195
  8
細線
 10
1568.3458840829
 20
2370.4024499662
 30
0.0
 11
1508.3458840829
 21
2370.4024499662
 31
0.0
  0
LINE
  5
196
  8
細線
 10
1568.3458840829
 20
2370.4024499662
 30
0.0
 11
1728.3458840829
 21
2370.4024499662
 31
0.0
  0
LINE
  5
197
  8
細線
 10
1728.3458840829
 20
2370.4024499662
 30
0.0
 11
1788.3458840829
 21
2370.4024499662
 31
0.0
  0
TEXT
  5
198
  8
細線
 10
1609.4255489469
 20
2382.766549805
 30
-939.4647598786
 40
35.0
  1
160
 41
0.7
 11
1609.4255489469
 21
2370.4024476379
 31
-939.4647598786
 73
     1
  0
ENDBLK
  5
190
  8
0
  0
BLOCK
  8
0
  2
_D_3
 70
     0
 10
0.0
 20
0.0
 30
0.0
  3
_D_3
  1

  0
INSERT
  5
19D
  8
細線
  2
_OPEN30
 10
1728.3458840829
 20
2471.0051256829
 30
-939.4647598786
 41
30.0
 42
30.0
 50
0.0
  0
INSERT
  5
19E
  8
細線
  2
_OPEN30
 10
628.3458840829
 20
2471.0051256829
 30
-939.4647598786
 41
30.0
 42
30.0
 50
180.0
  0
LINE
  5
19F
  8
細線
 10
1728.3458840829
 20
2280.4024499662
 30
0.0
 11
1728.3458840829
 21
2481.0051256829
 31
0.0
  0
LINE
  5
1A0
  8
細線
 10
628.3458840829
 20
2280.4024499662
 30
0.0
 11
628.3458840829
 21
2481.0051256829
 31
0.0
  0
LINE
  5
1A1
  8
細線
 10
1728.3458840829
 20
2471.0051256829
 30
0.0
 11
628.3458840829
 21
2471.0051256829
 31
0.0
  0
TEXT
  5
1A2
  8
細線
 10
1111.0192873994
 20
2487.8291367139
 30
-939.4647598786
 40
47.625
  1
1100
 50
0.0
 41
0.7
 11
1111.0192873994
 21
2471.0051262649
 31
-939.4647598786
 73
     1
  0
ENDBLK
  5
19C
  8
0
  0
BLOCK
  8
0
  2
_D_4
 70
     0
 10
0.0
 20
0.0
 30
0.0
  3
_D_4
  1

  0
INSERT
  5
1A7
  8
細線
  2
_OPEN30
 10
1851.1885978946
 20
2040.4024499662
 30
-939.4647598786
 41
30.0
 42
30.0
 50
90.0
  0
INSERT
  5
1A8
  8
細線
  2
_OPEN30
 10
1851.1885978946
 20
1680.4024499662
 30
-939.4647598786
 41
30.0
 42
30.0
 50
270.0
  0
LINE
  5
1A9
  8
細線
 10
1578.3458840829
 20
2040.4024499662
 30
0.0
 11
1861.1885978946
 21
2040.4024499662
 31
0.0
  0
LINE
  5
1AA
  8
細線
 10
1578.3458840829
 20
1680.4024499662
 30
0.0
 11
1861.1885978946
 21
1680.4024499662
 31
0.0
  0
LINE
  5
1AB
  8
細線
 10
1851.1885978946
 20
2040.4024499662
 30
0.0
 11
1851.1885978946
 21
1680.4024499662
 31
0.0
  0
TEXT
  5
1AC
  8
細線
 10
1834.3645868636
 20
1800.5746237802
 30
-939.4647598786
 40
47.625
  1
360
 50
90.0
 41
0.7
 11
1851.1885973126
 21
1800.5746237802
 31
-939.4647598786
 73
     1
  0
ENDBLK
  5
1A6
  8
0
  0
BLOCK
  8
0
  2
_D_5
 70
     0
 10
0.0
 20
0.0
 30
0.0
  3
_D_5
  1

  0
INSERT
  5
1B2
  8
細線
  2
_OPEN30
 10
1851.1885978946
 20
2270.4024499662
 30
-939.4647598786
 41
30.0
 42
30.0
 50
90.0
  0
INSERT
  5
1B3
  8
細線
  2
_OPEN30
 10
1851.1885978946
 20
2040.4024499662
 30
-939.4647598786
 41
30.0
 42
30.0
 50
270.0
  0
LINE
  5
1B4
  8
細線
 10
1738.3458840829
 20
2270.4024499662
 30
0.0
 11
1861.1885978946
 21
2270.4024499662
 31
0.0
  0
LINE
  5
1B5
  8
細線
 10
1578.3458840829
 20
2040.4024499662
 30
0.0
 11
1861.1885978946
 21
2040.4024499662
 31
0.0
  0
LINE
  5
1B6
  8
細線
 10
1851.1885978946
 20
2270.4024499662
 30
0.0
 11
1851.1885978946
 21
2040.4024499662
 31
0.0
  0
TEXT
  5
1B7
  8
細線
 10
1838.8244980558
 20
2126.7521745803
 30
-939.4647598786
 40
35.0
  1
230
 50
90.0
 41
0.7
 11
1851.1886002229
 21
2126.7521745803
 31
-939.4647598786
 73
     1
  0
ENDBLK
  5
1B1
  8
0
  0
BLOCK
  8
0
  2
_D_6
 70
     0
 10
0.0
 20
0.0
 30
0.0
  3
_D_6
  1

  0
INSERT
  5
1BC
  8
細線
  2
_OPEN30
 10
1851.1885978946
 20
1680.4024499662
 30
-939.4647598786
 41
30.0
 42
30.0
 50
90.0
  0
INSERT
  5
1BD
  8
細線
  2
_OPEN30
 10
1851.1885978946
 20
1450.4024499662
 30
-939.4647598786
 41
30.0
 42
30.0
 50
270.0
  0
LINE
  5
1BE
  8
細線
 10
1578.3458840829
 20
1680.4024499662
 30
0.0
 11
1861.1885978946
 21
1680.4024499662
 31
0.0
  0
LINE
  5
1BF
  8
細線
 10
1738.3458840829
 20
1450.4024499662
 30
0.0
 11
1861.1885978946
 21
1450.4024499662
 31
0.0
  0
LINE
  5
1C0
  8
細線
 10
1851.1885978946
 20
1680.4024499662
 30
0.0
 11
1851.1885978946
 21
1450.4024499662
 31
0.0
  0
TEXT
  5
1C1
  8
細線
 10
1838.8244980558
 20
1537.4166122083
 30
-939.4647598786
 40
35.0
  1
230
 50
90.0
 41
0.7
 11
1851.1886002229
 21
1537.4166122083
 31
-939.4647598786
 73
     1
  0
ENDBLK
  5
1BB
  8
0
  0
BLOCK
  8
0
  2
_D_7
 70
     0
 10
0.0
 20
0.0
 30
0.0
  3
_D_7
  1

  0
INSERT
  5
1C6
  8
細線
  2
_OPEN30
 10
1969.2850384103
 20
1450.4024499662
 30
-939.4647598786
 41
30.0
 42
30.0
 50
270.0
  0
INSERT
  5
1C7
  8
細線
  2
_OPEN30
 10
1969.2850384103
 20
2270.4024499662
 30
-939.4647598786
 41
30.0
 42
30.0
 50
90.0
  0
LINE
  5
1C8
  8
細線
 10
1738.3458840829
 20
1450.4024499662
 30
0.0
 11
1979.2850384103
 21
1450.4024499662
 31
0.0
  0
LINE
  5
1C9
  8
細線
 10
1738.3458840829
 20
2270.4024499662
 30
0.0
 11
1979.2850384103
 21
2270.4024499662
 31
0.0
  0
LINE
  5
1CA
  8
細線
 10
1969.2850384103
 20
1450.4024499662
 30
0.0
 11
1969.2850384103
 21
2270.4024499662
 31
0.0
  0
TEXT
  5
1CB
  8
細線
 10
1952.4610273793
 20
1800.5746237802
 30
-939.4647598786
 40
47.625
  1
820
 50
90.0
 41
0.7
 11
1969.2850378282
 21
1800.5746237802
 31
-939.4647598786
 73
     1
  0
ENDBLK
  5
1C5
  8
0
  0
BLOCK
  8
0
  2
_D_8
 70
     0
 10
0.0
 20
0.0
 30
0.0
  3
_D_8
  1

  0
INSERT
  5
1D0
  8
細線
  2
_OPEN30
 10
628.3458840829
 20
1350.4024499662
 30
-939.4647598786
 41
30.0
 42
30.0
 50
0.0
  0
INSERT
  5
1D1
  8
細線
  2
_OPEN30
 10
759.0458840829
 20
1350.4024499662
 30
-939.4647598786
 41
30.0
 42
30.0
 50
180.0
  0
LINE
  5
1D2
  8
細線
 10
628.3458840829
 20
1440.4024499662
 30
0.0
 11
628.3458840829
 21
1340.4024499662
 31
0.0
  0
LINE
  5
1D3
  8
細線
 10
759.0458840829
 20
1577.5024499662
 30
0.0
 11
759.0458840829
 21
1340.4024499662
 31
0.0
  0
LINE
  5
1D4
  8
細線
 10
628.3458840829
 20
1350.4024499662
 30
0.0
 11
568.3458840829
 21
1350.4024499662
 31
0.0
  0
LINE
  5
1D5
  8
細線
 10
628.3458840829
 20
1350.4024499662
 30
0.0
 11
759.0458840829
 21
1350.4024499662
 31
0.0
  0
LINE
  5
1D6
  8
細線
 10
759.0458840829
 20
1350.4024499662
 30
0.0
 11
819.0458840829
 21
1350.4024499662
 31
0.0
  0
TEXT
  5
1D7
  8
細線
 10
649.5218300888
 20
1362.766549805
 30
-939.4647598786
 40
35.0
  1
130.7
 41
0.7
 11
649.5218300888
 21
1350.4024476379
 31
-939.4647598786
 73
     1
  0
ENDBLK
  5
1CF
  8
0
  0
BLOCK
  8
0
  2
_D_9
 70
     0
 10
0.0
 20
0.0
 30
0.0
  3
_D_9
  1

  0
INSERT
  5
1DC
  8
細線
  2
_OPEN30
 10
538.924871216
 20
1450.4024499662
 30
-939.4647598786
 41
30.0
 42
30.0
 50
90.0
  0
INSERT
  5
1DD
  8
細線
  2
_OPEN30
 10
538.924871216
 20
1587.5024499662
 30
-939.4647598786
 41
30.0
 42
30.0
 50
270.0
  0
LINE
  5
1DE
  8
細線
 10
618.3458840829
 20
1450.4024499662
 30
0.0
 11
528.924871216
 21
1450.4024499662
 31
0.0
  0
LINE
  5
1DF
  8
細線
 10
750.6458840829
 20
1587.5024499662
 30
0.0
 11
528.924871216
 21
1587.5024499662
 31
0.0
  0
LINE
  5
1E0
  8
細線
 10
538.924871216
 20
1450.4024499662
 30
0.0
 11
538.924871216
 21
1390.4024499662
 31
0.0
  0
LINE
  5
1E1
  8
細線
 10
538.924871216
 20
1450.4024499662
 30
0.0
 11
538.924871216
 21
1587.5024499662
 31
0.0
  0
LINE
  5
1E2
  8
細線
 10
538.924871216
 20
1587.5024499662
 30
0.0
 11
538.924871216
 21
1647.5024499662
 31
0.0
  0
TEXT
  5
1E3
  8
細線
 10
526.5607713771
 20
1481.577645022
 30
-939.4647598786
 40
35.0
  1
137.1
 50
90.0
 41
0.7
 11
538.9248735443
 21
1481.577645022
 31
-939.4647598786
 73
     1
  0
ENDBLK
  5
1DB
  8
0
  0
BLOCK
  8
0
  2
_D_10
 70
     0
 10
0.0
 20
0.0
 30
0.0
  3
_D_10
  1

  0
INSERT
  5
1E8
  8
細線
  2
_OPEN30
 10
862.298347983
 20
1520.172111516
 30
-939.4647598786
 41
30.0
 42
30.0
 50
204.7751405688
  0
INSERT
  5
1E9
  8
細線
  2
_OPEN30
 10
1642.298347983
 20
1880.172111516
 30
-939.4647598786
 41
30.0
 42
30.0
 50
24.7751405688
  0
LINE
  5
1EA
  8
細線
 10
792.5364658575
 20
1671.3228561212
 30
0.0
 11
866.4889297577
 21
1511.0925176709
 31
0.0
  0
LINE
  5
1EB
  8
細線
 10
1572.5364658575
 20
2031.3228561212
 30
0.0
 11
1646.4889297577
 21
1871.0925176709
 31
0.0
  0
LINE
  5
1EC
  8
細線
 10
862.298347983
 20
1520.172111516
 30
0.0
 11
1642.298347983
 21
1880.172111516
 31
0.0
  0
TEXT
  5
1ED
  8
細線
 10
1183.3612235007
 20
1686.8844524863
 30
-939.4647598786
 40
47.625
  1
859.1
 50
24.7751405688
 41
0.7
 11
1190.411462657
 21
1671.6089343143
 31
-939.4647598786
 73
     1
  0
ENDBLK
  5
1E7
  8
0
  0
BLOCK
  8
0
  2
_D_11
 70
     0
 10
0.0
 20
0.0
 30
0.0
  3
_D_11
  1

  0
INSERT
  5
201
  8
細線
  2
_OPEN30
 10
780.0958840829
 20
1158.9964372894
 30
-299.5619932353
 41
30.0
 42
30.0
 50
0.0
  0
INSERT
  5
202
  8
細線
  2
_OPEN30
 10
796.5958840829
 20
1158.9964372894
 30
-299.5619932353
 41
30.0
 42
30.0
 50
180.0
  0
LINE
  5
203
  8
細線
 10
780.0958840829
 20
1078.2043458196
 30
0.0
 11
780.0958840829
 21
1168.9964372894
 31
0.0
  0
LINE
  5
204
  8
細線
 10
796.5958840829
 20
1078.2043458196
 30
0.0
 11
796.5958840829
 21
1168.9964372894
 31
0.0
  0
LINE
  5
205
  8
細線
 10
780.0958840829
 20
1158.9964372894
 30
0.0
 11
562.0374285493
 21
1158.9964372894
 31
0.0
  0
LINE
  5
206
  8
細線
 10
780.0958840829
 20
1158.9964372894
 30
0.0
 11
796.5958840829
 21
1158.9964372894
 31
0.0
  0
LINE
  5
207
  8
細線
 10
796.5958840829
 20
1158.9964372894
 30
0.0
 11
856.5958840829
 21
1158.9964372894
 31
0.0
  0
TEXT
  5
208
  8
細線
 10
562.0374285493
 20
1175.8204483204
 30
-299.5619932353
 40
47.625
  1
%%c
 41
0.7
 11
562.0374285493
 21
1158.9964378714
 31
-299.5619932353
 73
     1
  0
TEXT
  5
209
  8
細線
 10
622.3624280531
 20
1175.8204483204
 30
-299.5619932353
 40
47.625
  1
16.5
 41
0.7
 11
622.3624280531
 21
1158.9964378714
 31
-299.5619932353
 73
     1
  0
ENDBLK
  5
200
  8
0
  0
BLOCK
  8
0
  2
_D_12
 70
     0
 10
0.0
 20
0.0
 30
0.0
  3
_D_12
  1

  0
INSERT
  5
20E
  8
細線
  2
_OPEN30
 10
528.3458840829
 20
1068.2043458196
 30
-299.5619932353
 41
30.0
 42
30.0
 50
270.0
  0
INSERT
  5
20F
  8
細線
  2
_OPEN30
 10
528.3458840829
 20
868.2043458196
 30
-299.5619932353
 41
30.0
 42
30.0
 50
90.0
  0
LINE
  5
210
  8
細線
 10
618.3458840829
 20
1068.2043458196
 30
0.0
 11
518.3458840829
 21
1068.2043458196
 31
0.0
  0
LINE
  5
211
  8
細線
 10
618.3458840829
 20
868.2043458196
 30
0.0
 11
518.3458840829
 21
868.2043458196
 31
0.0
  0
LINE
  5
212
  8
細線
 10
528.3458840829
 20
1068.2043458196
 30
0.0
 11
528.3458840829
 21
1128.2043458196
 31
0.0
  0
LINE
  5
213
  8
細線
 10
528.3458840829
 20
1068.2043458196
 30
0.0
 11
528.3458840829
 21
868.2043458196
 31
0.0
  0
LINE
  5
214
  8
細線
 10
528.3458840829
 20
868.2043458196
 30
0.0
 11
528.3458840829
 21
808.2043458196
 31
0.0
  0
TEXT
  5
215
  8
細線
 10
511.5218730519
 20
918.7761267874
 30
-299.5619932353
 40
47.625
  1
200
 50
90.0
 41
0.7
 11
528.3458835009
 21
918.7761267874
 31
-299.5619932353
 73
     1
  0
ENDBLK
  5
20D
  8
0
  0
BLOCK
  8
0
  2
_D_13
 70
     0
 10
0.0
 20
0.0
 30
0.0
  3
_D_13
  1

  0
INSERT
  5
21A
  8
細線
  2
_OPEN30
 10
1828.3458840829
 20
1068.2043458196
 30
-299.5619932353
 41
30.0
 42
30.0
 50
270.0
  0
INSERT
  5
21B
  8
細線
  2
_OPEN30
 10
1828.3458840829
 20
988.2043458196
 30
-299.5619932353
 41
30.0
 42
30.0
 50
90.0
  0
LINE
  5
21C
  8
細線
 10
1738.3458840829
 20
1068.2043458196
 30
0.0
 11
1838.3458840829
 21
1068.2043458196
 31
0.0
  0
LINE
  5
21D
  8
細線
 10
1586.5958840829
 20
988.2043458196
 30
0.0
 11
1838.3458840829
 21
988.2043458196
 31
0.0
  0
LINE
  5
21E
  8
細線
 10
1828.3458840829
 20
1068.2043458196
 30
0.0
 11
1828.3458840829
 21
1164.8922119092
 31
0.0
  0
LINE
  5
21F
  8
細線
 10
1828.3458840829
 20
1068.2043458196
 30
0.0
 11
1828.3458840829
 21
988.2043458196
 31
0.0
  0
LINE
  5
220
  8
細線
 10
1828.3458840829
 20
988.2043458196
 30
0.0
 11
1828.3458840829
 21
928.2043458196
 31
0.0
  0
TEXT
  5
221
  8
細線
 10
1811.5218730519
 20
1101.2158248376
 30
-299.5619932353
 40
47.625
  1
80
 50
90.0
 41
0.7
 11
1828.3458835009
 21
1101.2158248376
 31
-299.5619932353
 73
     1
  0
ENDBLK
  5
219
  8
0
  0
BLOCK
  8
0
  2
_D_14
 70
     0
 10
0.0
 20
0.0
 30
0.0
  3
_D_14
  1

  0
INSERT
  5
226
  8
細線
  2
_OPEN30
 10
1828.3458840829
 20
988.2043458196
 30
-299.5619932353
 41
30.0
 42
30.0
 50
270.0
  0
INSERT
  5
227
  8
細線
  2
_OPEN30
 10
1828.3458840829
 20
928.2043458196
 30
-299.5619932353
 41
30.0
 42
30.0
 50
90.0
  0
LINE
  5
228
  8
細線
 10
1586.5958840829
 20
988.2043458196
 30
0.0
 11
1838.3458840829
 21
988.2043458196
 31
0.0
  0
LINE
  5
229
  8
細線
 10
1738.3458840829
 20
928.2043458196
 30
0.0
 11
1838.3458840829
 21
928.2043458196
 31
0.0
  0
LINE
  5
22A
  8
細線
 10
1828.3458840829
 20
988.2043458196
 30
0.0
 11
1828.3458840829
 21
1048.2043458196
 31
0.0
  0
LINE
  5
22B
  8
細線
 10
1828.3458840829
 20
988.2043458196
 30
0.0
 11
1828.3458840829
 21
928.2043458196
 31
0.0
  0
LINE
  5
22C
  8
細線
 10
1828.3458840829
 20
928.2043458196
 30
0.0
 11
1828.3458840829
 21
868.2043458196
 31
0.0
  0
TEXT
  5
22D
  8
細線
 10
1815.9817842441
 20
935.0817112027
 30
-299.5619932353
 40
35.0
  1
60
 50
90.0
 41
0.7
 11
1828.3458864112
 21
935.0817112027
 31
-299.5619932353
 73
     1
  0
ENDBLK
  5
225
  8
0
  0
BLOCK
  8
0
  2
_D_15
 70
     0
 10
0.0
 20
0.0
 30
0.0
  3
_D_15
  1

  0
INSERT
  5
232
  8
細線
  2
_OPEN30
 10
1828.3458840829
 20
928.2043458196
 30
-299.5619932353
 41
30.0
 42
30.0
 50
270.0
  0
INSERT
  5
233
  8
細線
  2
_OPEN30
 10
1828.3458840829
 20
868.2043458196
 30
-299.5619932353
 41
30.0
 42
30.0
 50
90.0
  0
LINE
  5
234
  8
細線
 10
1738.3458840829
 20
928.2043458196
 30
0.0
 11
1838.3458840829
 21
928.2043458196
 31
0.0
  0
LINE
  5
235
  8
細線
 10
1738.3458840829
 20
868.2043458196
 30
0.0
 11
1838.3458840829
 21
868.2043458196
 31
0.0
  0
LINE
  5
236
  8
細線
 10
1828.3458840829
 20
928.2043458196
 30
0.0
 11
1828.3458840829
 21
988.2043458196
 31
0.0
  0
LINE
  5
237
  8
細線
 10
1828.3458840829
 20
928.2043458196
 30
0.0
 11
1828.3458840829
 21
868.2043458196
 31
0.0
  0
LINE
  5
238
  8
細線
 10
1828.3458840829
 20
868.2043458196
 30
0.0
 11
1828.3458840829
 21
800.4580161882
 31
0.0
  0
TEXT
  5
239
  8
細線
 10
1815.9817842441
 20
800.4580161882
 30
-299.5619932353
 40
35.0
  1
60
 50
90.0
 41
0.7
 11
1828.3458864112
 21
800.4580161882
 31
-299.5619932353
 73
     1
  0
ENDBLK
  5
231
  8
0
  0
BLOCK
  8
0
  2
_D_16
 70
     0
 10
0.0
 20
0.0
 30
0.0
  3
_D_16
  1

  0
INSERT
  5
2B8
  8
細線
  2
_OPEN30
 10
2618.2949886316
 20
2394.1805336213
 30
-939.4647598786
 41
30.0
 42
30.0
 50
180.0
  0
INSERT
  5
2B9
  8
細線
  2
_OPEN30
 10
3398.2949886316
 20
2394.1805336213
 30
-939.4647598786
 41
30.0
 42
30.0
 50
0.0
  0
LINE
  5
2BA
  8
細線
 10
2618.2949886316
 20
2034.1805336213
 30
0.0
 11
2618.2949886316
 21
2404.1805336213
 31
0.0
  0
LINE
  5
2BB
  8
細線
 10
3398.2949886316
 20
2034.1805336213
 30
0.0
 11
3398.2949886316
 21
2404.1805336213
 31
0.0
  0
LINE
  5
2BC
  8
細線
 10
2618.2949886316
 20
2394.1805336213
 30
0.0
 11
3398.2949886316
 21
2394.1805336213
 31
0.0
  0
TEXT
  5
2BD
  8
細線
 10
2950.0477405999
 20
2411.0045446523
 30
-939.4647598786
 40
47.625
  1
780
 50
0.0
 41
0.7
 11
2950.0477405999
 21
2394.1805342034
 31
-939.4647598786
 73
     1
  0
ENDBLK
  5
2B7
  8
0
  0
BLOCK
  8
0
  2
_D_17
 70
     0
 10
0.0
 20
0.0
 30
0.0
  3
_D_17
  1

  0
INSERT
  5
2C2
  8
細線
  2
_OPEN30
 10
2458.2949886316
 20
2394.1805336213
 30
-939.4647598786
 41
30.0
 42
30.0
 50
0.0
  0
INSERT
  5
2C3
  8
細線
  2
_OPEN30
 10
2618.2949886316
 20
2394.1805336213
 30
-939.4647598786
 41
30.0
 42
30.0
 50
180.0
  0
LINE
  5
2C4
  8
細線
 10
2458.2949886316
 20
2304.1805336213
 30
0.0
 11
2458.2949886316
 21
2404.1805336213
 31
0.0
  0
LINE
  5
2C5
  8
細線
 10
2618.2949886316
 20
2034.1805336213
 30
0.0
 11
2618.2949886316
 21
2404.1805336213
 31
0.0
  0
LINE
  5
2C6
  8
細線
 10
2458.2949886316
 20
2394.1805336213
 30
0.0
 11
2398.2949886316
 21
2394.1805336213
 31
0.0
  0
LINE
  5
2C7
  8
細線
 10
2458.2949886316
 20
2394.1805336213
 30
0.0
 11
2618.2949886316
 21
2394.1805336213
 31
0.0
  0
LINE
  5
2C8
  8
細線
 10
2618.2949886316
 20
2394.1805336213
 30
0.0
 11
2678.2949886316
 21
2394.1805336213
 31
0.0
  0
TEXT
  5
2C9
  8
細線
 10
2503.3337978849
 20
2406.5446334602
 30
-939.4647598786
 40
35.0
  1
160
 41
0.7
 11
2503.3337978849
 21
2394.180531293
 31
-939.4647598786
 73
     1
  0
ENDBLK
  5
2C1
  8
0
  0
BLOCK
  8
0
  2
_D_18
 70
     0
 10
0.0
 20
0.0
 30
0.0
  3
_D_18
  1

  0
INSERT
  5
2CE
  8
細線
  2
_OPEN30
 10
3398.2949886316
 20
2394.1805336213
 30
-939.4647598786
 41
30.0
 42
30.0
 50
0.0
  0
INSERT
  5
2CF
  8
細線
  2
_OPEN30
 10
3558.2949886316
 20
2394.1805336213
 30
-939.4647598786
 41
30.0
 42
30.0
 50
180.0
  0
LINE
  5
2D0
  8
細線
 10
3398.2949886316
 20
2034.1805336213
 30
0.0
 11
3398.2949886316
 21
2404.1805336213
 31
0.0
  0
LINE
  5
2D1
  8
細線
 10
3558.2949886316
 20
2304.1805336213
 30
0.0
 11
3558.2949886316
 21
2404.1805336213
 31
0.0
  0
LINE
  5
2D2
  8
細線
 10
3398.2949886316
 20
2394.1805336213
 30
0.0
 11
3338.2949886316
 21
2394.1805336213
 31
0.0
  0
LINE
  5
2D3
  8
細線
 10
3398.2949886316
 20
2394.1805336213
 30
0.0
 11
3558.2949886316
 21
2394.1805336213
 31
0.0
  0
LINE
  5
2D4
  8
細線
 10
3558.2949886316
 20
2394.1805336213
 30
0.0
 11
3618.2949886316
 21
2394.1805336213
 31
0.0
  0
TEXT
  5
2D5
  8
細線
 10
3447.8644320832
 20
2406.5446334602
 30
-939.4647598786
 40
35.0
  1
160
 41
0.7
 11
3447.8644320832
 21
2394.180531293
 31
-939.4647598786
 73
     1
  0
ENDBLK
  5
2CD
  8
0
  0
BLOCK
  8
0
  2
_D_19
 70
     0
 10
0.0
 20
0.0
 30
0.0
  3
_D_19
  1

  0
INSERT
  5
2DA
  8
細線
  2
_OPEN30
 10
2458.2949886316
 20
2483.5037977977
 30
-939.4647598786
 41
30.0
 42
30.0
 50
180.0
  0
INSERT
  5
2DB
  8
細線
  2
_OPEN30
 10
3558.2949886316
 20
2483.5037977977
 30
-939.4647598786
 41
30.0
 42
30.0
 50
0.0
  0
LINE
  5
2DC
  8
細線
 10
2458.2949886316
 20
2304.1805336213
 30
0.0
 11
2458.2949886316
 21
2493.5037977977
 31
0.0
  0
LINE
  5
2DD
  8
細線
 10
3558.2949886316
 20
2304.1805336213
 30
0.0
 11
3558.2949886316
 21
2493.5037977977
 31
0.0
  0
LINE
  5
2DE
  8
細線
 10
2458.2949886316
 20
2483.5037977977
 30
0.0
 11
3558.2949886316
 21
2483.5037977977
 31
0.0
  0
TEXT
  5
2DF
  8
細線
 10
2934.128643832
 20
2500.3278088287
 30
-939.4647598786
 40
47.625
  1
1100
 41
0.7
 11
2934.128643832
 21
2483.5037983797
 31
-939.4647598786
 73
     1
  0
ENDBLK
  5
2D9
  8
0
  0
BLOCK
  8
0
  2
_D_20
 70
     0
 10
0.0
 20
0.0
 30
0.0
  3
_D_20
  1

  0
INSERT
  5
2E4
  8
細線
  2
_OPEN30
 10
3691.0390091521
 20
2294.1805336213
 30
-939.4647598786
 41
30.0
 42
30.0
 50
90.0
  0
INSERT
  5
2E5
  8
細線
  2
_OPEN30
 10
3691.0390091521
 20
2024.1805336213
 30
-939.4647598786
 41
30.0
 42
30.0
 50
270.0
  0
LINE
  5
2E6
  8
細線
 10
3568.2949886316
 20
2294.1805336213
 30
0.0
 11
3701.0390091521
 21
2294.1805336213
 31
0.0
  0
LINE
  5
2E7
  8
細線
 10
3408.2949886316
 20
2024.1805336213
 30
0.0
 11
3701.0390091521
 21
2024.1805336213
 31
0.0
  0
LINE
  5
2E8
  8
細線
 10
3691.0390091521
 20
2294.1805336213
 30
0.0
 11
3691.0390091521
 21
2024.1805336213
 31
0.0
  0
TEXT
  5
2E9
  8
細線
 10
3678.6749093133
 20
2117.7589367956
 30
-939.4647598786
 40
35.0
  1
270
 50
90.0
 41
0.7
 11
3691.0390114804
 21
2117.7589367956
 31
-939.4647598786
 73
     1
  0
ENDBLK
  5
2E3
  8
0
  0
BLOCK
  8
0
  2
_D_21
 70
     0
 10
0.0
 20
0.0
 30
0.0
  3
_D_21
  1

  0
INSERT
  5
2EE
  8
細線
  2
_OPEN30
 10
3691.0390091521
 20
2024.1805336213
 30
-939.4647598786
 41
30.0
 42
30.0
 50
90.0
  0
INSERT
  5
2EF
  8
細線
  2
_OPEN30
 10
3691.0390091521
 20
1664.1805336213
 30
-939.4647598786
 41
30.0
 42
30.0
 50
270.0
  0
LINE
  5
2F0
  8
細線
 10
3408.2949886316
 20
2024.1805336213
 30
0.0
 11
3701.0390091521
 21
2024.1805336213
 31
0.0
  0
LINE
  5
2F1
  8
細線
 10
3408.2949886316
 20
1664.1805336213
 30
0.0
 11
3701.0390091521
 21
1664.1805336213
 31
0.0
  0
LINE
  5
2F2
  8
細線
 10
3691.0390091521
 20
2024.1805336213
 30
0.0
 11
3691.0390091521
 21
1664.1805336213
 31
0.0
  0
TEXT
  5
2F3
  8
細線
 10
3674.2149981211
 20
1789.279379287
 30
-939.4647598786
 40
47.625
  1
360
 50
90.0
 41
0.7
 11
3691.0390085701
 21
1789.279379287
 31
-939.4647598786
 73
     1
  0
ENDBLK
  5
2ED
  8
0
  0
BLOCK
  8
0
  2
_D_22
 70
     0
 10
0.0
 20
0.0
 30
0.0
  3
_D_22
  1

  0
INSERT
  5
2F8
  8
細線
  2
_OPEN30
 10
3691.0390091521
 20
1664.1805336213
 30
-939.4647598786
 41
30.0
 42
30.0
 50
90.0
  0
INSERT
  5
2F9
  8
細線
  2
_OPEN30
 10
3691.0390091521
 20
1394.1805336213
 30
-939.4647598786
 41
30.0
 42
30.0
 50
270.0
  0
LINE
  5
2FA
  8
細線
 10
3408.2949886316
 20
1664.1805336213
 30
0.0
 11
3701.0390091521
 21
1664.1805336213
 31
0.0
  0
LINE
  5
2FB
  8
細線
 10
3568.2949886316
 20
1394.1805336213
 30
0.0
 11
3701.0390091521
 21
1394.1805336213
 31
0.0
  0
LINE
  5
2FC
  8
細線
 10
3691.0390091521
 20
1664.1805336213
 30
0.0
 11
3691.0390091521
 21
1394.1805336213
 31
0.0
  0
TEXT
  5
2FD
  8
細線
 10
3678.6749093133
 20
1491.4057288254
 30
-939.4647598786
 40
35.0
  1
270
 50
90.0
 41
0.7
 11
3691.0390114804
 21
1491.4057288254
 31
-939.4647598786
 73
     1
  0
ENDBLK
  5
2F7
  8
0
  0
BLOCK
  8
0
  2
_D_23
 70
     0
 10
0.0
 20
0.0
 30
0.0
  3
_D_23
  1

  0
INSERT
  5
302
  8
細線
  2
_OPEN30
 10
3817.1785129997
 20
2294.1805336213
 30
-939.4647598786
 41
30.0
 42
30.0
 50
90.0
  0
INSERT
  5
303
  8
細線
  2
_OPEN30
 10
3817.1785129997
 20
1394.1805336213
 30
-939.4647598786
 41
30.0
 42
30.0
 50
270.0
  0
LINE
  5
304
  8
細線
 10
3568.2949886316
 20
2294.1805336213
 30
0.0
 11
3827.1785129997
 21
2294.1805336213
 31
0.0
  0
LINE
  5
305
  8
細線
 10
3568.2949886316
 20
1394.1805336213
 30
0.0
 11
3827.1785129997
 21
1394.1805336213
 31
0.0
  0
LINE
  5
306
  8
細線
 10
3817.1785129997
 20
2294.1805336213
 30
0.0
 11
3817.1785129997
 21
1394.1805336213
 31
0.0
  0
TEXT
  5
307
  8
細線
 10
3800.3545019687
 20
1789.279379287
 30
-939.4647598786
 40
47.625
  1
900
 50
90.0
 41
0.7
 11
3817.1785124177
 21
1789.279379287
 31
-939.4647598786
 73
     1
  0
ENDBLK
  5
301
  8
0
  0
BLOCK
  8
0
  2
_D_24
 70
     0
 10
0.0
 20
0.0
 30
0.0
  3
_D_24
  1

  0
INSERT
  5
30C
  8
細線
  2
_OPEN30
 10
2691.1146017989
 20
1506.4047050922
 30
-939.4647598786
 41
30.0
 42
30.0
 50
204.7751405688
  0
INSERT
  5
30D
  8
細線
  2
_OPEN30
 10
3471.1146017989
 20
1866.4047050922
 30
-939.4647598786
 41
30.0
 42
30.0
 50
24.7751405688
  0
LINE
  5
30E
  8
細線
 10
2622.4855704063
 20
1655.1009397763
 30
0.0
 11
2695.3051835735
 21
1497.3251112472
 31
0.0
  0
LINE
  5
30F
  8
細線
 10
3402.4855704063
 20
2015.1009397763
 30
0.0
 11
3475.3051835735
 21
1857.3251112472
 31
0.0
  0
LINE
  5
310
  8
細線
 10
2691.1146017989
 20
1506.4047050922
 30
0.0
 11
3471.1146017989
 21
1866.4047050922
 31
0.0
  0
TEXT
  5
311
  8
細線
 10
3005.7528079295
 20
1670.1518140377
 30
-939.4647598786
 40
47.625
  1
859.1
 50
24.7751405688
 41
0.7
 11
3012.8030470858
 21
1654.8762958657
 31
-939.4647598786
 73
     1
  0
ENDBLK
  5
30B
  8
0
  0
BLOCK
  8
0
  2
_D_25
 70
     0
 10
0.0
 20
0.0
 30
0.0
  3
_D_25
  1

  0
INSERT
  5
316
  8
細線
  2
_OPEN30
 10
2458.2949886316
 20
1274.0484639963
 30
-939.4647598786
 41
30.0
 42
30.0
 50
0.0
  0
INSERT
  5
317
  8
細線
  2
_OPEN30
 10
2588.9949886316
 20
1274.0484639963
 30
-939.4647598786
 41
30.0
 42
30.0
 50
180.0
  0
LINE
  5
318
  8
細線
 10
2458.2949886316
 20
1384.1805336213
 30
0.0
 11
2458.2949886316
 21
1264.0484639963
 31
0.0
  0
LINE
  5
319
  8
細線
 10
2588.9949886316
 20
1561.2805336213
 30
0.0
 11
2588.9949886316
 21
1264.0484639963
 31
0.0
  0
LINE
  5
31A
  8
細線
 10
2458.2949886316
 20
1274.0484639963
 30
0.0
 11
2398.2949886316
 21
1274.0484639963
 31
0.0
  0
LINE
  5
31B
  8
細線
 10
2458.2949886316
 20
1274.0484639963
 30
0.0
 11
2588.9949886316
 21
1274.0484639963
 31
0.0
  0
LINE
  5
31C
  8
細線
 10
2588.9949886316
 20
1274.0484639963
 30
0.0
 11
2648.9949886316
 21
1274.0484639963
 31
0.0
  0
TEXT
  5
31D
  8
細線
 10
2472.2304676761
 20
1286.4125638352
 30
-939.4647598786
 40
35.0
  1
130.7
 41
0.7
 11
2472.2304676761
 21
1274.048461668
 31
-939.4647598786
 73
     1
  0
ENDBLK
  5
315
  8
0
  0
BLOCK
  8
0
  2
_D_26
 70
     0
 10
0.0
 20
0.0
 30
0.0
  3
_D_26
  1

  0
INSERT
  5
322
  8
細線
  2
_OPEN30
 10
2358.2949886316
 20
1394.1805336213
 30
-939.4647598786
 41
30.0
 42
30.0
 50
90.0
  0
INSERT
  5
323
  8
細線
  2
_OPEN30
 10
2358.2949886316
 20
1571.2805336213
 30
-939.4647598786
 41
30.0
 42
30.0
 50
270.0
  0
LINE
  5
324
  8
細線
 10
2448.2949886316
 20
1394.1805336213
 30
0.0
 11
2348.2949886316
 21
1394.1805336213
 31
0.0
  0
LINE
  5
325
  8
細線
 10
2580.5949886316
 20
1571.2805336213
 30
0.0
 11
2348.2949886316
 21
1571.2805336213
 31
0.0
  0
LINE
  5
326
  8
細線
 10
2358.2949886316
 20
1394.1805336213
 30
0.0
 11
2358.2949886316
 21
1334.1805336213
 31
0.0
  0
LINE
  5
327
  8
細線
 10
2358.2949886316
 20
1394.1805336213
 30
0.0
 11
2358.2949886316
 21
1571.2805336213
 31
0.0
  0
LINE
  5
328
  8
細線
 10
2358.2949886316
 20
1571.2805336213
 30
0.0
 11
2358.2949886316
 21
1631.2805336213
 31
0.0
  0
TEXT
  5
329
  8
細線
 10
2345.9308887928
 20
1439.93800673
 30
-939.4647598786
 40
35.0
  1
177.1
 50
90.0
 41
0.7
 11
2358.2949909599
 21
1439.93800673
 31
-939.4647598786
 73
     1
  0
ENDBLK
  5
321
  8
0
  0
BLOCK
  8
0
  2
_D_27
 70
     0
 10
0.0
 20
0.0
 30
0.0
  3
_D_27
  1

  0
INSERT
  5
33C
  8
細線
  2
_OPEN30
 10
2610.0449886316
 20
1108.1236573909
 30
-299.5619932353
 41
30.0
 42
30.0
 50
0.0
  0
INSERT
  5
33D
  8
細線
  2
_OPEN30
 10
2626.5449886316
 20
1108.1236573909
 30
-299.5619932353
 41
30.0
 42
30.0
 50
180.0
  0
LINE
  5
33E
  8
細線
 10
2610.0449886316
 20
1021.2956036339
 30
0.0
 11
2610.0449886316
 21
1118.1236573909
 31
0.0
  0
LINE
  5
33F
  8
細線
 10
2626.5449886316
 20
1021.2956036339
 30
0.0
 11
2626.5449886316
 21
1118.1236573909
 31
0.0
  0
LINE
  5
340
  8
細線
 10
2610.0449886316
 20
1108.1236573909
 30
0.0
 11
2389.3417263264
 21
1108.1236573909
 31
0.0
  0
LINE
  5
341
  8
細線
 10
2610.0449886316
 20
1108.1236573909
 30
0.0
 11
2626.5449886316
 21
1108.1236573909
 31
0.0
  0
LINE
  5
342
  8
細線
 10
2626.5449886316
 20
1108.1236573909
 30
0.0
 11
2686.5449886316
 21
1108.1236573909
 31
0.0
  0
TEXT
  5
343
  8
細線
 10
2389.3417263264
 20
1124.9476684219
 30
-299.5619932353
 40
47.625
  1
%%c
 41
0.7
 11
2389.3417263264
 21
1108.123657973
 31
-299.5619932353
 73
     1
  0
TEXT
  5
344
  8
細線
 10
2449.6667258302
 20
1124.9476684219
 30
-299.5619932353
 40
47.625
  1
16.5
 41
0.7
 11
2449.6667258302
 21
1108.123657973
 31
-299.5619932353
 73
     1
  0
ENDBLK
  5
33B
  8
0
  0
BLOCK
  8
0
  2
_D_28
 70
     0
 10
0.0
 20
0.0
 30
0.0
  3
_D_28
  1

  0
INSERT
  5
349
  8
細線
  2
_OPEN30
 10
2358.2949886316
 20
1011.2956036339
 30
-299.5619932353
 41
30.0
 42
30.0
 50
270.0
  0
INSERT
  5
34A
  8
細線
  2
_OPEN30
 10
2358.2949886316
 20
861.2956036339
 30
-299.5619932353
 41
30.0
 42
30.0
 50
90.0
  0
LINE
  5
34B
  8
細線
 10
2448.2949886316
 20
1011.2956036339
 30
0.0
 11
2348.2949886316
 21
1011.2956036339
 31
0.0
  0
LINE
  5
34C
  8
細線
 10
2448.2949886316
 20
861.2956036339
 30
0.0
 11
2348.2949886316
 21
861.2956036339
 31
0.0
  0
LINE
  5
34D
  8
細線
 10
2358.2949886316
 20
1011.2956036339
 30
0.0
 11
2358.2949886316
 21
1071.2956036339
 31
0.0
  0
LINE
  5
34E
  8
細線
 10
2358.2949886316
 20
1011.2956036339
 30
0.0
 11
2358.2949886316
 21
861.2956036339
 31
0.0
  0
LINE
  5
34F
  8
細線
 10
2358.2949886316
 20
861.2956036339
 30
0.0
 11
2358.2949886316
 21
801.2956036339
 31
0.0
  0
TEXT
  5
350
  8
細線
 10
2341.4709776006
 20
882.3826761333
 30
-299.5619932353
 40
47.625
  1
150
 50
90.0
 41
0.7
 11
2358.2949880496
 21
882.3826761333
 31
-299.5619932353
 73
     1
  0
ENDBLK
  5
348
  8
0
  0
BLOCK
  8
0
  2
_D_29
 70
     0
 10
0.0
 20
0.0
 30
0.0
  3
_D_29
  1

  0
INSERT
  5
355
  8
細線
  2
_OPEN30
 10
3658.2949886316
 20
1011.2956036339
 30
-299.5619932353
 41
30.0
 42
30.0
 50
270.0
  0
INSERT
  5
356
  8
細線
  2
_OPEN30
 10
3658.2949886316
 20
931.2956036339
 30
-299.5619932353
 41
30.0
 42
30.0
 50
90.0
  0
LINE
  5
357
  8
細線
 10
3568.2949886316
 20
1011.2956036339
 30
0.0
 11
3668.2949886316
 21
1011.2956036339
 31
0.0
  0
LINE
  5
358
  8
細線
 10
3416.5449886316
 20
931.2956036339
 30
0.0
 11
3668.2949886316
 21
931.2956036339
 31
0.0
  0
LINE
  5
359
  8
細線
 10
3658.2949886316
 20
1011.2956036339
 30
0.0
 11
3658.2949886316
 21
1119.900819099
 31
0.0
  0
LINE
  5
35A
  8
細線
 10
3658.2949886316
 20
1011.2956036339
 30
0.0
 11
3658.2949886316
 21
931.2956036339
 31
0.0
  0
LINE
  5
35B
  8
細線
 10
3658.2949886316
 20
931.2956036339
 30
0.0
 11
3658.2949886316
 21
871.2956036339
 31
0.0
  0
TEXT
  5
35C
  8
細線
 10
3641.4709776006
 20
1056.2244320274
 30
-299.5619932353
 40
47.625
  1
80
 50
90.0
 41
0.7
 11
3658.2949880496
 21
1056.2244320274
 31
-299.5619932353
 73
     1
  0
ENDBLK
  5
354
  8
0
  0
BLOCK
  8
0
  2
_D_30
 70
     0
 10
0.0
 20
0.0
 30
0.0
  3
_D_30
  1

  0
INSERT
  5
361
  8
細線
  2
_OPEN30
 10
3727.9478436254
 20
931.2956036339
 30
-299.5619932353
 41
30.0
 42
30.0
 50
270.0
  0
INSERT
  5
362
  8
細線
  2
_OPEN30
 10
3727.9478436254
 20
921.2956036339
 30
-299.5619932353
 41
30.0
 42
30.0
 50
90.0
  0
LINE
  5
363
  8
細線
 10
3416.5449886316
 20
931.2956036339
 30
0.0
 11
3737.9478436254
 21
931.2956036339
 31
0.0
  0
LINE
  5
364
  8
細線
 10
3568.2949886316
 20
921.2956036339
 30
0.0
 11
3737.9478436254
 21
921.2956036339
 31
0.0
  0
LINE
  5
365
  8
細線
 10
3727.9478436254
 20
931.2956036339
 30
0.0
 11
3727.9478436254
 21
988.1779157338
 31
0.0
  0
LINE
  5
366
  8
細線
 10
3727.9478436254
 20
931.2956036339
 30
0.0
 11
3727.9478436254
 21
921.2956036339
 31
0.0
  0
LINE
  5
367
  8
細線
 10
3727.9478436254
 20
921.2956036339
 30
0.0
 11
3727.9478436254
 21
861.2956036339
 31
0.0
  0
TEXT
  5
368
  8
細線
 10
3715.5837437865
 20
947.4418057841
 30
-299.5619932353
 40
35.0
  1
10
 50
90.0
 41
0.7
 11
3727.9478459537
 21
947.4418057841
 31
-299.5619932353
 73
     1
  0
ENDBLK
  5
360
  8
0
  0
BLOCK
  8
0
  2
_D_31
 70
     0
 10
0.0
 20
0.0
 30
0.0
  3
_D_31
  1

  0
INSERT
  5
36D
  8
細線
  2
_OPEN30
 10
3658.2949886316
 20
921.2956036339
 30
-299.5619932353
 41
30.0
 42
30.0
 50
270.0
  0
INSERT
  5
36E
  8
細線
  2
_OPEN30
 10
3658.2949886316
 20
861.2956036339
 30
-299.5619932353
 41
30.0
 42
30.0
 50
90.0
  0
LINE
  5
36F
  8
細線
 10
3568.2949886316
 20
921.2956036339
 30
0.0
 11
3668.2949886316
 21
921.2956036339
 31
0.0
  0
LINE
  5
370
  8
細線
 10
3568.2949886316
 20
861.2956036339
 30
0.0
 11
3668.2949886316
 21
861.2956036339
 31
0.0
  0
LINE
  5
371
  8
細線
 10
3658.2949886316
 20
921.2956036339
 30
0.0
 11
3658.2949886316
 21
981.2956036339
 31
0.0
  0
LINE
  5
372
  8
細線
 10
3658.2949886316
 20
921.2956036339
 30
0.0
 11
3658.2949886316
 21
861.2956036339
 31
0.0
  0
LINE
  5
373
  8
細線
 10
3658.2949886316
 20
861.2956036339
 30
0.0
 11
3658.2949886316
 21
765.333047075
 31
0.0
  0
TEXT
  5
374
  8
細線
 10
3645.9308887928
 20
765.333047075
 30
-299.5619932353
 40
35.0
  1
60
 50
90.0
 41
0.7
 11
3658.2949909599
 21
765.333047075
 31
-299.5619932353
 73
     1
  0
ENDBLK
  5
36C
  8
0
  0
ENDSEC
  0
SECTION
  2
ENTITIES
  0
LINE
  5
76
  8
太線
 10
200.0
 20
2890.0
 30
0.0
 11
4120.0
 21
2890.0
 31
0.0
  0
LINE
  5
77
  8
太線
 10
200.0
 20
2890.0
 30
0.0
 11
200.0
 21
80.0
 31
0.0
  0
LINE
  5
78
  8
太線
 10
200.0
 20
80.0
 30
0.0
 11
4120.0
 21
80.0
 31
0.0
  0
LINE
  5
79
  8
太線
 10
4120.0
 20
2890.0
 30
0.0
 11
4120.0
 21
80.0
 31
0.0
  0
LINE
  5
7A
  8
中太線
 10
2620.0
 20
480.0
 30
0.0
 11
2620.0
 21
80.0
 31
0.0
  0
LINE
  5
7B
  8
中太線
 10
4120.0
 20
480.0
 30
0.0
 11
2620.0
 21
480.0
 31
0.0
  0
LINE
  5
7C
  8
細線
 10
2740.0
 20
220.0
 30
0.0
 11
2740.0
 21
80.0
 31
0.0
  0
LINE
  5
7D
  8
細線
 10
2620.0
 20
220.0
 30
0.0
 11
4120.0
 21
220.0
 31
0.0
  0
LINE
  5
7E
  8
細線
 10
2690.0
 20
480.0
 30
0.0
 11
2690.0
 21
220.0
 31
0.0
  0
LINE
  5
7F
  8
細線
 10
3300.0
 20
320.0
 30
0.0
 11
3300.0
 21
80.0
 31
0.0
  0
LINE
  5
80
  8
細線
 10
3040.0
 20
320.0
 30
0.0
 11
3040.0
 21
220.0
 31
0.0
  0
LINE
  5
81
  8
細線
 10
3110.0
 20
320.0
 30
0.0
 11
3110.0
 21
220.0
 31
0.0
  0
LINE
  5
82
  8
細線
 10
3230.0
 20
320.0
 30
0.0
 11
3230.0
 21
220.0
 31
0.0
  0
LINE
  5
83
  8
細線
 10
3420.0
 20
320.0
 30
0.0
 11
3420.0
 21
220.0
 31
0.0
  0
LINE
  5
84
  8
細線
 10
3490.0
 20
320.0
 30
0.0
 11
3490.0
 21
220.0
 31
0.0
  0
LINE
  5
85
  8
細線
 10
3610.0
 20
480.0
 30
0.0
 11
3610.0
 21
220.0
 31
0.0
  0
LINE
  5
86
  8
細線
 10
3680.0
 20
480.0
 30
0.0
 11
3680.0
 21
220.0
 31
0.0
  0
LINE
  5
87
  8
中太線
 10
4120.0
 20
320.0
 30
0.0
 11
2620.0
 21
320.0
 31
0.0
  0
INSERT
  5
8D
  8
細線
  2
SW_NOTE_0
 10
439.1542643416
 20
2541.2154846874
 30
0.0
  0
INSERT
  5
93
  8
細線
  2
SW_NOTE_1
 10
2307.8725565097
 20
2531.7839623317
 30
0.0
  0
TEXT
  5
94
  8
細線
 10
698.2461891488
 20
2719.5350154313
 30
0.0
 40
52.9166666667
  1
設置スペースにより、A又はBの基礎を選択して下さい
 41
0.7
 11
698.2461891488
 21
2700.841670488
 31
0.0
 73
     1
  0
TEXT
  5
95
  8
細線
 10
225.5286524297
 20
168.7722811059
 30
0.0
 40
47.625
  1
基礎計算の前提条件
 41
0.7
 11
225.5286524297
 21
151.948270657
 31
0.0
 73
     1
  0
INSERT
  5
9B
  8
細線
  2
SW_NOTE_2
 10
805.1721146182
 20
181.1764545022
 30
0.0
  0
INSERT
  5
A1
  8
細線
  2
SW_NOTE_3
 10
2635.7051170213
 20
275.4797837283
 30
0.0
  0
INSERT
  5
A7
  8
細線
  2
SW_NOTE_4
 10
3053.4136510025
 20
272.8569926545
 30
0.0
  0
INSERT
  5
AD
  8
細線
  2
SW_NOTE_5
 10
3242.3880530025
 20
272.9197627307
 30
0.0
  0
INSERT
  5
B3
  8
細線
  2
SW_NOTE_6
 10
3433.5127868985
 20
273.8006386034
 30
0.0
  0
INSERT
  5
B9
  8
細線
  2
SW_NOTE_7
 10
3625.2401582544
 20
272.7345963705
 30
0.0
  0
TEXT
  5
BA
  8
細線
 10
2750.6663701847
 20
137.0169062958
 30
0.0
 40
50.0
  1
アイボリー色
 41
0.7
 11
2750.6663701847
 21
119.3539031998
 31
0.0
 73
     1
  0
TEXT
  5
BB
  8
細線
 10
2699.9592101029
 20
257.7584749721
 30
0.0
 40
50.0
  1
-
 41
0.7
 11
2699.9592101029
 21
240.0954718761
 31
0.0
 73
     1
  0
TEXT
  5
BC
  8
細線
 10
3118.3187195282
 20
265.8762371064
 30
0.0
 40
40.0
  1
山田
 41
0.7
 11
3118.3187195282
 21
251.7458346297
 31
0.0
 73
     1
  0
TEXT
  5
BD
  8
細線
 10
3498.2302648715
 20
266.1527081826
 30
0.0
 40
40.0
  1
ｍｍ
 41
0.7
 11
3498.2302648715
 21
252.0223057058
 31
0.0
 73
     1
  0
TEXT
  5
BE
  8
細線
 10
3698.1614244227
 20
265.981750819
 30
0.0
 40
40.0
  1
2021/3/2
 41
0.7
 11
3698.1614244227
 21
251.8513483423
 31
0.0
 73
     1
  0
INSERT
  5
C7
  8
細線
  2
SW_NOTE_8
 10
1959.5363464228
 20
595.5564206798
 30
0.0
  0
INSERT
  5
CD
  8
細線
  2
SW_NOTE_9
 10
2634.6060731417
 20
404.2185226725
 30
0.0
  0
INSERT
  5
D3
  8
細線
  2
SW_NOTE_10
 10
2634.8994921362
 20
156.3331126623
 30
0.0
  0
INSERT
  5
D9
  8
細線
  2
SW_NOTE_11
 10
3625.3640405008
 20
409.5335321014
 30
0.0
  0
TEXT
  5
DA
  8
細線
 10
2707.8283370194
 20
384.4470885248
 30
0.0
 40
52.9166666667
  1
BN-100ST 基礎伏図
 41
0.7
 11
2707.8283370194
 21
365.7537435815
 31
0.0
 73
     1
  0
TEXT
  5
DB
  8
細線
 10
3699.133782542
 20
396.784374122
 30
0.0
 40
37.0416666667
  1
BN-100ST_C-01
 41
0.7
 11
3699.133782542
 21
383.6990326617
 31
0.0
 73
     1
  0
TEXT
  5
DC
  8
細線
 10
3312.7777089892
 20
261.2177407644
 30
0.0
 40
40.0
  1
木下
 41
0.7
 11
3312.7777089892
 21
247.0873382876
 31
0.0
 73
     1
  0
TEXT
  5
DD
  8
細線
 10
4137.8130210212
 20
107.0545318401
 30
0.0
 40
37.0416666667
  1
E
 41
0.7
 11
4137.8130210212
 21
93.9691903799
 31
0.0
 73
     1
  0
INSERT
  5
F4
  8
細線
  2
SW_TABLEANNOTATION_0
 10
3280.3683549033
 20
595.0887022898
 30
0.0
  0
LINE
  5
F5
  8
0
  6
CONTINUOUS
 62
     7
 10
1728.3458840829
 20
2270.4024499662
 30
0.0
 11
628.3458840829
 21
2270.4024499662
 31
0.0
  0
LINE
  5
F6
  8
0
  6
CONTINUOUS
 62
     7
 10
1728.3458840829
 20
1450.4024499662
 30
0.0
 11
1728.3458840829
 21
2270.4024499662
 31
0.0
  0
LINE
  5
F7
  8
0
  6
CONTINUOUS
 62
     7
 10
628.3458840829
 20
1450.4024499662
 30
0.0
 11
1728.3458840829
 21
1450.4024499662
 31
0.0
  0
LINE
  5
F8
  8
0
  6
CONTINUOUS
 62
     7
 10
628.3458840829
 20
2270.4024499662
 30
0.0
 11
628.3458840829
 21
1450.4024499662
 31
0.0
  0
CIRCLE
  5
F9
  8
0
  6
CONTINUOUS
 62
     7
 10
1568.3458840829
 20
2040.4024499662
 30
0.0
 40
8.250000000000227
  0
CIRCLE
  5
FA
  8
0
  6
CONTINUOUS
 62
     7
 10
1568.3458840829
 20
1680.4024499662
 30
0.0
 40
8.25
  0
CIRCLE
  5
FB
  8
0
  6
CONTINUOUS
 62
     7
 10
788.3458840829
 20
2040.4024499662
 30
0.0
 40
8.250000000000227
  0
CIRCLE
  5
FC
  8
0
  6
CONTINUOUS
 62
     7
 10
788.3458840829
 20
1680.4024499662
 30
0.0
 40
8.249999999999773
  0
LINE
  5
FD
  8
0
  6
HIDDEN
 62
     7
 10
1596.0458840829
 20
2128.3024499662
 30
0.0
 11
1597.6458840829
 21
2128.3024499662
 31
0.0
  0
LINE
  5
FE
  8
0
  6
HIDDEN
 62
     7
 10
1597.6458840829
 20
1592.5024499662
 30
0.0
 11
1597.6458840829
 21
2128.3024499662
 31
0.0
  0
LINE
  5
FF
  8
0
  6
HIDDEN
 62
     7
 10
1596.0458840829
 20
1592.5024499662
 30
0.0
 11
1597.6458840829
 21
1592.5024499662
 31
0.0
  0
LINE
  5
100
  8
0
  6
HIDDEN
 62
     7
 10
1596.0458840829
 20
1592.5024499662
 30
0.0
 11
1596.0458840829
 21
2128.3024499662
 31
0.0
  0
LINE
  5
101
  8
0
  6
HIDDEN
 62
     7
 10
1597.6458840829
 20
1587.5024499662
 30
0.0
 11
1596.0458840829
 21
1587.5024499662
 31
0.0
  0
LINE
  5
102
  8
0
  6
HIDDEN
 62
     7
 10
1596.0458840829
 20
1587.5024499662
 30
0.0
 11
1596.0458840829
 21
1592.5024499662
 31
0.0
  0
LINE
  5
103
  8
0
  6
HIDDEN
 62
     7
 10
1597.6458840829
 20
1592.5024499662
 30
0.0
 11
1597.6458840829
 21
1587.5024499662
 31
0.0
  0
LINE
  5
104
  8
0
  6
HIDDEN
 62
     7
 10
1597.6458840829
 20
2133.3024499662
 30
0.0
 11
1596.0458840829
 21
2133.3024499662
 31
0.0
  0
LINE
  5
105
  8
0
  6
HIDDEN
 62
     7
 10
1596.0458840829
 20
2133.3024499662
 30
0.0
 11
1596.0458840829
 21
2128.3024499662
 31
0.0
  0
LINE
  5
106
  8
0
  6
HIDDEN
 62
     7
 10
1597.6458840829
 20
2128.3024499662
 30
0.0
 11
1597.6458840829
 21
2133.3024499662
 31
0.0
  0
LINE
  5
107
  8
0
  6
HIDDEN
 62
     7
 10
1529.6458840829
 20
2112.3024499662
 30
0.0
 11
1531.2458840829
 21
2112.3024499662
 31
0.0
  0
LINE
  5
108
  8
0
  6
HIDDEN
 62
     7
 10
1531.2458840829
 20
2112.3024499662
 30
0.0
 11
1531.2458840829
 21
2104.5134869529
 31
0.0
  0
LINE
  5
109
  8
0
  6
HIDDEN
 62
     7
 10
1529.6458840829
 20
2104.5134869529
 30
0.0
 11
1531.2458840829
 21
2104.5134869529
 31
0.0
  0
LINE
  5
10A
  8
0
  6
HIDDEN
 62
     7
 10
1529.6458840829
 20
2112.3024499662
 30
0.0
 11
1529.6458840829
 21
2104.5134869529
 31
0.0
  0
LINE
  5
10B
  8
0
  6
HIDDEN
 62
     7
 10
1529.6458840829
 20
1608.5024499662
 30
0.0
 11
1531.2458840829
 21
1608.5024499662
 31
0.0
  0
LINE
  5
10C
  8
0
  6
HIDDEN
 62
     7
 10
1529.6458840829
 20
1616.2914129795
 30
0.0
 11
1531.2458840829
 21
1616.2914129795
 31
0.0
  0
LINE
  5
10D
  8
0
  6
HIDDEN
 62
     7
 10
1531.2458840829
 20
1608.5024499662
 30
0.0
 11
1531.2458840829
 21
1616.2914129795
 31
0.0
  0
LINE
  5
10E
  8
0
  6
HIDDEN
 62
     7
 10
1529.6458840829
 20
1608.5024499662
 30
0.0
 11
1529.6458840829
 21
1616.2914129795
 31
0.0
  0
LINE
  5
10F
  8
0
  6
HIDDEN
 62
     7
 10
1531.2458840829
 20
2133.3024499662
 30
0.0
 11
1529.6458840829
 21
2133.3024499662
 31
0.0
  0
LINE
  5
110
  8
0
  6
HIDDEN
 62
     7
 10
1529.6458840829
 20
2128.3024499662
 30
0.0
 11
1531.2458840829
 21
2128.3024499662
 31
0.0
  0
LINE
  5
111
  8
0
  6
HIDDEN
 62
     7
 10
1531.2458840829
 20
2128.3024499662
 30
0.0
 11
1531.2458840829
 21
2133.3024499662
 31
0.0
  0
LINE
  5
112
  8
0
  6
HIDDEN
 62
     7
 10
1529.6458840829
 20
2133.3024499662
 30
0.0
 11
1529.6458840829
 21
2128.3024499662
 31
0.0
  0
LINE
  5
113
  8
0
  6
HIDDEN
 62
     7
 10
1531.2458840829
 20
2112.3024499662
 30
0.0
 11
1531.2458840829
 21
2128.3024499662
 31
0.0
  0
LINE
  5
114
  8
0
  6
HIDDEN
 62
     7
 10
1529.6458840829
 20
2112.3024499662
 30
0.0
 11
1529.6458840829
 21
2128.3024499662
 31
0.0
  0
LINE
  5
115
  8
0
  6
HIDDEN
 62
     7
 10
1529.6458840829
 20
1592.5024499662
 30
0.0
 11
1531.2458840829
 21
1592.5024499662
 31
0.0
  0
LINE
  5
116
  8
0
  6
HIDDEN
 62
     7
 10
1531.2458840829
 20
1587.5024499662
 30
0.0
 11
1529.6458840829
 21
1587.5024499662
 31
0.0
  0
LINE
  5
117
  8
0
  6
HIDDEN
 62
     7
 10
1531.2458840829
 20
1592.5024499662
 30
0.0
 11
1531.2458840829
 21
1587.5024499662
 31
0.0
  0
LINE
  5
118
  8
0
  6
HIDDEN
 62
     7
 10
1529.6458840829
 20
1587.5024499662
 30
0.0
 11
1529.6458840829
 21
1592.5024499662
 31
0.0
  0
LINE
  5
119
  8
0
  6
HIDDEN
 62
     7
 10
1531.2458840829
 20
1608.5024499662
 30
0.0
 11
1531.2458840829
 21
1592.5024499662
 31
0.0
  0
LINE
  5
11A
  8
0
  6
HIDDEN
 62
     7
 10
1529.6458840829
 20
1608.5024499662
 30
0.0
 11
1529.6458840829
 21
1592.5024499662
 31
0.0
  0
ARC
  5
11B
  8
0
  6
HIDDEN
 62
     7
 10
1534.0973635016
 20
1614.7786683435
 30
0.0
 40
3.227898884496702
 50
105.2949190652
 51
152.0535037299
  0
POLYLINE
  5
11C
  8
0
  6
HIDDEN
 62
     7
 66
     1
 10
0.0
 20
0.0
 30
0.0
 70
   128
  0
VERTEX
  5
375
  8
0
  6
HIDDEN
 62
     7
 10
1533.2458840829
 20
1617.8922376792
 30
0.0
  0
VERTEX
  5
376
  8
0
  6
HIDDEN
 62
     7
 10
1531.8682237264
 20
1617.4920315043
 30
0.0
  0
VERTEX
  5
377
  8
0
  6
HIDDEN
 62
     7
 10
1530.7002996707
 20
1617.0918253293
 30
0.0
  0
VERTEX
  5
378
  8
0
  6
HIDDEN
 62
     7
 10
1529.9199177659
 20
1616.6916191544
 30
0.0
  0
VERTEX
  5
379
  8
0
  6
HIDDEN
 62
     7
 10
1529.6458840829
 20
1616.2914129795
 30
0.0
  0
SEQEND
  5
39D
  8
0
  6
HIDDEN
 62
     7
  0
POLYLINE
  5
11D
  8
0
  6
HIDDEN
 62
     7
 66
     1
 10
0.0
 20
0.0
 30
0.0
 70
   128
  0
VERTEX
  5
37A
  8
0
  6
HIDDEN
 62
     7
 10
1533.2458840829
 20
2102.9126622531
 30
0.0
  0
VERTEX
  5
37B
  8
0
  6
HIDDEN
 62
     7
 10
1531.8682237264
 20
2103.3128684281
 30
0.0
  0
VERTEX
  5
37C
  8
0
  6
HIDDEN
 62
     7
 10
1530.7002996707
 20
2103.713074603
 30
0.0
  0
VERTEX
  5
37D
  8
0
  6
HIDDEN
 62
     7
 10
1529.9199177659
 20
2104.1132807779
 30
0.0
  0
VERTEX
  5
37E
  8
0
  6
HIDDEN
 62
     7
 10
1529.6458840829
 20
2104.5134869529
 30
0.0
  0
SEQEND
  5
39E
  8
0
  6
HIDDEN
 62
     7
  0
ARC
  5
11E
  8
0
  6
HIDDEN
 62
     7
 10
1534.0973635016
 20
2106.0262315888
 30
0.0
 40
3.227898884493172
 50
207.9464962701
 51
254.7050809348
  0
LINE
  5
11F
  8
0
  6
HIDDEN
 62
     7
 10
1531.2458840829
 20
1587.5024499662
 30
0.0
 11
1533.2458840829
 21
1587.5024499662
 31
0.0
  0
LINE
  5
120
  8
0
  6
HIDDEN
 62
     7
 10
1531.2458840829
 20
2133.3024499662
 30
0.0
 11
1533.2458840829
 21
2133.3024499662
 31
0.0
  0
LINE
  5
121
  8
0
  6
HIDDEN
 62
     7
 10
1594.0458840829
 20
1587.5024499662
 30
0.0
 11
1596.0458840829
 21
1587.5024499662
 31
0.0
  0
LINE
  5
122
  8
0
  6
HIDDEN
 62
     7
 10
1594.0458840829
 20
2133.3024499662
 30
0.0
 11
1596.0458840829
 21
2133.3024499662
 31
0.0
  0
CIRCLE
  5
123
  8
0
  6
HIDDEN
 62
     7
 10
1568.3458840829
 20
2040.4024499662
 30
0.0
 40
8.499999999999773
  0
CIRCLE
  5
124
  8
0
  6
HIDDEN
 62
     7
 10
1568.3458840829
 20
1680.4024499662
 30
0.0
 40
8.5
  0
LINE
  5
125
  8
0
  6
HIDDEN
 62
     7
 10
1534.6458840829
 20
2053.2037201554
 30
0.0
 11
1559.6458840829
 21
2009.9024499662
 31
0.0
  0
LINE
  5
126
  8
0
  6
HIDDEN
 62
     7
 10
1534.6458840829
 20
2102.4031039252
 30
0.0
 11
1534.6458840829
 21
2053.2037201554
 31
0.0
  0
LINE
  5
127
  8
0
  6
HIDDEN
 62
     7
 10
1533.2458840829
 20
2133.3024499662
 30
0.0
 11
1594.0458840829
 21
2133.3024499662
 31
0.0
  0
LINE
  5
128
  8
0
  6
HIDDEN
 62
     7
 10
1533.2458840829
 20
1587.5024499662
 30
0.0
 11
1594.0458840829
 21
1587.5024499662
 31
0.0
  0
LINE
  5
129
  8
0
  6
HIDDEN
 62
     7
 10
1534.6458840829
 20
1618.4017960072
 30
0.0
 11
1534.6458840829
 21
1667.6011797769
 31
0.0
  0
LINE
  5
12A
  8
0
  6
HIDDEN
 62
     7
 10
1534.6458840829
 20
1667.6011797769
 30
0.0
 11
1559.6458840829
 21
1710.9024499662
 31
0.0
  0
LINE
  5
12B
  8
0
  6
HIDDEN
 62
     7
 10
1559.6458840829
 20
1710.9024499662
 30
0.0
 11
1559.6458840829
 21
2009.9024499662
 31
0.0
  0
LINE
  5
12C
  8
0
  6
HIDDEN
 62
     7
 10
1533.2458840829
 20
1617.8922376792
 30
0.0
 11
1534.6458840829
 21
1618.4017960072
 31
0.0
  0
LINE
  5
12D
  8
0
  6
HIDDEN
 62
     7
 10
1533.2458840829
 20
2102.9126622531
 30
0.0
 11
1534.6458840829
 21
2102.4031039252
 31
0.0
  0
LINE
  5
12E
  8
0
  6
HIDDEN
 62
     7
 10
760.6458840829
 20
1592.5024499662
 30
0.0
 11
759.0458840829
 21
1592.5024499662
 31
0.0
  0
LINE
  5
12F
  8
0
  6
HIDDEN
 62
     7
 10
759.0458840829
 20
2128.3024499662
 30
0.0
 11
759.0458840829
 21
1592.5024499662
 31
0.0
  0
LINE
  5
130
  8
0
  6
HIDDEN
 62
     7
 10
760.6458840829
 20
2128.3024499662
 30
0.0
 11
759.0458840829
 21
2128.3024499662
 31
0.0
  0
LINE
  5
131
  8
0
  6
HIDDEN
 62
     7
 10
760.6458840829
 20
2128.3024499662
 30
0.0
 11
760.6458840829
 21
1592.5024499662
 31
0.0
  0
LINE
  5
132
  8
0
  6
HIDDEN
 62
     7
 10
759.0458840829
 20
2133.3024499662
 30
0.0
 11
760.6458840829
 21
2133.3024499662
 31
0.0
  0
LINE
  5
133
  8
0
  6
HIDDEN
 62
     7
 10
759.0458840829
 20
2128.3024499662
 30
0.0
 11
759.0458840829
 21
2133.3024499662
 31
0.0
  0
LINE
  5
134
  8
0
  6
HIDDEN
 62
     7
 10
760.6458840829
 20
2133.3024499662
 30
0.0
 11
760.6458840829
 21
2128.3024499662
 31
0.0
  0
LINE
  5
135
  8
0
  6
HIDDEN
 62
     7
 10
759.0458840829
 20
1587.5024499662
 30
0.0
 11
760.6458840829
 21
1587.5024499662
 31
0.0
  0
LINE
  5
136
  8
0
  6
HIDDEN
 62
     7
 10
759.0458840829
 20
1592.5024499662
 30
0.0
 11
759.0458840829
 21
1587.5024499662
 31
0.0
  0
LINE
  5
137
  8
0
  6
HIDDEN
 62
     7
 10
760.6458840829
 20
1587.5024499662
 30
0.0
 11
760.6458840829
 21
1592.5024499662
 31
0.0
  0
LINE
  5
138
  8
0
  6
HIDDEN
 62
     7
 10
827.0458840829
 20
1608.5024499662
 30
0.0
 11
825.4458840829
 21
1608.5024499662
 31
0.0
  0
LINE
  5
139
  8
0
  6
HIDDEN
 62
     7
 10
827.0458840829
 20
1616.2914129795
 30
0.0
 11
825.4458840829
 21
1616.2914129795
 31
0.0
  0
LINE
  5
13A
  8
0
  6
HIDDEN
 62
     7
 10
827.0458840829
 20
1608.5024499662
 30
0.0
 11
827.0458840829
 21
1616.2914129795
 31
0.0
  0
LINE
  5
13B
  8
0
  6
HIDDEN
 62
     7
 10
825.4458840829
 20
1608.5024499662
 30
0.0
 11
825.4458840829
 21
1616.2914129795
 31
0.0
  0
LINE
  5
13C
  8
0
  6
HIDDEN
 62
     7
 10
825.4458840829
 20
2112.3024499662
 30
0.0
 11
825.4458840829
 21
2104.5134869529
 31
0.0
  0
LINE
  5
13D
  8
0
  6
HIDDEN
 62
     7
 10
827.0458840829
 20
2112.3024499662
 30
0.0
 11
825.4458840829
 21
2112.3024499662
 31
0.0
  0
LINE
  5
13E
  8
0
  6
HIDDEN
 62
     7
 10
827.0458840829
 20
2104.5134869529
 30
0.0
 11
825.4458840829
 21
2104.5134869529
 31
0.0
  0
LINE
  5
13F
  8
0
  6
HIDDEN
 62
     7
 10
827.0458840829
 20
2112.3024499662
 30
0.0
 11
827.0458840829
 21
2104.5134869529
 31
0.0
  0
LINE
  5
140
  8
0
  6
HIDDEN
 62
     7
 10
827.0458840829
 20
1592.5024499662
 30
0.0
 11
825.4458840829
 21
1592.5024499662
 31
0.0
  0
LINE
  5
141
  8
0
  6
HIDDEN
 62
     7
 10
827.0458840829
 20
1608.5024499662
 30
0.0
 11
827.0458840829
 21
1592.5024499662
 31
0.0
  0
LINE
  5
142
  8
0
  6
HIDDEN
 62
     7
 10
825.4458840829
 20
1608.5024499662
 30
0.0
 11
825.4458840829
 21
1592.5024499662
 31
0.0
  0
LINE
  5
143
  8
0
  6
HIDDEN
 62
     7
 10
825.4458840829
 20
1587.5024499662
 30
0.0
 11
827.0458840829
 21
1587.5024499662
 31
0.0
  0
LINE
  5
144
  8
0
  6
HIDDEN
 62
     7
 10
827.0458840829
 20
1587.5024499662
 30
0.0
 11
827.0458840829
 21
1592.5024499662
 31
0.0
  0
LINE
  5
145
  8
0
  6
HIDDEN
 62
     7
 10
825.4458840829
 20
1592.5024499662
 30
0.0
 11
825.4458840829
 21
1587.5024499662
 31
0.0
  0
LINE
  5
146
  8
0
  6
HIDDEN
 62
     7
 10
827.0458840829
 20
2128.3024499662
 30
0.0
 11
825.4458840829
 21
2128.3024499662
 31
0.0
  0
LINE
  5
147
  8
0
  6
HIDDEN
 62
     7
 10
825.4458840829
 20
2112.3024499662
 30
0.0
 11
825.4458840829
 21
2128.3024499662
 31
0.0
  0
LINE
  5
148
  8
0
  6
HIDDEN
 62
     7
 10
827.0458840829
 20
2112.3024499662
 30
0.0
 11
827.0458840829
 21
2128.3024499662
 31
0.0
  0
LINE
  5
149
  8
0
  6
HIDDEN
 62
     7
 10
825.4458840829
 20
2133.3024499662
 30
0.0
 11
827.0458840829
 21
2133.3024499662
 31
0.0
  0
LINE
  5
14A
  8
0
  6
HIDDEN
 62
     7
 10
825.4458840829
 20
2128.3024499662
 30
0.0
 11
825.4458840829
 21
2133.3024499662
 31
0.0
  0
LINE
  5
14B
  8
0
  6
HIDDEN
 62
     7
 10
827.0458840829
 20
2133.3024499662
 30
0.0
 11
827.0458840829
 21
2128.3024499662
 31
0.0
  0
POLYLINE
  5
14C
  8
0
  6
HIDDEN
 62
     7
 66
     1
 10
0.0
 20
0.0
 30
0.0
 70
   128
  0
VERTEX
  5
37F
  8
0
  6
HIDDEN
 62
     7
 10
823.4458840829
 20
1617.8922376792
 30
0.0
  0
VERTEX
  5
380
  8
0
  6
HIDDEN
 62
     7
 10
824.8235444394
 20
1617.4920315043
 30
0.0
  0
VERTEX
  5
381
  8
0
  6
HIDDEN
 62
     7
 10
825.9914684952
 20
1617.0918253293
 30
0.0
  0
VERTEX
  5
382
  8
0
  6
HIDDEN
 62
     7
 10
826.7718504
 20
1616.6916191544
 30
0.0
  0
VERTEX
  5
383
  8
0
  6
HIDDEN
 62
     7
 10
827.0458840829
 20
1616.2914129795
 30
0.0
  0
SEQEND
  5
39F
  8
0
  6
HIDDEN
 62
     7
  0
ARC
  5
14D
  8
0
  6
HIDDEN
 62
     7
 10
822.5944046643
 20
1614.7786683435
 30
0.0
 40
3.227898884497789
 50
27.9464962701
 51
74.7050809348
  0
LINE
  5
14E
  8
0
  6
HIDDEN
 62
     7
 10
825.4458840829
 20
1587.5024499662
 30
0.0
 11
823.4458840829
 21
1587.5024499662
 31
0.0
  0
ARC
  5
14F
  8
0
  6
HIDDEN
 62
     7
 10
822.5944046643
 20
2106.0262315888
 30
0.0
 40
3.227898884493999
 50
285.2949190652
 51
332.0535037299
  0
POLYLINE
  5
150
  8
0
  6
HIDDEN
 62
     7
 66
     1
 10
0.0
 20
0.0
 30
0.0
 70
   128
  0
VERTEX
  5
384
  8
0
  6
HIDDEN
 62
     7
 10
823.4458840829
 20
2102.9126622531
 30
0.0
  0
VERTEX
  5
385
  8
0
  6
HIDDEN
 62
     7
 10
824.8235444394
 20
2103.3128684281
 30
0.0
  0
VERTEX
  5
386
  8
0
  6
HIDDEN
 62
     7
 10
825.9914684952
 20
2103.713074603
 30
0.0
  0
VERTEX
  5
387
  8
0
  6
HIDDEN
 62
     7
 10
826.7718504
 20
2104.1132807779
 30
0.0
  0
VERTEX
  5
388
  8
0
  6
HIDDEN
 62
     7
 10
827.0458840829
 20
2104.5134869529
 30
0.0
  0
SEQEND
  5
3A0
  8
0
  6
HIDDEN
 62
     7
  0
LINE
  5
151
  8
0
  6
HIDDEN
 62
     7
 10
825.4458840829
 20
2133.3024499662
 30
0.0
 11
823.4458840829
 21
2133.3024499662
 31
0.0
  0
LINE
  5
152
  8
0
  6
HIDDEN
 62
     7
 10
762.6458840829
 20
2133.3024499662
 30
0.0
 11
760.6458840829
 21
2133.3024499662
 31
0.0
  0
LINE
  5
153
  8
0
  6
HIDDEN
 62
     7
 10
762.6458840829
 20
1587.5024499662
 30
0.0
 11
760.6458840829
 21
1587.5024499662
 31
0.0
  0
CIRCLE
  5
154
  8
0
  6
HIDDEN
 62
     7
 10
788.3458840829
 20
1680.4024499662
 30
0.0
 40
8.499999999999773
  0
CIRCLE
  5
155
  8
0
  6
HIDDEN
 62
     7
 10
788.3458840829
 20
2040.4024499662
 30
0.0
 40
8.500000000000227
  0
LINE
  5
156
  8
0
  6
HIDDEN
 62
     7
 10
822.0458840829
 20
1667.6011797769
 30
0.0
 11
797.0458840829
 21
1710.9024499662
 31
0.0
  0
LINE
  5
157
  8
0
  6
HIDDEN
 62
     7
 10
822.0458840829
 20
1618.4017960072
 30
0.0
 11
822.0458840829
 21
1667.6011797769
 31
0.0
  0
LINE
  5
158
  8
0
  6
HIDDEN
 62
     7
 10
823.4458840829
 20
1617.8922376792
 30
0.0
 11
822.0458840829
 21
1618.4017960072
 31
0.0
  0
LINE
  5
159
  8
0
  6
HIDDEN
 62
     7
 10
823.4458840829
 20
1587.5024499662
 30
0.0
 11
762.6458840829
 21
1587.5024499662
 31
0.0
  0
LINE
  5
15A
  8
0
  6
HIDDEN
 62
     7
 10
823.4458840829
 20
2133.3024499662
 30
0.0
 11
762.6458840829
 21
2133.3024499662
 31
0.0
  0
LINE
  5
15B
  8
0
  6
HIDDEN
 62
     7
 10
823.4458840829
 20
2102.9126622531
 30
0.0
 11
822.0458840829
 21
2102.4031039252
 31
0.0
  0
LINE
  5
15C
  8
0
  6
HIDDEN
 62
     7
 10
822.0458840829
 20
2102.4031039252
 30
0.0
 11
822.0458840829
 21
2053.2037201554
 31
0.0
  0
LINE
  5
15D
  8
0
  6
HIDDEN
 62
     7
 10
822.0458840829
 20
2053.2037201554
 30
0.0
 11
797.0458840829
 21
2009.9024499662
 31
0.0
  0
LINE
  5
15E
  8
0
  6
HIDDEN
 62
     7
 10
797.0458840829
 20
2009.9024499662
 30
0.0
 11
797.0458840829
 21
1710.9024499662
 31
0.0
  0
LINE
  5
15F
  8
0
  6
HIDDEN
 62
     7
 10
1596.0458840829
 20
1596.4024499662
 30
0.0
 11
1597.6458840829
 21
1596.4024499662
 31
0.0
  0
LINE
  5
160
  8
0
  6
HIDDEN
 62
     7
 10
1597.6458840829
 20
1604.4024499662
 30
0.0
 11
1596.0458840829
 21
1604.4024499662
 31
0.0
  0
LINE
  5
161
  8
0
  6
HIDDEN
 62
     7
 10
1596.0458840829
 20
2116.4024499662
 30
0.0
 11
1597.6458840829
 21
2116.4024499662
 31
0.0
  0
LINE
  5
162
  8
0
  6
HIDDEN
 62
     7
 10
1597.6458840829
 20
2124.4024499662
 30
0.0
 11
1596.0458840829
 21
2124.4024499662
 31
0.0
  0
LINE
  5
163
  8
0
  6
HIDDEN
 62
     7
 10
1529.6458840829
 20
1596.4024499662
 30
0.0
 11
1531.2458840829
 21
1596.4024499662
 31
0.0
  0
LINE
  5
164
  8
0
  6
HIDDEN
 62
     7
 10
1531.2458840829
 20
1604.4024499662
 30
0.0
 11
1529.6458840829
 21
1604.4024499662
 31
0.0
  0
LINE
  5
165
  8
0
  6
HIDDEN
 62
     7
 10
1529.6458840829
 20
2116.4024499662
 30
0.0
 11
1531.2458840829
 21
2116.4024499662
 31
0.0
  0
LINE
  5
166
  8
0
  6
HIDDEN
 62
     7
 10
1531.2458840829
 20
2124.4024499662
 30
0.0
 11
1529.6458840829
 21
2124.4024499662
 31
0.0
  0
LINE
  5
167
  8
0
  6
HIDDEN
 62
     7
 10
760.6458840829
 20
1604.4024499662
 30
0.0
 11
759.0458840829
 21
1604.4024499662
 31
0.0
  0
LINE
  5
168
  8
0
  6
HIDDEN
 62
     7
 10
759.0458840829
 20
1596.4024499662
 30
0.0
 11
760.6458840829
 21
1596.4024499662
 31
0.0
  0
LINE
  5
169
  8
0
  6
HIDDEN
 62
     7
 10
760.6458840829
 20
2124.4024499662
 30
0.0
 11
759.0458840829
 21
2124.4024499662
 31
0.0
  0
LINE
  5
16A
  8
0
  6
HIDDEN
 62
     7
 10
759.0458840829
 20
2116.4024499662
 30
0.0
 11
760.6458840829
 21
2116.4024499662
 31
0.0
  0
LINE
  5
16B
  8
0
  6
HIDDEN
 62
     7
 10
827.0458840829
 20
1604.4024499662
 30
0.0
 11
825.4458840829
 21
1604.4024499662
 31
0.0
  0
LINE
  5
16C
  8
0
  6
HIDDEN
 62
     7
 10
825.4458840829
 20
1596.4024499662
 30
0.0
 11
827.0458840829
 21
1596.4024499662
 31
0.0
  0
LINE
  5
16D
  8
0
  6
HIDDEN
 62
     7
 10
827.0458840829
 20
2124.4024499662
 30
0.0
 11
825.4458840829
 21
2124.4024499662
 31
0.0
  0
LINE
  5
16E
  8
0
  6
HIDDEN
 62
     7
 10
825.4458840829
 20
2116.4024499662
 30
0.0
 11
827.0458840829
 21
2116.4024499662
 31
0.0
  0
DIMENSION
  5
16F
  8
細線
  2
_D
 10
1568.3458840829
 20
2370.4024499662
 30
0.0
 11
1174.695674471
 21
2370.4024499662
 31
0.0
 70
   160
  1
<>
  3
SLDDIMSTYLE0
 13
788.3458840829
 23
2040.4024499662
 33
0.0
 14
1568.3458840829
 24
2040.4024499662
 34
0.0
  0
DIMENSION
  5
180
  8
細線
  2
_D_1
 10
788.3458840829
 20
2370.4024499662
 30
0.0
 11
700.1327897569
 21
2370.4024499662
 31
0.0
 70
   160
  1
<>
  3
SLDDIMSTYLE1
 13
628.3458840829
 23
2270.4024499662
 33
0.0
 14
788.3458840829
 24
2040.4024499662
 34
0.0
  0
DIMENSION
  5
18D
  8
細線
  2
_D_2
 10
1728.3458840829
 20
2370.4024499662
 30
0.0
 11
1639.9776325733
 21
2370.4024499662
 31
0.0
 70
   160
  1
<>
  3
SLDDIMSTYLE1
 13
1568.3458840829
 23
2040.4024499662
 33
0.0
 14
1728.3458840829
 24
2270.4024499662
 34
0.0
  0
DIMENSION
  5
199
  8
細線
  2
_D_3
 10
628.3458840829
 20
2471.0051256829
 30
0.0
 11
1174.695674471
 21
2471.0051256829
 31
0.0
 70
   160
  1
<>
  3
SLDDIMSTYLE0
 13
1728.3458840829
 23
2270.4024499662
 33
0.0
 14
628.3458840829
 24
2270.4024499662
 34
0.0
  0
DIMENSION
  5
1A3
  8
細線
  2
_D_4
 10
1851.1885978946
 20
1680.4024499662
 30
0.0
 11
1851.1885978946
 21
1848.3319140839
 31
0.0
 70
   160
  1
<>
  3
SLDDIMSTYLE0
 13
1568.3458840829
 23
2040.4024499662
 33
0.0
 14
1568.3458840829
 24
1680.4024499662
 34
0.0
 50
90.0
  0
DIMENSION
  5
1AD
  8
細線
  2
_D_5
 10
1851.1885978946
 20
2040.4024499662
 30
0.0
 11
1851.1885978946
 21
2157.3042582067
 31
0.0
 70
   160
  1
<>
  3
SLDDIMSTYLE2
 13
1728.3458840829
 23
2270.4024499662
 33
0.0
 14
1568.3458840829
 24
2040.4024499662
 34
0.0
 50
90.0
  0
DIMENSION
  5
1B8
  8
細線
  2
_D_6
 10
1851.1885978946
 20
1450.4024499662
 30
0.0
 11
1851.1885978946
 21
1567.9686958347
 31
0.0
 70
   160
  1
<>
  3
SLDDIMSTYLE2
 13
1568.3458840829
 23
1680.4024499662
 33
0.0
 14
1728.3458840829
 24
1450.4024499662
 34
0.0
 50
90.0
  0
DIMENSION
  5
1C2
  8
細線
  2
_D_7
 10
1969.2850384103
 20
2270.4024499662
 30
0.0
 11
1969.2850384103
 21
1848.3319140839
 31
0.0
 70
   160
  1
<>
  3
SLDDIMSTYLE0
 13
1728.3458840829
 23
1450.4024499662
 33
0.0
 14
1728.3458840829
 24
2270.4024499662
 34
0.0
 50
90.0
  0
DIMENSION
  5
1CC
  8
細線
  2
_D_8
 10
759.0458840829
 20
1350.4024499662
 30
0.0
 11
694.3898876825
 21
1350.4024499662
 31
0.0
 70
   160
  1
<>
  3
SLDDIMSTYLE1
 13
628.3458840829
 23
1450.4024499662
 33
0.0
 14
759.0458840829
 24
1587.5024499662
 34
0.0
  0
DIMENSION
  5
1D8
  8
細線
  2
_D_9
 10
538.924871216
 20
1587.5024499662
 30
0.0
 11
538.924871216
 21
1526.4457026157
 31
0.0
 70
   160
  1
<>
  3
SLDDIMSTYLE1
 13
628.3458840829
 23
1450.4024499662
 33
0.0
 14
760.6458840829
 24
1587.5024499662
 34
0.0
 50
90.0
  0
DIMENSION
  5
1E4
  8
細線
  2
_D_10
 10
1642.298347983
 20
1880.172111516
 30
0.0
 11
1254.1126956291
 21
1701.0095027372
 31
0.0
 70
   160
  1
<>
  3
SLDDIMSTYLE0
 13
788.3458840829
 23
1680.4024499662
 33
0.0
 14
1568.3458840829
 24
2040.4024499662
 34
0.0
 50
24.7751405688
  0
LINE
  5
1EE
  8
0
  6
CONTINUOUS
 62
     7
 10
628.3458840829
 20
1068.2043458196
 30
0.0
 11
1728.3458840829
 21
1068.2043458196
 31
0.0
  0
LINE
  5
1EF
  8
0
  6
CONTINUOUS
 62
     7
 10
1728.3458840829
 20
1068.2043458196
 30
0.0
 11
1728.3458840829
 21
928.2043458196
 31
0.0
  0
LINE
  5
1F0
  8
0
  6
CONTINUOUS
 62
     7
 10
628.3458840829
 20
1068.2043458196
 30
0.0
 11
628.3458840829
 21
928.2043458196
 31
0.0
  0
LINE
  5
1F1
  8
0
  6
CONTINUOUS
 62
     7
 10
628.3458840829
 20
868.2043458196
 30
0.0
 11
1728.3458840829
 21
868.2043458196
 31
0.0
  0
LINE
  5
1F2
  8
0
  6
CONTINUOUS
 62
     7
 10
628.3458840829
 20
928.2043458196
 30
0.0
 11
628.3458840829
 21
868.2043458196
 31
0.0
  0
LINE
  5
1F3
  8
0
  6
CONTINUOUS
 62
     7
 10
1728.3458840829
 20
928.2043458196
 30
0.0
 11
1728.3458840829
 21
868.2043458196
 31
0.0
  0
LINE
  5
1F4
  8
0
  6
CENTERX2
 62
     7
 10
628.3458840829
 20
928.2043458196
 30
0.0
 11
1728.3458840829
 21
928.2043458196
 31
0.0
  0
LINE
  5
1F5
  8
0
  6
HIDDEN
 62
     7
 10
780.0958840829
 20
988.2043458196
 30
0.0
 11
796.5958840829
 21
988.2043458196
 31
0.0
  0
LINE
  5
1F6
  8
0
  6
HIDDEN
 62
     7
 10
1568.3458840829
 20
988.2043458196
 30
0.0
 11
1576.5958840829
 21
988.2043458196
 31
0.0
  0
LINE
  5
1F7
  8
0
  6
HIDDEN
 62
     7
 10
1560.0958840829
 20
988.2043458196
 30
0.0
 11
1568.3458840829
 21
988.2043458196
 31
0.0
  0
LINE
  5
1F8
  8
0
  6
HIDDEN
 62
     7
 10
780.0958840829
 20
1068.2043458196
 30
0.0
 11
780.0958840829
 21
988.2043458196
 31
0.0
  0
LINE
  5
1F9
  8
0
  6
HIDDEN
 62
     7
 10
796.5958840829
 20
988.2043458196
 30
0.0
 11
796.5958840829
 21
1068.2043458196
 31
0.0
  0
LINE
  5
1FA
  8
0
  6
HIDDEN
 62
     7
 10
1560.0958840829
 20
1068.2043458196
 30
0.0
 11
1560.0958840829
 21
988.2043458196
 31
0.0
  0
LINE
  5
1FB
  8
0
  6
HIDDEN
 62
     7
 10
1576.5958840829
 20
988.2043458196
 30
0.0
 11
1576.5958840829
 21
1068.2043458196
 31
0.0
  0
DIMENSION
  5
1FC
  8
細線
  2
_D_11
 10
796.5958840829
 20
1158.9964372894
 30
0.0
 11
646.4395147626
 21
1158.9964372894
 31
0.0
 70
   160
  1
%%c<>
  3
SLDDIMSTYLE3
 13
780.0958840829
 23
1068.2043458196
 33
0.0
 14
796.5958840829
 24
1068.2043458196
 34
0.0
  0
DIMENSION
  5
20A
  8
細線
  2
_D_12
 10
528.3458840829
 20
868.2043458196
 30
0.0
 11
528.3458840829
 21
966.5334170911
 31
0.0
 70
   160
  1
<>
  3
SLDDIMSTYLE3
 13
628.3458840829
 23
1068.2043458196
 33
0.0
 14
628.3458840829
 24
868.2043458196
 34
0.0
 50
90.0
  0
DIMENSION
  5
216
  8
細線
  2
_D_13
 10
1828.3458840829
 20
988.2043458196
 30
0.0
 11
1828.3458840829
 21
1133.0540183734
 31
0.0
 70
   160
  1
<>
  3
SLDDIMSTYLE3
 13
1728.3458840829
 23
1068.2043458196
 33
0.0
 14
1576.5958840829
 24
988.2043458196
 34
0.0
 50
90.0
  0
DIMENSION
  5
222
  8
細線
  2
_D_14
 10
1828.3458840829
 20
928.2043458196
 30
0.0
 11
1828.3458840829
 21
955.4497661776
 31
0.0
 70
   160
  1
<>
  3
SLDDIMSTYLE1
 13
1576.5958840829
 23
988.2043458196
 33
0.0
 14
1728.3458840829
 24
928.2043458196
 34
0.0
 50
90.0
  0
DIMENSION
  5
22E
  8
細線
  2
_D_15
 10
1828.3458840829
 20
868.2043458196
 30
0.0
 11
1828.3458840829
 21
820.826071163
 31
0.0
 70
   160
  1
<>
  3
SLDDIMSTYLE1
 13
1728.3458840829
 23
928.2043458196
 33
0.0
 14
1728.3458840829
 24
868.2043458196
 34
0.0
 50
90.0
  0
LINE
  5
23A
  8
0
  6
CONTINUOUS
 62
     7
 10
3558.2949886316
 20
2294.1805336213
 30
0.0
 11
2458.2949886316
 21
2294.1805336213
 31
0.0
  0
LINE
  5
23B
  8
0
  6
CONTINUOUS
 62
     7
 10
3558.2949886316
 20
1394.1805336213
 30
0.0
 11
3558.2949886316
 21
2294.1805336213
 31
0.0
  0
LINE
  5
23C
  8
0
  6
CONTINUOUS
 62
     7
 10
2458.2949886316
 20
1394.1805336213
 30
0.0
 11
3558.2949886316
 21
1394.1805336213
 31
0.0
  0
LINE
  5
23D
  8
0
  6
CONTINUOUS
 62
     7
 10
2458.2949886316
 20
2294.1805336213
 30
0.0
 11
2458.2949886316
 21
1394.1805336213
 31
0.0
  0
CIRCLE
  5
23E
  8
0
  6
CONTINUOUS
 62
     7
 10
3398.2949886316
 20
2024.1805336213
 30
0.0
 40
8.25
  0
CIRCLE
  5
23F
  8
0
  6
CONTINUOUS
 62
     7
 10
3398.2949886316
 20
1664.1805336213
 30
0.0
 40
8.25
  0
CIRCLE
  5
240
  8
0
  6
CONTINUOUS
 62
     7
 10
2618.2949886316
 20
2024.1805336213
 30
0.0
 40
8.250000000000227
  0
CIRCLE
  5
241
  8
0
  6
CONTINUOUS
 62
     7
 10
2618.2949886316
 20
1664.1805336213
 30
0.0
 40
8.249999999999773
  0
LINE
  5
242
  8
0
  6
HIDDEN
 62
     7
 10
2590.5949886316
 20
1576.2805336213
 30
0.0
 11
2588.9949886316
 21
1576.2805336213
 31
0.0
  0
LINE
  5
243
  8
0
  6
HIDDEN
 62
     7
 10
2590.5949886316
 20
2112.0805336213
 30
0.0
 11
2588.9949886316
 21
2112.0805336213
 31
0.0
  0
LINE
  5
244
  8
0
  6
HIDDEN
 62
     7
 10
2588.9949886316
 20
2112.0805336213
 30
0.0
 11
2588.9949886316
 21
1576.2805336213
 31
0.0
  0
LINE
  5
245
  8
0
  6
HIDDEN
 62
     7
 10
2590.5949886316
 20
2112.0805336213
 30
0.0
 11
2590.5949886316
 21
1576.2805336213
 31
0.0
  0
LINE
  5
246
  8
0
  6
HIDDEN
 62
     7
 10
2588.9949886316
 20
2117.0805336213
 30
0.0
 11
2590.5949886316
 21
2117.0805336213
 31
0.0
  0
LINE
  5
247
  8
0
  6
HIDDEN
 62
     7
 10
2588.9949886316
 20
2112.0805336213
 30
0.0
 11
2588.9949886316
 21
2117.0805336213
 31
0.0
  0
LINE
  5
248
  8
0
  6
HIDDEN
 62
     7
 10
2590.5949886316
 20
2117.0805336213
 30
0.0
 11
2590.5949886316
 21
2112.0805336213
 31
0.0
  0
LINE
  5
249
  8
0
  6
HIDDEN
 62
     7
 10
2588.9949886316
 20
1571.2805336213
 30
0.0
 11
2590.5949886316
 21
1571.2805336213
 31
0.0
  0
LINE
  5
24A
  8
0
  6
HIDDEN
 62
     7
 10
2588.9949886316
 20
1576.2805336213
 30
0.0
 11
2588.9949886316
 21
1571.2805336213
 31
0.0
  0
LINE
  5
24B
  8
0
  6
HIDDEN
 62
     7
 10
2590.5949886316
 20
1571.2805336213
 30
0.0
 11
2590.5949886316
 21
1576.2805336213
 31
0.0
  0
LINE
  5
24C
  8
0
  6
HIDDEN
 62
     7
 10
2656.9949886316
 20
1592.2805336213
 30
0.0
 11
2655.3949886316
 21
1592.2805336213
 31
0.0
  0
LINE
  5
24D
  8
0
  6
HIDDEN
 62
     7
 10
2655.3949886316
 20
1592.2805336213
 30
0.0
 11
2655.3949886316
 21
1600.0694966346
 31
0.0
  0
LINE
  5
24E
  8
0
  6
HIDDEN
 62
     7
 10
2656.9949886316
 20
1600.0694966346
 30
0.0
 11
2655.3949886316
 21
1600.0694966346
 31
0.0
  0
LINE
  5
24F
  8
0
  6
HIDDEN
 62
     7
 10
2656.9949886316
 20
1592.2805336213
 30
0.0
 11
2656.9949886316
 21
1600.0694966346
 31
0.0
  0
LINE
  5
250
  8
0
  6
HIDDEN
 62
     7
 10
2656.9949886316
 20
2096.0805336213
 30
0.0
 11
2655.3949886316
 21
2096.0805336213
 31
0.0
  0
LINE
  5
251
  8
0
  6
HIDDEN
 62
     7
 10
2656.9949886316
 20
2088.291570608
 30
0.0
 11
2655.3949886316
 21
2088.291570608
 31
0.0
  0
LINE
  5
252
  8
0
  6
HIDDEN
 62
     7
 10
2655.3949886316
 20
2096.0805336213
 30
0.0
 11
2655.3949886316
 21
2088.291570608
 31
0.0
  0
LINE
  5
253
  8
0
  6
HIDDEN
 62
     7
 10
2656.9949886316
 20
2096.0805336213
 30
0.0
 11
2656.9949886316
 21
2088.291570608
 31
0.0
  0
LINE
  5
254
  8
0
  6
HIDDEN
 62
     7
 10
2656.9949886316
 20
1576.2805336213
 30
0.0
 11
2655.3949886316
 21
1576.2805336213
 31
0.0
  0
LINE
  5
255
  8
0
  6
HIDDEN
 62
     7
 10
2655.3949886316
 20
1592.2805336213
 30
0.0
 11
2655.3949886316
 21
1576.2805336213
 31
0.0
  0
LINE
  5
256
  8
0
  6
HIDDEN
 62
     7
 10
2656.9949886316
 20
1592.2805336213
 30
0.0
 11
2656.9949886316
 21
1576.2805336213
 31
0.0
  0
LINE
  5
257
  8
0
  6
HIDDEN
 62
     7
 10
2655.3949886316
 20
1571.2805336213
 30
0.0
 11
2656.9949886316
 21
1571.2805336213
 31
0.0
  0
LINE
  5
258
  8
0
  6
HIDDEN
 62
     7
 10
2655.3949886316
 20
1576.2805336213
 30
0.0
 11
2655.3949886316
 21
1571.2805336213
 31
0.0
  0
LINE
  5
259
  8
0
  6
HIDDEN
 62
     7
 10
2656.9949886316
 20
1571.2805336213
 30
0.0
 11
2656.9949886316
 21
1576.2805336213
 31
0.0
  0
LINE
  5
25A
  8
0
  6
HIDDEN
 62
     7
 10
2656.9949886316
 20
2112.0805336213
 30
0.0
 11
2655.3949886316
 21
2112.0805336213
 31
0.0
  0
LINE
  5
25B
  8
0
  6
HIDDEN
 62
     7
 10
2655.3949886316
 20
2117.0805336213
 30
0.0
 11
2656.9949886316
 21
2117.0805336213
 31
0.0
  0
LINE
  5
25C
  8
0
  6
HIDDEN
 62
     7
 10
2655.3949886316
 20
2112.0805336213
 30
0.0
 11
2655.3949886316
 21
2117.0805336213
 31
0.0
  0
LINE
  5
25D
  8
0
  6
HIDDEN
 62
     7
 10
2656.9949886316
 20
2117.0805336213
 30
0.0
 11
2656.9949886316
 21
2112.0805336213
 31
0.0
  0
LINE
  5
25E
  8
0
  6
HIDDEN
 62
     7
 10
2655.3949886316
 20
2096.0805336213
 30
0.0
 11
2655.3949886316
 21
2112.0805336213
 31
0.0
  0
LINE
  5
25F
  8
0
  6
HIDDEN
 62
     7
 10
2656.9949886316
 20
2096.0805336213
 30
0.0
 11
2656.9949886316
 21
2112.0805336213
 31
0.0
  0
POLYLINE
  5
260
  8
0
  6
HIDDEN
 62
     7
 66
     1
 10
0.0
 20
0.0
 30
0.0
 70
   128
  0
VERTEX
  5
389
  8
0
  6
HIDDEN
 62
     7
 10
2653.3949886316
 20
1601.6703213343
 30
0.0
  0
VERTEX
  5
38A
  8
0
  6
HIDDEN
 62
     7
 10
2654.7726489882
 20
1601.2701151594
 30
0.0
  0
VERTEX
  5
38B
  8
0
  6
HIDDEN
 62
     7
 10
2655.9405730439
 20
1600.8699089844
 30
0.0
  0
VERTEX
  5
38C
  8
0
  6
HIDDEN
 62
     7
 10
2656.7209549487
 20
1600.4697028095
 30
0.0
  0
VERTEX
  5
38D
  8
0
  6
HIDDEN
 62
     7
 10
2656.9949886316
 20
1600.0694966346
 30
0.0
  0
SEQEND
  5
3A1
  8
0
  6
HIDDEN
 62
     7
  0
ARC
  5
261
  8
0
  6
HIDDEN
 62
     7
 10
2652.543509213
 20
1598.5567519986
 30
0.0
 40
3.227898884492344
 50
27.9464962701
 51
74.7050809348
  0
LINE
  5
262
  8
0
  6
HIDDEN
 62
     7
 10
2655.3949886316
 20
1571.2805336213
 30
0.0
 11
2653.3949886316
 21
1571.2805336213
 31
0.0
  0
ARC
  5
263
  8
0
  6
HIDDEN
 62
     7
 10
2652.543509213
 20
2089.8043152439
 30
0.0
 40
3.227898884492344
 50
285.2949190652
 51
332.0535037299
  0
POLYLINE
  5
264
  8
0
  6
HIDDEN
 62
     7
 66
     1
 10
0.0
 20
0.0
 30
0.0
 70
   128
  0
VERTEX
  5
38E
  8
0
  6
HIDDEN
 62
     7
 10
2653.3949886316
 20
2086.6907459082
 30
0.0
  0
VERTEX
  5
38F
  8
0
  6
HIDDEN
 62
     7
 10
2654.7726489882
 20
2087.0909520832
 30
0.0
  0
VERTEX
  5
390
  8
0
  6
HIDDEN
 62
     7
 10
2655.9405730439
 20
2087.4911582581
 30
0.0
  0
VERTEX
  5
391
  8
0
  6
HIDDEN
 62
     7
 10
2656.7209549487
 20
2087.891364433
 30
0.0
  0
VERTEX
  5
392
  8
0
  6
HIDDEN
 62
     7
 10
2656.9949886316
 20
2088.291570608
 30
0.0
  0
SEQEND
  5
3A2
  8
0
  6
HIDDEN
 62
     7
  0
LINE
  5
265
  8
0
  6
HIDDEN
 62
     7
 10
2655.3949886316
 20
2117.0805336213
 30
0.0
 11
2653.3949886316
 21
2117.0805336213
 31
0.0
  0
LINE
  5
266
  8
0
  6
HIDDEN
 62
     7
 10
2592.5949886316
 20
2117.0805336213
 30
0.0
 11
2590.5949886316
 21
2117.0805336213
 31
0.0
  0
LINE
  5
267
  8
0
  6
HIDDEN
 62
     7
 10
2592.5949886316
 20
1571.2805336213
 30
0.0
 11
2590.5949886316
 21
1571.2805336213
 31
0.0
  0
CIRCLE
  5
268
  8
0
  6
HIDDEN
 62
     7
 10
2618.2949886316
 20
1664.1805336213
 30
0.0
 40
8.499999999999773
  0
CIRCLE
  5
269
  8
0
  6
HIDDEN
 62
     7
 10
2618.2949886316
 20
2024.1805336213
 30
0.0
 40
8.5
  0
LINE
  5
26A
  8
0
  6
HIDDEN
 62
     7
 10
2651.9949886316
 20
1651.3792634321
 30
0.0
 11
2626.9949886316
 21
1694.6805336213
 31
0.0
  0
LINE
  5
26B
  8
0
  6
HIDDEN
 62
     7
 10
2651.9949886316
 20
1602.1798796623
 30
0.0
 11
2651.9949886316
 21
1651.3792634321
 31
0.0
  0
LINE
  5
26C
  8
0
  6
HIDDEN
 62
     7
 10
2653.3949886316
 20
1601.6703213343
 30
0.0
 11
2651.9949886316
 21
1602.1798796623
 31
0.0
  0
LINE
  5
26D
  8
0
  6
HIDDEN
 62
     7
 10
2653.3949886316
 20
1571.2805336213
 30
0.0
 11
2592.5949886316
 21
1571.2805336213
 31
0.0
  0
LINE
  5
26E
  8
0
  6
HIDDEN
 62
     7
 10
2653.3949886316
 20
2117.0805336213
 30
0.0
 11
2592.5949886316
 21
2117.0805336213
 31
0.0
  0
LINE
  5
26F
  8
0
  6
HIDDEN
 62
     7
 10
2653.3949886316
 20
2086.6907459082
 30
0.0
 11
2651.9949886316
 21
2086.1811875803
 31
0.0
  0
LINE
  5
270
  8
0
  6
HIDDEN
 62
     7
 10
2651.9949886316
 20
2086.1811875803
 30
0.0
 11
2651.9949886316
 21
2036.9818038105
 31
0.0
  0
LINE
  5
271
  8
0
  6
HIDDEN
 62
     7
 10
2651.9949886316
 20
2036.9818038105
 30
0.0
 11
2626.9949886316
 21
1993.6805336213
 31
0.0
  0
LINE
  5
272
  8
0
  6
HIDDEN
 62
     7
 10
2626.9949886316
 20
1993.6805336213
 30
0.0
 11
2626.9949886316
 21
1694.6805336213
 31
0.0
  0
LINE
  5
273
  8
0
  6
HIDDEN
 62
     7
 10
3425.9949886316
 20
2112.0805336213
 30
0.0
 11
3427.5949886316
 21
2112.0805336213
 31
0.0
  0
LINE
  5
274
  8
0
  6
HIDDEN
 62
     7
 10
3427.5949886316
 20
1576.2805336213
 30
0.0
 11
3427.5949886316
 21
2112.0805336213
 31
0.0
  0
LINE
  5
275
  8
0
  6
HIDDEN
 62
     7
 10
3425.9949886316
 20
1576.2805336213
 30
0.0
 11
3427.5949886316
 21
1576.2805336213
 31
0.0
  0
LINE
  5
276
  8
0
  6
HIDDEN
 62
     7
 10
3425.9949886316
 20
1576.2805336213
 30
0.0
 11
3425.9949886316
 21
2112.0805336213
 31
0.0
  0
LINE
  5
277
  8
0
  6
HIDDEN
 62
     7
 10
3427.5949886316
 20
1571.2805336213
 30
0.0
 11
3425.9949886316
 21
1571.2805336213
 31
0.0
  0
LINE
  5
278
  8
0
  6
HIDDEN
 62
     7
 10
3425.9949886316
 20
1571.2805336213
 30
0.0
 11
3425.9949886316
 21
1576.2805336213
 31
0.0
  0
LINE
  5
279
  8
0
  6
HIDDEN
 62
     7
 10
3427.5949886316
 20
1576.2805336213
 30
0.0
 11
3427.5949886316
 21
1571.2805336213
 31
0.0
  0
LINE
  5
27A
  8
0
  6
HIDDEN
 62
     7
 10
3427.5949886316
 20
2117.0805336213
 30
0.0
 11
3425.9949886316
 21
2117.0805336213
 31
0.0
  0
LINE
  5
27B
  8
0
  6
HIDDEN
 62
     7
 10
3425.9949886316
 20
2117.0805336213
 30
0.0
 11
3425.9949886316
 21
2112.0805336213
 31
0.0
  0
LINE
  5
27C
  8
0
  6
HIDDEN
 62
     7
 10
3427.5949886316
 20
2112.0805336213
 30
0.0
 11
3427.5949886316
 21
2117.0805336213
 31
0.0
  0
LINE
  5
27D
  8
0
  6
HIDDEN
 62
     7
 10
3361.1949886316
 20
1592.2805336213
 30
0.0
 11
3361.1949886316
 21
1600.0694966346
 31
0.0
  0
LINE
  5
27E
  8
0
  6
HIDDEN
 62
     7
 10
3359.5949886316
 20
1592.2805336213
 30
0.0
 11
3361.1949886316
 21
1592.2805336213
 31
0.0
  0
LINE
  5
27F
  8
0
  6
HIDDEN
 62
     7
 10
3359.5949886316
 20
1600.0694966346
 30
0.0
 11
3361.1949886316
 21
1600.0694966346
 31
0.0
  0
LINE
  5
280
  8
0
  6
HIDDEN
 62
     7
 10
3359.5949886316
 20
1592.2805336213
 30
0.0
 11
3359.5949886316
 21
1600.0694966346
 31
0.0
  0
LINE
  5
281
  8
0
  6
HIDDEN
 62
     7
 10
3359.5949886316
 20
2096.0805336213
 30
0.0
 11
3361.1949886316
 21
2096.0805336213
 31
0.0
  0
LINE
  5
282
  8
0
  6
HIDDEN
 62
     7
 10
3359.5949886316
 20
2088.291570608
 30
0.0
 11
3361.1949886316
 21
2088.291570608
 31
0.0
  0
LINE
  5
283
  8
0
  6
HIDDEN
 62
     7
 10
3359.5949886316
 20
2096.0805336213
 30
0.0
 11
3359.5949886316
 21
2088.291570608
 31
0.0
  0
LINE
  5
284
  8
0
  6
HIDDEN
 62
     7
 10
3361.1949886316
 20
2096.0805336213
 30
0.0
 11
3361.1949886316
 21
2088.291570608
 31
0.0
  0
LINE
  5
285
  8
0
  6
HIDDEN
 62
     7
 10
3361.1949886316
 20
2117.0805336213
 30
0.0
 11
3359.5949886316
 21
2117.0805336213
 31
0.0
  0
LINE
  5
286
  8
0
  6
HIDDEN
 62
     7
 10
3359.5949886316
 20
2112.0805336213
 30
0.0
 11
3361.1949886316
 21
2112.0805336213
 31
0.0
  0
LINE
  5
287
  8
0
  6
HIDDEN
 62
     7
 10
3359.5949886316
 20
2117.0805336213
 30
0.0
 11
3359.5949886316
 21
2112.0805336213
 31
0.0
  0
LINE
  5
288
  8
0
  6
HIDDEN
 62
     7
 10
3361.1949886316
 20
2112.0805336213
 30
0.0
 11
3361.1949886316
 21
2117.0805336213
 31
0.0
  0
LINE
  5
289
  8
0
  6
HIDDEN
 62
     7
 10
3359.5949886316
 20
1576.2805336213
 30
0.0
 11
3361.1949886316
 21
1576.2805336213
 31
0.0
  0
LINE
  5
28A
  8
0
  6
HIDDEN
 62
     7
 10
3361.1949886316
 20
1592.2805336213
 30
0.0
 11
3361.1949886316
 21
1576.2805336213
 31
0.0
  0
LINE
  5
28B
  8
0
  6
HIDDEN
 62
     7
 10
3359.5949886316
 20
1592.2805336213
 30
0.0
 11
3359.5949886316
 21
1576.2805336213
 31
0.0
  0
LINE
  5
28C
  8
0
  6
HIDDEN
 62
     7
 10
3359.5949886316
 20
2096.0805336213
 30
0.0
 11
3359.5949886316
 21
2112.0805336213
 31
0.0
  0
LINE
  5
28D
  8
0
  6
HIDDEN
 62
     7
 10
3361.1949886316
 20
2096.0805336213
 30
0.0
 11
3361.1949886316
 21
2112.0805336213
 31
0.0
  0
LINE
  5
28E
  8
0
  6
HIDDEN
 62
     7
 10
3361.1949886316
 20
1571.2805336213
 30
0.0
 11
3359.5949886316
 21
1571.2805336213
 31
0.0
  0
LINE
  5
28F
  8
0
  6
HIDDEN
 62
     7
 10
3361.1949886316
 20
1576.2805336213
 30
0.0
 11
3361.1949886316
 21
1571.2805336213
 31
0.0
  0
LINE
  5
290
  8
0
  6
HIDDEN
 62
     7
 10
3359.5949886316
 20
1571.2805336213
 30
0.0
 11
3359.5949886316
 21
1576.2805336213
 31
0.0
  0
ARC
  5
291
  8
0
  6
HIDDEN
 62
     7
 10
3364.0464680503
 20
1598.5567519986
 30
0.0
 40
3.227898884496458
 50
105.2949190652
 51
152.0535037299
  0
POLYLINE
  5
292
  8
0
  6
HIDDEN
 62
     7
 66
     1
 10
0.0
 20
0.0
 30
0.0
 70
   128
  0
VERTEX
  5
393
  8
0
  6
HIDDEN
 62
     7
 10
3363.1949886316
 20
1601.6703213343
 30
0.0
  0
VERTEX
  5
394
  8
0
  6
HIDDEN
 62
     7
 10
3361.8173282751
 20
1601.2701151594
 30
0.0
  0
VERTEX
  5
395
  8
0
  6
HIDDEN
 62
     7
 10
3360.6494042194
 20
1600.8699089844
 30
0.0
  0
VERTEX
  5
396
  8
0
  6
HIDDEN
 62
     7
 10
3359.8690223146
 20
1600.4697028095
 30
0.0
  0
VERTEX
  5
397
  8
0
  6
HIDDEN
 62
     7
 10
3359.5949886316
 20
1600.0694966346
 30
0.0
  0
SEQEND
  5
3A3
  8
0
  6
HIDDEN
 62
     7
  0
POLYLINE
  5
293
  8
0
  6
HIDDEN
 62
     7
 66
     1
 10
0.0
 20
0.0
 30
0.0
 70
   128
  0
VERTEX
  5
398
  8
0
  6
HIDDEN
 62
     7
 10
3363.1949886316
 20
2086.6907459082
 30
0.0
  0
VERTEX
  5
399
  8
0
  6
HIDDEN
 62
     7
 10
3361.8173282751
 20
2087.0909520832
 30
0.0
  0
VERTEX
  5
39A
  8
0
  6
HIDDEN
 62
     7
 10
3360.6494042194
 20
2087.4911582581
 30
0.0
  0
VERTEX
  5
39B
  8
0
  6
HIDDEN
 62
     7
 10
3359.8690223146
 20
2087.891364433
 30
0.0
  0
VERTEX
  5
39C
  8
0
  6
HIDDEN
 62
     7
 10
3359.5949886316
 20
2088.291570608
 30
0.0
  0
SEQEND
  5
3A4
  8
0
  6
HIDDEN
 62
     7
  0
ARC
  5
294
  8
0
  6
HIDDEN
 62
     7
 10
3364.0464680503
 20
2089.8043152439
 30
0.0
 40
3.227898884496246
 50
207.9464962701
 51
254.7050809348
  0
LINE
  5
295
  8
0
  6
HIDDEN
 62
     7
 10
3361.1949886316
 20
1571.2805336213
 30
0.0
 11
3363.1949886316
 21
1571.2805336213
 31
0.0
  0
LINE
  5
296
  8
0
  6
HIDDEN
 62
     7
 10
3361.1949886316
 20
2117.0805336213
 30
0.0
 11
3363.1949886316
 21
2117.0805336213
 31
0.0
  0
LINE
  5
297
  8
0
  6
HIDDEN
 62
     7
 10
3423.9949886316
 20
2117.0805336213
 30
0.0
 11
3425.9949886316
 21
2117.0805336213
 31
0.0
  0
LINE
  5
298
  8
0
  6
HIDDEN
 62
     7
 10
3423.9949886316
 20
1571.2805336213
 30
0.0
 11
3425.9949886316
 21
1571.2805336213
 31
0.0
  0
CIRCLE
  5
299
  8
0
  6
HIDDEN
 62
     7
 10
3398.2949886316
 20
2024.1805336213
 30
0.0
 40
8.499999999999773
  0
CIRCLE
  5
29A
  8
0
  6
HIDDEN
 62
     7
 10
3398.2949886316
 20
1664.1805336213
 30
0.0
 40
8.5
  0
LINE
  5
29B
  8
0
  6
HIDDEN
 62
     7
 10
3364.5949886316
 20
2036.9818038105
 30
0.0
 11
3389.5949886316
 21
1993.6805336213
 31
0.0
  0
LINE
  5
29C
  8
0
  6
HIDDEN
 62
     7
 10
3364.5949886316
 20
2086.1811875803
 30
0.0
 11
3364.5949886316
 21
2036.9818038105
 31
0.0
  0
LINE
  5
29D
  8
0
  6
HIDDEN
 62
     7
 10
3363.1949886316
 20
2117.0805336213
 30
0.0
 11
3423.9949886316
 21
2117.0805336213
 31
0.0
  0
LINE
  5
29E
  8
0
  6
HIDDEN
 62
     7
 10
3363.1949886316
 20
1571.2805336213
 30
0.0
 11
3423.9949886316
 21
1571.2805336213
 31
0.0
  0
LINE
  5
29F
  8
0
  6
HIDDEN
 62
     7
 10
3364.5949886316
 20
1602.1798796623
 30
0.0
 11
3364.5949886316
 21
1651.3792634321
 31
0.0
  0
LINE
  5
2A0
  8
0
  6
HIDDEN
 62
     7
 10
3364.5949886316
 20
1651.3792634321
 30
0.0
 11
3389.5949886316
 21
1694.6805336213
 31
0.0
  0
LINE
  5
2A1
  8
0
  6
HIDDEN
 62
     7
 10
3389.5949886316
 20
1694.6805336213
 30
0.0
 11
3389.5949886316
 21
1993.6805336213
 31
0.0
  0
LINE
  5
2A2
  8
0
  6
HIDDEN
 62
     7
 10
3363.1949886316
 20
1601.6703213343
 30
0.0
 11
3364.5949886316
 21
1602.1798796623
 31
0.0
  0
LINE
  5
2A3
  8
0
  6
HIDDEN
 62
     7
 10
3363.1949886316
 20
2086.6907459082
 30
0.0
 11
3364.5949886316
 21
2086.1811875803
 31
0.0
  0
LINE
  5
2A4
  8
0
  6
HIDDEN
 62
     7
 10
2590.5949886316
 20
1588.1805336213
 30
0.0
 11
2588.9949886316
 21
1588.1805336213
 31
0.0
  0
LINE
  5
2A5
  8
0
  6
HIDDEN
 62
     7
 10
2588.9949886316
 20
1580.1805336213
 30
0.0
 11
2590.5949886316
 21
1580.1805336213
 31
0.0
  0
LINE
  5
2A6
  8
0
  6
HIDDEN
 62
     7
 10
2590.5949886316
 20
2108.1805336213
 30
0.0
 11
2588.9949886316
 21
2108.1805336213
 31
0.0
  0
LINE
  5
2A7
  8
0
  6
HIDDEN
 62
     7
 10
2588.9949886316
 20
2100.1805336213
 30
0.0
 11
2590.5949886316
 21
2100.1805336213
 31
0.0
  0
LINE
  5
2A8
  8
0
  6
HIDDEN
 62
     7
 10
2656.9949886316
 20
1588.1805336213
 30
0.0
 11
2655.3949886316
 21
1588.1805336213
 31
0.0
  0
LINE
  5
2A9
  8
0
  6
HIDDEN
 62
     7
 10
2655.3949886316
 20
1580.1805336213
 30
0.0
 11
2656.9949886316
 21
1580.1805336213
 31
0.0
  0
LINE
  5
2AA
  8
0
  6
HIDDEN
 62
     7
 10
2656.9949886316
 20
2108.1805336213
 30
0.0
 11
2655.3949886316
 21
2108.1805336213
 31
0.0
  0
LINE
  5
2AB
  8
0
  6
HIDDEN
 62
     7
 10
2655.3949886316
 20
2100.1805336213
 30
0.0
 11
2656.9949886316
 21
2100.1805336213
 31
0.0
  0
LINE
  5
2AC
  8
0
  6
HIDDEN
 62
     7
 10
3425.9949886316
 20
1580.1805336213
 30
0.0
 11
3427.5949886316
 21
1580.1805336213
 31
0.0
  0
LINE
  5
2AD
  8
0
  6
HIDDEN
 62
     7
 10
3427.5949886316
 20
1588.1805336213
 30
0.0
 11
3425.9949886316
 21
1588.1805336213
 31
0.0
  0
LINE
  5
2AE
  8
0
  6
HIDDEN
 62
     7
 10
3425.9949886316
 20
2100.1805336213
 30
0.0
 11
3427.5949886316
 21
2100.1805336213
 31
0.0
  0
LINE
  5
2AF
  8
0
  6
HIDDEN
 62
     7
 10
3427.5949886316
 20
2108.1805336213
 30
0.0
 11
3425.9949886316
 21
2108.1805336213
 31
0.0
  0
LINE
  5
2B0
  8
0
  6
HIDDEN
 62
     7
 10
3359.5949886316
 20
1580.1805336213
 30
0.0
 11
3361.1949886316
 21
1580.1805336213
 31
0.0
  0
LINE
  5
2B1
  8
0
  6
HIDDEN
 62
     7
 10
3361.1949886316
 20
1588.1805336213
 30
0.0
 11
3359.5949886316
 21
1588.1805336213
 31
0.0
  0
LINE
  5
2B2
  8
0
  6
HIDDEN
 62
     7
 10
3359.5949886316
 20
2100.1805336213
 30
0.0
 11
3361.1949886316
 21
2100.1805336213
 31
0.0
  0
LINE
  5
2B3
  8
0
  6
HIDDEN
 62
     7
 10
3361.1949886316
 20
2108.1805336213
 30
0.0
 11
3359.5949886316
 21
2108.1805336213
 31
0.0
  0
DIMENSION
  5
2B4
  8
細線
  2
_D_16
 10
3398.2949886316
 20
2394.1805336213
 30
0.0
 11
2997.8050309036
 21
2394.1805336213
 31
0.0
 70
   160
  1
<>
  3
SLDDIMSTYLE0
 13
2618.2949886316
 23
2024.1805336213
 33
0.0
 14
3398.2949886316
 24
2024.1805336213
 34
0.0
  0
DIMENSION
  5
2BE
  8
細線
  2
_D_17
 10
2618.2949886316
 20
2394.1805336213
 30
0.0
 11
2533.8858815113
 21
2394.1805336213
 31
0.0
 70
   160
  1
<>
  3
SLDDIMSTYLE1
 13
2458.2949886316
 23
2294.1805336213
 33
0.0
 14
2618.2949886316
 24
2024.1805336213
 34
0.0
  0
DIMENSION
  5
2CA
  8
細線
  2
_D_18
 10
3558.2949886316
 20
2394.1805336213
 30
0.0
 11
3478.4165157095
 21
2394.1805336213
 31
0.0
 70
   160
  1
<>
  3
SLDDIMSTYLE1
 13
3398.2949886316
 23
2024.1805336213
 33
0.0
 14
3558.2949886316
 24
2294.1805336213
 34
0.0
  0
DIMENSION
  5
2D6
  8
細線
  2
_D_19
 10
3558.2949886316
 20
2483.5037977977
 30
0.0
 11
2997.8050309036
 21
2483.5037977977
 31
0.0
 70
   160
  1
<>
  3
SLDDIMSTYLE0
 13
2458.2949886316
 23
2294.1805336213
 33
0.0
 14
3558.2949886316
 24
2294.1805336213
 34
0.0
  0
DIMENSION
  5
2E0
  8
細線
  2
_D_20
 10
3691.0390091521
 20
2024.1805336213
 30
0.0
 11
3691.0390091521
 21
2148.311020422
 31
0.0
 70
   160
  1
<>
  3
SLDDIMSTYLE2
 13
3558.2949886316
 23
2294.1805336213
 33
0.0
 14
3398.2949886316
 24
2024.1805336213
 34
0.0
 50
90.0
  0
DIMENSION
  5
2EA
  8
細線
  2
_D_21
 10
3691.0390091521
 20
1664.1805336213
 30
0.0
 11
3691.0390091521
 21
1837.0366695907
 31
0.0
 70
   160
  1
<>
  3
SLDDIMSTYLE0
 13
3398.2949886316
 23
2024.1805336213
 33
0.0
 14
3398.2949886316
 24
1664.1805336213
 34
0.0
 50
90.0
  0
DIMENSION
  5
2F4
  8
細線
  2
_D_22
 10
3691.0390091521
 20
1394.1805336213
 30
0.0
 11
3691.0390091521
 21
1521.9578124518
 31
0.0
 70
   160
  1
<>
  3
SLDDIMSTYLE2
 13
3398.2949886316
 23
1664.1805336213
 33
0.0
 14
3558.2949886316
 24
1394.1805336213
 34
0.0
 50
90.0
  0
DIMENSION
  5
2FE
  8
細線
  2
_D_23
 10
3817.1785129997
 20
1394.1805336213
 30
0.0
 11
3817.1785129997
 21
1837.0366695907
 31
0.0
 70
   160
  1
<>
  3
SLDDIMSTYLE0
 13
3558.2949886316
 23
2294.1805336213
 33
0.0
 14
3558.2949886316
 24
1394.1805336213
 34
0.0
 50
90.0
  0
DIMENSION
  5
308
  8
細線
  2
_D_24
 10
3471.1146017989
 20
1866.4047050922
 30
0.0
 11
3076.5042800579
 21
1684.2768642886
 31
0.0
 70
   160
  1
<>
  3
SLDDIMSTYLE0
 13
2618.2949886316
 23
1664.1805336213
 33
0.0
 14
3398.2949886316
 24
2024.1805336213
 34
0.0
 50
24.7751405688
  0
DIMENSION
  5
312
  8
細線
  2
_D_25
 10
2588.9949886316
 20
1274.0484639963
 30
0.0
 11
2517.0985252698
 21
1274.0484639963
 31
0.0
 70
   160
  1
<>
  3
SLDDIMSTYLE1
 13
2458.2949886316
 23
1394.1805336213
 33
0.0
 14
2588.9949886316
 24
1571.2805336213
 34
0.0
  0
DIMENSION
  5
31E
  8
細線
  2
_D_26
 10
2358.2949886316
 20
1571.2805336213
 30
0.0
 11
2358.2949886316
 21
1484.8060643237
 31
0.0
 70
   160
  1
<>
  3
SLDDIMSTYLE1
 13
2458.2949886316
 23
1394.1805336213
 33
0.0
 14
2590.5949886316
 24
1571.2805336213
 34
0.0
 50
90.0
  0
LINE
  5
32A
  8
0
  6
CONTINUOUS
 62
     7
 10
2458.2949886316
 20
1011.2956036339
 30
0.0
 11
3558.2949886316
 21
1011.2956036339
 31
0.0
  0
LINE
  5
32B
  8
0
  6
CONTINUOUS
 62
     7
 10
3558.2949886316
 20
1011.2956036339
 30
0.0
 11
3558.2949886316
 21
921.2956036339
 31
0.0
  0
LINE
  5
32C
  8
0
  6
CONTINUOUS
 62
     7
 10
2458.2949886316
 20
1011.2956036339
 30
0.0
 11
2458.2949886316
 21
921.2956036339
 31
0.0
  0
LINE
  5
32D
  8
0
  6
CONTINUOUS
 62
     7
 10
2458.2949886316
 20
861.2956036339
 30
0.0
 11
3558.2949886316
 21
861.2956036339
 31
0.0
  0
LINE
  5
32E
  8
0
  6
CONTINUOUS
 62
     7
 10
2458.2949886316
 20
921.2956036339
 30
0.0
 11
2458.2949886316
 21
861.2956036339
 31
0.0
  0
LINE
  5
32F
  8
0
  6
CONTINUOUS
 62
     7
 10
3558.2949886316
 20
921.2956036339
 30
0.0
 11
3558.2949886316
 21
861.2956036339
 31
0.0
  0
LINE
  5
330
  8
0
  6
CENTERX2
 62
     7
 10
2458.2949886316
 20
921.2956036339
 30
0.0
 11
3558.2949886316
 21
921.2956036339
 31
0.0
  0
LINE
  5
331
  8
0
  6
HIDDEN
 62
     7
 10
2610.0449886316
 20
931.2956036339
 30
0.0
 11
2626.5449886316
 21
931.2956036339
 31
0.0
  0
LINE
  5
332
  8
0
  6
HIDDEN
 62
     7
 10
3398.2949886316
 20
931.2956036339
 30
0.0
 11
3406.5449886316
 21
931.2956036339
 31
0.0
  0
LINE
  5
333
  8
0
  6
HIDDEN
 62
     7
 10
3390.0449886316
 20
931.2956036339
 30
0.0
 11
3398.2949886316
 21
931.2956036339
 31
0.0
  0
LINE
  5
334
  8
0
  6
HIDDEN
 62
     7
 10
2610.0449886316
 20
1011.2956036339
 30
0.0
 11
2610.0449886316
 21
931.2956036339
 31
0.0
  0
LINE
  5
335
  8
0
  6
HIDDEN
 62
     7
 10
2626.5449886316
 20
931.2956036339
 30
0.0
 11
2626.5449886316
 21
1011.2956036339
 31
0.0
  0
LINE
  5
336
  8
0
  6
HIDDEN
 62
     7
 10
3390.0449886316
 20
1011.2956036339
 30
0.0
 11
3390.0449886316
 21
931.2956036339
 31
0.0
  0
LINE
  5
337
  8
0
  6
HIDDEN
 62
     7
 10
3406.5449886316
 20
931.2956036339
 30
0.0
 11
3406.5449886316
 21
1011.2956036339
 31
0.0
  0
DIMENSION
  5
338
  8
細線
  2
_D_27
 10
2626.5449886316
 20
1108.1236573909
 30
0.0
 11
2473.7438125396
 21
1108.1236573909
 31
0.0
 70
   160
  1
%%c<>
  3
SLDDIMSTYLE3
 13
2610.0449886316
 23
1011.2956036339
 33
0.0
 14
2626.5449886316
 24
1011.2956036339
 34
0.0
  0
DIMENSION
  5
345
  8
細線
  2
_D_28
 10
2358.2949886316
 20
861.2956036339
 30
0.0
 11
2358.2949886316
 21
930.139966437
 31
0.0
 70
   160
  1
<>
  3
SLDDIMSTYLE3
 13
2458.2949886316
 23
1011.2956036339
 33
0.0
 14
2458.2949886316
 24
861.2956036339
 34
0.0
 50
90.0
  0
DIMENSION
  5
351
  8
細線
  2
_D_29
 10
3658.2949886316
 20
931.2956036339
 30
0.0
 11
3658.2949886316
 21
1088.0626255632
 31
0.0
 70
   160
  1
<>
  3
SLDDIMSTYLE3
 13
3558.2949886316
 23
1011.2956036339
 33
0.0
 14
3406.5449886316
 24
931.2956036339
 34
0.0
 50
90.0
  0
DIMENSION
  5
35D
  8
細線
  2
_D_30
 10
3727.9478436254
 20
921.2956036339
 30
0.0
 11
3727.9478436254
 21
967.8098607589
 31
0.0
 70
   160
  1
<>
  3
SLDDIMSTYLE1
 13
3406.5449886316
 23
931.2956036339
 33
0.0
 14
3558.2949886316
 24
921.2956036339
 34
0.0
 50
90.0
  0
DIMENSION
  5
369
  8
細線
  2
_D_31
 10
3658.2949886316
 20
861.2956036339
 30
0.0
 11
3658.2949886316
 21
785.7011020498
 31
0.0
 70
   160
  1
<>
  3
SLDDIMSTYLE1
 13
3558.2949886316
 23
921.2956036339
 33
0.0
 14
3558.2949886316
 24
861.2956036339
 34
0.0
 50
90.0
  0
ENDSEC
  0
EOF
