  0
SECTION
  2
HEADER
  9
$ACADVER
  1
AC1009
  9
$DWGCODEPAGE
  3
dos932
  9
$INSBASE
 10
0.0
 20
0.0
 30
0.0
  9
$EXTMIN
 10
0.0
 20
0.0
 30
0.0
  9
$EXTMAX
 10
6300.0
 20
4455.0
 30
0.0
  9
$LIMMIN
 10
0.0
 20
0.0
  9
$LIMMAX
 10
6300.0
 20
4455.0
  9
$ORTHOMODE
 70
     0
  9
$REGENMODE
 70
     1
  9
$FILLMODE
 70
     1
  9
$QTEXTMODE
 70
     0
  9
$MIRRTEXT
 70
     1
  9
$DRAGMODE
 70
     2
  9
$LTSCALE
 40
15.0
  9
$OSMODE
 70
    37
  9
$ATTMODE
 70
     1
  9
$TEXTSIZE
 40
52.5
  9
$TRACEWID
 40
1.0
  9
$TEXTSTYLE
  7
STANDARD
  9
$CLAYER
  8
0
  9
$CELTYPE
  6
BYLAYER
  9
$CECOLOR
 62
   256
  9
$DIMSCALE
 40
1.0
  9
$DIMASZ
 40
45.0
  9
$DIMEXO
 40
15.0
  9
$DIMDLI
 40
3.75
  9
$DIMRND
 40
0.0
  9
$DIMDLE
 40
0.0
  9
$DIMEXE
 40
15.0
  9
$DIMTP
 40
0.0
  9
$DIMTM
 40
0.0
  9
$DIMTXT
 40
52.5
  9
$DIMCEN
 40
2.5
  9
$DIMTSZ
 40
0.0
  9
$DIMTOL
 70
     0
  9
$DIMLIM
 70
     0
  9
$DIMTIH
 70
     1
  9
$DIMTOH
 70
     1
  9
$DIMSE1
 70
     0
  9
$DIMSE2
 70
     0
  9
$DIMTAD
 70
     1
  9
$DIMZIN
 70
     0
  9
$DIMBLK
  1

  9
$DIMASO
 70
     1
  9
$DIMSHO
 70
     1
  9
$DIMPOST
  1

  9
$DIMAPOST
  1

  9
$DIMALT
 70
     0
  9
$DIMALTD
 70
     3
  9
$DIMALTF
 40
0.0393700787
  9
$DIMLFAC
 40
1.0
  9
$DIMTOFL
 70
     1
  9
$DIMTVP
 40
0.0
  9
$DIMTIX
 70
     0
  9
$DIMSOXD
 70
     0
  9
$DIMSAH
 70
     0
  9
$DIMBLK1
  1

  9
$DIMBLK2
  1

  9
$DIMSTYLE
  2
ISO-25
  9
$DIMCLRD
 70
     0
  9
$DIMCLRE
 70
     0
  9
$DIMCLRT
 70
     0
  9
$DIMTFAC
 40
1.0
  9
$DIMGAP
 40
22.86
  9
$LUNITS
 70
     2
  9
$LUPREC
 70
     1
  9
$SKETCHINC
 40
1.0
  9
$FILLETRAD
 40
10.0
  9
$AUNITS
 70
     0
  9
$AUPREC
 70
     1
  9
$MENU
  1
.
  9
$ELEVATION
 40
0.0
  9
$PELEVATION
 40
0.0
  9
$THICKNESS
 40
0.0
  9
$LIMCHECK
 70
     0
  9
$CHAMFERA
 40
0.0
  9
$CHAMFERB
 40
0.0
  9
$SKPOLY
 70
     0
  9
$TDCREATE
 40
2459328.6733761
  9
$TDUPDATE
 40
2459328.673377882
  9
$TDINDWG
 40
0.0000000116
  9
$TDUSRTIMER
 40
0.0000000116
  9
$USRTIMER
 70
     1
  9
$ANGBASE
 50
0.0
  9
$ANGDIR
 70
     0
  9
$PDMODE
 70
     0
  9
$PDSIZE
 40
-1.0
  9
$PLINEWID
 40
0.0
  9
$COORDS
 70
     1
  9
$SPLFRAME
 70
     0
  9
$SPLINETYPE
 70
     6
  9
$SPLINESEGS
 70
     8
  9
$ATTDIA
 70
     0
  9
$ATTREQ
 70
     1
  9
$HANDLING
 70
     1
  9
$HANDSEED
  5
248
  9
$SURFTAB1
 70
     6
  9
$SURFTAB2
 70
     6
  9
$SURFTYPE
 70
     6
  9
$SURFU
 70
     6
  9
$SURFV
 70
     6
  9
$UCSNAME
  2

  9
$UCSORG
 10
0.0
 20
0.0
 30
0.0
  9
$UCSXDIR
 10
1.0
 20
0.0
 30
0.0
  9
$UCSYDIR
 10
0.0
 20
1.0
 30
0.0
  9
$PUCSNAME
  2

  9
$PUCSORG
 10
0.0
 20
0.0
 30
0.0
  9
$PUCSXDIR
 10
1.0
 20
0.0
 30
0.0
  9
$PUCSYDIR
 10
0.0
 20
1.0
 30
0.0
  9
$USERI1
 70
     0
  9
$USERI2
 70
     0
  9
$USERI3
 70
     0
  9
$USERI4
 70
     0
  9
$USERI5
 70
     0
  9
$USERR1
 40
0.0
  9
$USERR2
 40
0.0
  9
$USERR3
 40
0.0
  9
$USERR4
 40
0.0
  9
$USERR5
 40
0.0
  9
$WORLDVIEW
 70
     1
  9
$SHADEDGE
 70
     3
  9
$SHADEDIF
 70
    70
  9
$TILEMODE
 70
     1
  9
$MAXACTVP
 70
    64
  9
$PLIMCHECK
 70
     0
  9
$PEXTMIN
 10
1.0000000000E+20
 20
1.0000000000E+20
 30
1.0000000000E+20
  9
$PEXTMAX
 10
-1.0000000000E+20
 20
-1.0000000000E+20
 30
-1.0000000000E+20
  9
$PLIMMIN
 10
0.0
 20
0.0
  9
$PLIMMAX
 10
420.0
 20
297.0
  9
$UNITMODE
 70
     0
  9
$VISRETAIN
 70
     1
  9
$PLINEGEN
 70
     0
  9
$PSLTSCALE
 70
     1
  0
ENDSEC
  0
SECTION
  2
TABLES
  0
TABLE
  2
VPORT
 70
     1
  0
VPORT
  2
*ACTIVE
 70
     0
 10
0.0
 20
0.0
 11
1.0
 21
1.0
 12
3150.0
 22
2227.5
 13
0.0
 23
0.0
 14
10.0
 24
10.0
 15
10.0
 25
10.0
 16
0.0
 26
0.0
 36
1.0
 17
0.0
 27
0.0
 37
0.0
 40
4455.0
 41
1.4141414141
 42
50.0
 43
0.0
 44
0.0
 50
0.0
 51
0.0
 71
     0
 72
  2000
 73
     1
 74
     3
 75
     0
 76
     0
 77
     0
 78
     0
  0
ENDTAB
  0
TABLE
  2
LTYPE
 70
     6
  0
LTYPE
  2
CONTINUOUS
 70
     0
  3
Solid line
 72
    65
 73
     0
 40
0.0
  0
LTYPE
  2
HIDDEN
 70
     0
  3
Hidden __ __ __ __ __ __ __ __ __ __ __ __ __ __
 72
    65
 73
     2
 40
1.905
 49
1.27
 49
-0.635
  0
LTYPE
  2
PHANTOM
 70
     0
  3
Phantom ______  __  __  ______  __  __  ______
 72
    65
 73
     6
 40
12.7
 49
6.35
 49
-1.27
 49
1.27
 49
-1.27
 49
1.27
 49
-1.27
  0
LTYPE
  2
CENTER
 70
     0
  3
Center ____ _ ____ _ ____ _ ____ _ ____ _ ____
 72
    65
 73
     4
 40
10.16
 49
6.35
 49
-1.27
 49
1.27
 49
-1.27
  0
LTYPE
  2
CENTERX2
 70
     0
  3
Center (2x) ________  __  ________  __  _____
 72
    65
 73
     4
 40
20.32
 49
12.7
 49
-2.54
 49
2.54
 49
-2.54
  0
LTYPE
  2
DOT2
 70
     0
  3
Dot (.5x) ........................................
 72
    65
 73
     2
 40
0.635
 49
0.0
 49
-0.635
  0
ENDTAB
  0
TABLE
  2
LAYER
 70
     4
  0
LAYER
  2
0
 70
     0
 62
     7
  6
CONTINUOUS
  0
LAYER
  2
太線
 70
     0
 62
     7
  6
CONTINUOUS
  0
LAYER
  2
中太線
 70
     0
 62
     7
  6
CONTINUOUS
  0
LAYER
  2
細線
 70
     0
 62
     7
  6
CONTINUOUS
  0
ENDTAB
  0
TABLE
  2
STYLE
 70
     1
  0
STYLE
  2
STANDARD
 70
     0
 40
0.0
 41
1.0
 50
0.0
 71
     0
 42
52.5
  3
txt
  4
bigfont
  0
ENDTAB
  0
TABLE
  2
VIEW
 70
     0
  0
ENDTAB
  0
TABLE
  2
UCS
 70
     0
  0
ENDTAB
  0
TABLE
  2
APPID
 70
     1
  0
APPID
  2
ACAD
 70
     0
  0
ENDTAB
  0
TABLE
  2
DIMSTYLE
 70
     3
  0
DIMSTYLE
  2
ISO-25
 70
     0
  3

  4

  5

  6

  7

 40
1.0
 41
2.5
 42
0.625
 43
3.75
 44
1.25
 45
0.0
 46
0.0
 47
0.0
 48
0.0
140
2.5
141
2.5
142
0.0
143
0.0393700787
144
1.0
145
0.0
146
1.0
147
0.625
 71
     0
 72
     0
 73
     0
 74
     0
 75
     0
 76
     0
 77
     1
 78
     8
170
     0
171
     3
172
     1
173
     0
174
     0
175
     0
176
     0
177
     0
178
     0
  0
DIMSTYLE
  2
SLDDIMSTYLE0
 70
     0
  3

  4

  5

  6
OPEN30
  7
OPEN30
 40
1.0
 41
45.0
 42
0.0625
 43
0.38
 44
0.0
 45
0.000000001
 46
0.0
 47
0.0
 48
0.0
140
52.5
141
0.09
142
0.0
143
25.4
144
1.0
145
0.0
146
1.0
147
13.125
 71
     0
 72
     0
 73
     0
 74
     0
 75
     0
 76
     0
 77
     3
 78
    12
170
     0
171
     2
172
     0
173
     1
174
     0
175
     0
176
     0
177
     0
178
     0
  0
DIMSTYLE
  2
SLDDIMSTYLE1
 70
     0
  3

  4

  5

  6
OPEN30
  7
OPEN30
 40
1.0
 41
45.0
 42
0.0625
 43
0.38
 44
0.0
 45
0.000000001
 46
0.0
 47
0.0
 48
0.0
140
52.5
141
0.09
142
0.0
143
25.4
144
1.0
145
0.0
146
1.0
147
13.125
 71
     0
 72
     0
 73
     0
 74
     0
 75
     0
 76
     0
 77
     3
 78
    12
170
     0
171
     2
172
     1
173
     1
174
     0
175
     0
176
     0
177
     0
178
     0
  0
ENDTAB
  0
ENDSEC
  0
SECTION
  2
BLOCKS
  0
BLOCK
  8
0
  2
$MODEL_SPACE
 70
     0
 10
0.0
 20
0.0
 30
0.0
  3
$MODEL_SPACE
  1

  0
ENDBLK
  5
21
  8
0
  0
BLOCK
 67
     1
  8
0
  2
$PAPER_SPACE
 70
     0
 10
0.0
 20
0.0
 30
0.0
  3
$PAPER_SPACE
  1

  0
ENDBLK
  5
1D
 67
     1
  8
0
  0
BLOCK
  8
0
  2
SW_NOTE_0
 70
     0
 10
0.0
 20
0.0
 30
0.0
  3
SW_NOTE_0
  1

  0
TEXT
  5
8C
  8
細線
 62
     0
 10
0.0
 20
18.5461532508
 30
0.0
 40
52.5
  1
尺
 41
0.7
 11
0.0
 21
0.0
 31
0.0
 73
     1
  0
TEXT
  5
8D
  8
細線
 62
     0
 10
0.0
 20
-56.4538450728
 30
0.0
 40
52.5
  1
度
 41
0.7
 11
0.0
 21
-74.9999983236
 31
0.0
 73
     1
  0
ENDBLK
  5
8B
  8
0
  0
BLOCK
  8
0
  2
SW_NOTE_1
 70
     0
 10
0.0
 20
0.0
 30
0.0
  3
SW_NOTE_1
  1

  0
TEXT
  5
92
  8
細線
 62
     0
 10
0.0
 20
18.5461532508
 30
0.0
 40
52.5
  1
製
 41
0.7
 11
0.0
 21
0.0
 31
0.0
 73
     1
  0
TEXT
  5
93
  8
細線
 62
     0
 10
0.0
 20
-56.4538450728
 30
0.0
 40
52.5
  1
図
 41
0.7
 11
0.0
 21
-74.9999983236
 31
0.0
 73
     1
  0
ENDBLK
  5
91
  8
0
  0
BLOCK
  8
0
  2
SW_NOTE_2
 70
     0
 10
0.0
 20
0.0
 30
0.0
  3
SW_NOTE_2
  1

  0
TEXT
  5
98
  8
細線
 62
     0
 10
0.0
 20
18.5461532508
 30
0.0
 40
52.5
  1
検
 41
0.7
 11
0.0
 21
0.0
 31
0.0
 73
     1
  0
TEXT
  5
99
  8
細線
 62
     0
 10
0.0
 20
-56.4538450728
 30
0.0
 40
52.5
  1
図
 41
0.7
 11
0.0
 21
-74.9999983236
 31
0.0
 73
     1
  0
ENDBLK
  5
97
  8
0
  0
BLOCK
  8
0
  2
SW_NOTE_3
 70
     0
 10
0.0
 20
0.0
 30
0.0
  3
SW_NOTE_3
  1

  0
TEXT
  5
9E
  8
細線
 62
     0
 10
0.0
 20
18.5461532508
 30
0.0
 40
52.5
  1
単
 41
0.7
 11
0.0
 21
0.0
 31
0.0
 73
     1
  0
TEXT
  5
9F
  8
細線
 62
     0
 10
0.0
 20
-56.4538450728
 30
0.0
 40
52.5
  1
位
 41
0.7
 11
0.0
 21
-74.9999983236
 31
0.0
 73
     1
  0
ENDBLK
  5
9D
  8
0
  0
BLOCK
  8
0
  2
SW_NOTE_4
 70
     0
 10
0.0
 20
0.0
 30
0.0
  3
SW_NOTE_4
  1

  0
TEXT
  5
A4
  8
細線
 62
     0
 10
0.0
 20
18.5461532508
 30
0.0
 40
52.5
  1
日
 41
0.7
 11
0.0
 21
0.0
 31
0.0
 73
     1
  0
TEXT
  5
A5
  8
細線
 62
     0
 10
0.0
 20
-56.4538450728
 30
0.0
 40
52.5
  1
付
 41
0.7
 11
0.0
 21
-74.9999983236
 31
0.0
 73
     1
  0
ENDBLK
  5
A3
  8
0
  0
BLOCK
  8
0
  2
SW_NOTE_5
 70
     0
 10
0.0
 20
0.0
 30
0.0
  3
SW_NOTE_5
  1

  0
LINE
  5
AF
  8
細線
 62
     0
 10
-0.6063117489
 20
1.0366951452
 30
0.0
 11
-0.6063117489
 21
96.0187739982
 31
0.0
  0
LINE
  5
B0
  8
細線
 62
     0
 10
-0.6063117489
 20
96.0187739982
 30
0.0
 11
284.3399248103
 21
96.0187739982
 31
0.0
  0
LINE
  5
B1
  8
細線
 62
     0
 10
284.3399248103
 20
96.0187739982
 30
0.0
 11
284.3399248103
 21
1.0366951452
 31
0.0
  0
LINE
  5
B2
  8
細線
 62
     0
 10
284.3399248103
 20
1.0366951452
 30
0.0
 11
-0.6063117489
 21
1.0366951452
 31
0.0
  0
TEXT
  5
B3
  8
細線
 62
     0
 10
0.0
 20
25.2360156734
 30
0.0
 40
71.4375
  1
背面図
 41
0.7
 11
0.0
 21
0.0
 31
0.0
 73
     1
  0
ENDBLK
  5
AE
  8
0
  0
BLOCK
  8
0
  2
SW_NOTE_6
 70
     0
 10
0.0
 20
0.0
 30
0.0
  3
SW_NOTE_6
  1

  0
TEXT
  5
B8
  8
細線
 62
     0
 10
0.0
 20
18.5461532508
 30
0.0
 40
52.5
  1
図
 41
0.7
 11
0.0
 21
0.0
 31
0.0
 73
     1
  0
TEXT
  5
B9
  8
細線
 62
     0
 10
0.0
 20
-56.4538450728
 30
0.0
 40
52.5
  1
名
 41
0.7
 11
0.0
 21
-74.9999983236
 31
0.0
 73
     1
  0
ENDBLK
  5
B7
  8
0
  0
BLOCK
  8
0
  2
SW_NOTE_7
 70
     0
 10
0.0
 20
0.0
 30
0.0
  3
SW_NOTE_7
  1

  0
TEXT
  5
BE
  8
細線
 62
     0
 10
0.0
 20
16.8240104489
 30
0.0
 40
47.625
  1
表面
 41
0.7
 11
0.0
 21
0.0
 31
0.0
 73
     1
  0
TEXT
  5
BF
  8
細線
 62
     0
 10
0.0
 20
-46.6759887837
 30
0.0
 40
47.625
  1
処理
 41
0.7
 11
0.0
 21
-63.4999992326
 31
0.0
 73
     1
  0
ENDBLK
  5
BD
  8
0
  0
BLOCK
  8
0
  2
SW_NOTE_8
 70
     0
 10
0.0
 20
0.0
 30
0.0
  3
SW_NOTE_8
  1

  0
TEXT
  5
C4
  8
細線
 62
     0
 10
0.0
 20
18.5461532508
 30
0.0
 40
52.5
  1
図
 41
0.7
 11
0.0
 21
0.0
 31
0.0
 73
     1
  0
TEXT
  5
C5
  8
細線
 62
     0
 10
0.0
 20
-56.4538450728
 30
0.0
 40
52.5
  1
番
 41
0.7
 11
0.0
 21
-74.9999983236
 31
0.0
 73
     1
  0
ENDBLK
  5
C3
  8
0
  0
BLOCK
  8
0
  2
SW_TABLEANNOTATION_0
 70
     0
 10
0.0
 20
0.0
 30
0.0
  3
SW_TABLEANNOTATION_0
  1

  0
LINE
  5
CE
  8
細線
 62
     0
 10
0.0
 20
0.0
 30
0.0
 11
0.0
 21
-412.5
 31
0.0
  0
LINE
  5
CF
  8
細線
 62
     0
 10
0.0
 20
-412.5
 30
0.0
 11
1227.6822609164
 21
-412.5
 31
0.0
  0
LINE
  5
D0
  8
細線
 62
     0
 10
1227.6822609164
 20
-412.5
 30
0.0
 11
1227.6822609164
 21
0.0
 31
0.0
  0
LINE
  5
D1
  8
細線
 62
     0
 10
1227.6822609164
 20
0.0
 30
0.0
 11
0.0
 21
0.0
 31
0.0
  0
LINE
  5
D2
  8
細線
 62
     0
 10
271.0630438198
 20
-330.0
 30
0.0
 11
271.0630438198
 21
-412.5
 31
0.0
  0
LINE
  5
D3
  8
細線
 62
     0
 10
689.9486282403
 20
-330.0
 30
0.0
 11
689.9486282403
 21
-412.5
 31
0.0
  0
LINE
  5
D4
  8
細線
 62
     0
 10
860.0901695983
 20
-330.0
 30
0.0
 11
860.0901695983
 21
-412.5
 31
0.0
  0
LINE
  5
D5
  8
細線
 62
     0
 10
1057.5407195584
 20
-330.0
 30
0.0
 11
1057.5407195584
 21
-412.5
 31
0.0
  0
LINE
  5
D6
  8
細線
 62
     0
 10
271.0630438198
 20
0.0
 30
0.0
 11
271.0630438198
 21
-330.0
 31
0.0
  0
LINE
  5
D7
  8
細線
 62
     0
 10
689.9486282403
 20
0.0
 30
0.0
 11
689.9486282403
 21
-330.0
 31
0.0
  0
LINE
  5
D8
  8
細線
 62
     0
 10
860.0901695983
 20
0.0
 30
0.0
 11
860.0901695983
 21
-330.0
 31
0.0
  0
LINE
  5
D9
  8
細線
 62
     0
 10
1057.5407195584
 20
0.0
 30
0.0
 11
1057.5407195584
 21
-330.0
 31
0.0
  0
LINE
  5
DA
  8
細線
 62
     0
 10
0.0
 20
-82.5
 30
0.0
 11
1227.6822609164
 21
-82.5
 31
0.0
  0
LINE
  5
DB
  8
細線
 62
     0
 10
0.0
 20
-165.0
 30
0.0
 11
1227.6822609164
 21
-165.0
 31
0.0
  0
LINE
  5
DC
  8
細線
 62
     0
 10
0.0
 20
-247.5
 30
0.0
 11
1227.6822609164
 21
-247.5
 31
0.0
  0
LINE
  5
DD
  8
細線
 62
     0
 10
0.0
 20
-330.0
 30
0.0
 11
1227.6822609164
 21
-330.0
 31
0.0
  0
TEXT
  5
DE
  8
細線
 62
     0
 10
13.3231920609
 20
-387.0881907684
 30
0.0
 40
52.5
  1
部品番号
 41
0.7
 11
13.3231920609
 21
-405.6343440192
 31
0.0
 73
     1
  0
TEXT
  5
DF
  8
細線
 62
     0
 10
419.4016711056
 20
-387.0881907684
 30
0.0
 40
52.5
  1
品名
 41
0.7
 11
419.4016711056
 21
-405.6343440192
 31
0.0
 73
     1
  0
TEXT
  5
E0
  8
細線
 62
     0
 10
713.9152339948
 20
-387.0881907684
 30
0.0
 40
52.5
  1
個数
 41
0.7
 11
713.9152339948
 21
-405.6343440192
 31
0.0
 73
     1
  0
TEXT
  5
E1
  8
細線
 62
     0
 10
897.7112796539
 20
-387.0881907684
 30
0.0
 40
52.5
  1
材質
 41
0.7
 11
897.7112796539
 21
-405.6343440192
 31
0.0
 73
     1
  0
TEXT
  5
E2
  8
細線
 62
     0
 10
1081.507325313
 20
-387.0881907684
 30
0.0
 40
52.5
  1
板厚
 41
0.7
 11
1081.507325313
 21
-405.6343440192
 31
0.0
 73
     1
  0
TEXT
  5
E3
  8
細線
 62
     0
 10
120.2554806788
 20
-57.0881907684
 30
0.0
 40
52.5
  1
4
 41
0.7
 11
120.2554806788
 21
-75.6343440192
 31
0.0
 73
     1
  0
TEXT
  5
E4
  8
細線
 62
     0
 10
419.4016711056
 20
-57.0881907684
 30
0.0
 40
52.5
  1
屋根
 41
0.7
 11
419.4016711056
 21
-75.6343440192
 31
0.0
 73
     1
  0
TEXT
  5
E5
  8
細線
 62
     0
 10
759.7433576882
 20
-57.0881907684
 30
0.0
 40
52.5
  1
1
 41
0.7
 11
759.7433576882
 21
-75.6343440192
 31
0.0
 73
     1
  0
TEXT
  5
E6
  8
細線
 62
     0
 10
882.435240169
 20
-57.0881907684
 30
0.0
 40
52.5
  1
SGMCC
 41
0.7
 11
882.435240169
 21
-75.6343440192
 31
0.0
 73
     1
  0
TEXT
  5
E7
  8
細線
 62
     0
 10
1096.7833647978
 20
-57.0881907684
 30
0.0
 40
52.5
  1
0.8
 41
0.7
 11
1096.7833647978
 21
-75.6343440192
 31
0.0
 73
     1
  0
TEXT
  5
E8
  8
細線
 62
     0
 10
120.2554806788
 20
-139.5881907684
 30
0.0
 40
52.5
  1
3
 41
0.7
 11
120.2554806788
 21
-158.1343440192
 31
0.0
 73
     1
  0
TEXT
  5
E9
  8
細線
 62
     0
 10
388.8495851509
 20
-139.5881907684
 30
0.0
 40
52.5
  1
パネル
 41
0.7
 11
388.8495851509
 21
-158.1343440192
 31
0.0
 73
     1
  0
TEXT
  5
EA
  8
細線
 62
     0
 10
759.7433576882
 20
-139.5881907684
 30
0.0
 40
52.5
  1
4
 41
0.7
 11
759.7433576882
 21
-158.1343440192
 31
0.0
 73
     1
  0
TEXT
  5
EB
  8
細線
 62
     0
 10
882.435240169
 20
-139.5881907684
 30
0.0
 40
52.5
  1
SGMCC
 41
0.7
 11
882.435240169
 21
-158.1343440192
 31
0.0
 73
     1
  0
TEXT
  5
EC
  8
細線
 62
     0
 10
1096.7833647978
 20
-139.5881907684
 30
0.0
 40
52.5
  1
1.2
 41
0.7
 11
1096.7833647978
 21
-158.1343440192
 31
0.0
 73
     1
  0
TEXT
  5
ED
  8
細線
 62
     0
 10
120.2554806788
 20
-222.0881907684
 30
0.0
 40
52.5
  1
2
 41
0.7
 11
120.2554806788
 21
-240.6343440192
 31
0.0
 73
     1
  0
TEXT
  5
EE
  8
細線
 62
     0
 10
419.4016711056
 20
-222.0881907684
 30
0.0
 40
52.5
  1
左柱
 41
0.7
 11
419.4016711056
 21
-240.6343440192
 31
0.0
 73
     1
  0
TEXT
  5
EF
  8
細線
 62
     0
 10
759.7433576882
 20
-222.0881907684
 30
0.0
 40
52.5
  1
1
 41
0.7
 11
759.7433576882
 21
-240.6343440192
 31
0.0
 73
     1
  0
TEXT
  5
F0
  8
細線
 62
     0
 10
882.435240169
 20
-222.0881907684
 30
0.0
 40
52.5
  1
SGMCC
 41
0.7
 11
882.435240169
 21
-240.6343440192
 31
0.0
 73
     1
  0
TEXT
  5
F1
  8
細線
 62
     0
 10
1096.7833647978
 20
-222.0881907684
 30
0.0
 40
52.5
  1
0.8
 41
0.7
 11
1096.7833647978
 21
-240.6343440192
 31
0.0
 73
     1
  0
TEXT
  5
F2
  8
細線
 62
     0
 10
120.2554806788
 20
-304.5881907684
 30
0.0
 40
52.5
  1
1
 41
0.7
 11
120.2554806788
 21
-323.1343440192
 31
0.0
 73
     1
  0
TEXT
  5
F3
  8
細線
 62
     0
 10
419.4016711056
 20
-304.5881907684
 30
0.0
 40
52.5
  1
右柱
 41
0.7
 11
419.4016711056
 21
-323.1343440192
 31
0.0
 73
     1
  0
TEXT
  5
F4
  8
細線
 62
     0
 10
759.7433576882
 20
-304.5881907684
 30
0.0
 40
52.5
  1
1
 41
0.7
 11
759.7433576882
 21
-323.1343440192
 31
0.0
 73
     1
  0
TEXT
  5
F5
  8
細線
 62
     0
 10
882.435240169
 20
-304.5881907684
 30
0.0
 40
52.5
  1
SGMCC
 41
0.7
 11
882.435240169
 21
-323.1343440192
 31
0.0
 73
     1
  0
TEXT
  5
F6
  8
細線
 62
     0
 10
1096.7833647978
 20
-304.5881907684
 30
0.0
 40
52.5
  1
0.8
 41
0.7
 11
1096.7833647978
 21
-323.1343440192
 31
0.0
 73
     1
  0
ENDBLK
  5
CD
  8
0
  0
BLOCK
  8
0
  2
SW_TABLEANNOTATION_1
 70
     0
 10
0.0
 20
0.0
 30
0.0
  3
SW_TABLEANNOTATION_1
  1

  0
LINE
  5
FB
  8
細線
 62
     0
 10
0.0
 20
0.0
 30
0.0
 11
0.0
 21
-720.0
 31
0.0
  0
LINE
  5
FC
  8
細線
 62
     0
 10
0.0
 20
-720.0
 30
0.0
 11
2247.7150120889
 21
-720.0
 31
0.0
  0
LINE
  5
FD
  8
細線
 62
     0
 10
2247.7150120889
 20
-720.0
 30
0.0
 11
2247.7150120889
 21
0.0
 31
0.0
  0
LINE
  5
FE
  8
細線
 62
     0
 10
2247.7150120889
 20
0.0
 30
0.0
 11
0.0
 21
0.0
 31
0.0
  0
LINE
  5
FF
  8
細線
 62
     0
 10
809.3542487919
 20
0.0
 30
0.0
 11
809.3542487919
 21
-720.0
 31
0.0
  0
LINE
  5
100
  8
細線
 62
     0
 10
1435.3959399462
 20
0.0
 30
0.0
 11
1435.3959399462
 21
-720.0
 31
0.0
  0
LINE
  5
101
  8
細線
 62
     0
 10
2036.9197394339
 20
0.0
 30
0.0
 11
2036.9197394339
 21
-720.0
 31
0.0
  0
LINE
  5
102
  8
細線
 62
     0
 10
0.0
 20
-90.0
 30
0.0
 11
2247.7150120889
 21
-90.0
 31
0.0
  0
LINE
  5
103
  8
細線
 62
     0
 10
0.0
 20
-180.0
 30
0.0
 11
2247.7150120889
 21
-180.0
 31
0.0
  0
LINE
  5
104
  8
細線
 62
     0
 10
0.0
 20
-270.0
 30
0.0
 11
2247.7150120889
 21
-270.0
 31
0.0
  0
LINE
  5
105
  8
細線
 62
     0
 10
0.0
 20
-360.0
 30
0.0
 11
2247.7150120889
 21
-360.0
 31
0.0
  0
LINE
  5
106
  8
細線
 62
     0
 10
0.0
 20
-450.0
 30
0.0
 11
2247.7150120889
 21
-450.0
 31
0.0
  0
LINE
  5
107
  8
細線
 62
     0
 10
0.0
 20
-540.0
 30
0.0
 11
2247.7150120889
 21
-540.0
 31
0.0
  0
LINE
  5
108
  8
細線
 62
     0
 10
0.0
 20
-630.0
 30
0.0
 11
2247.7150120889
 21
-630.0
 31
0.0
  0
TEXT
  5
109
  8
細線
 62
     0
 10
343.5729594715
 20
-60.8381907684
 30
0.0
 40
52.5
  1
品名
 41
0.7
 11
343.5729594715
 21
-79.3843440192
 31
0.0
 73
     1
  0
TEXT
  5
10A
  8
細線
 62
     0
 10
1061.2709294446
 20
-60.8381907684
 30
0.0
 40
52.5
  1
規格
 41
0.7
 11
1061.2709294446
 21
-79.3843440192
 31
0.0
 73
     1
  0
TEXT
  5
10B
  8
細線
 62
     0
 10
1613.9495098411
 20
-60.8381907684
 30
0.0
 40
52.5
  1
使用場所
 41
0.7
 11
1613.9495098411
 21
-79.3843440192
 31
0.0
 73
     1
  0
TEXT
  5
10C
  8
細線
 62
     0
 10
2081.2132108369
 20
-60.8381907684
 30
0.0
 40
52.5
  1
個数
 41
0.7
 11
2081.2132108369
 21
-79.3843440192
 31
0.0
 73
     1
  0
TEXT
  5
10D
  8
細線
 62
     0
 10
7.5
 20
-150.8381907684
 30
0.0
 40
52.5
  1
六角十字穴及平座金付ボルト
 41
0.7
 11
7.5
 21
-169.3843440192
 31
0.0
 73
     1
  0
TEXT
  5
10E
  8
細線
 62
     0
 10
908.5105276108
 20
-150.8381907684
 30
0.0
 40
52.5
  1
M6×16(ダクロ)
 41
0.7
 11
908.5105276108
 21
-169.3843440192
 31
0.0
 73
     1
  0
TEXT
  5
10F
  8
細線
 62
     0
 10
2111.7652932992
 20
-150.8381907684
 30
0.0
 40
52.5
  1
50
 41
0.7
 11
2111.7652932992
 21
-169.3843440192
 31
0.0
 73
     1
  0
TEXT
  5
110
  8
細線
 62
     0
 10
99.1562788188
 20
-240.8381907684
 30
0.0
 40
52.5
  1
六角フランジ付ナット
 41
0.7
 11
99.1562788188
 21
-259.3843440192
 31
0.0
 73
     1
  0
TEXT
  5
111
  8
細線
 62
     0
 10
847.4063696712
 20
-240.8381907684
 30
0.0
 40
52.5
  1
M6(ストロンジンク)
 41
0.7
 11
847.4063696712
 21
-259.3843440192
 31
0.0
 73
     1
  0
TEXT
  5
112
  8
細線
 62
     0
 10
2111.7652932992
 20
-240.8381907684
 30
0.0
 40
52.5
  1
50
 41
0.7
 11
2111.7652932992
 21
-259.3843440192
 31
0.0
 73
     1
  0
TEXT
  5
113
  8
細線
 62
     0
 10
7.5
 20
-330.8381907684
 30
0.0
 40
52.5
  1
六角十字穴付タッピングビス
 41
0.7
 11
7.5
 21
-349.3843440192
 31
0.0
 73
     1
  0
TEXT
  5
114
  8
細線
 62
     0
 10
862.6823882014
 20
-330.8381907684
 30
0.0
 40
52.5
  1
6×16(ラスパート)
 41
0.7
 11
862.6823882014
 21
-349.3843440192
 31
0.0
 73
     1
  0
TEXT
  5
115
  8
細線
 62
     0
 10
1461.1890870525
 20
-330.8381907684
 30
0.0
 40
52.5
  1
シャッターレール用
 41
0.7
 11
1461.1890870525
 21
-349.3843440192
 31
0.0
 73
     1
  0
TEXT
  5
116
  8
細線
 62
     0
 10
2127.0413345303
 20
-330.8381907684
 30
0.0
 40
52.5
  1
7
 41
0.7
 11
2127.0413345303
 21
-349.3843440192
 31
0.0
 73
     1
  0
TEXT
  5
117
  8
細線
 62
     0
 10
190.8125576377
 20
-420.8381907684
 30
0.0
 40
52.5
  1
チェーンフック
 41
0.7
 11
190.8125576377
 21
-439.3843440192
 31
0.0
 73
     1
  0
TEXT
  5
118
  8
細線
 62
     0
 10
1705.6057572278
 20
-420.8381907684
 30
0.0
 40
52.5
  1
柱
 41
0.7
 11
1705.6057572278
 21
-439.3843440192
 31
0.0
 73
     1
  0
TEXT
  5
119
  8
細線
 62
     0
 10
2127.0413345303
 20
-420.8381907684
 30
0.0
 40
52.5
  1
4
 41
0.7
 11
2127.0413345303
 21
-439.3843440192
 31
0.0
 73
     1
  0
TEXT
  5
11A
  8
細線
 62
     0
 10
38.0520929396
 20
-510.8381907684
 30
0.0
 40
52.5
  1
テーパーボルト式アンカー
 41
0.7
 11
38.0520929396
 21
-529.3843440192
 31
0.0
 73
     1
  0
TEXT
  5
11B
  8
細線
 62
     0
 10
908.5104996711
 20
-510.8381907684
 30
0.0
 40
52.5
  1
M12×φ16×100
 41
0.7
 11
908.5104996711
 21
-529.3843440192
 31
0.0
 73
     1
  0
TEXT
  5
11C
  8
細線
 62
     0
 10
1675.0536747656
 20
-510.8381907684
 30
0.0
 40
52.5
  1
土台
 41
0.7
 11
1675.0536747656
 21
-529.3843440192
 31
0.0
 73
     1
  0
TEXT
  5
11D
  8
細線
 62
     0
 10
2127.0413345303
 20
-510.8381907684
 30
0.0
 40
52.5
  1
4
 41
0.7
 11
2127.0413345303
 21
-529.3843440192
 31
0.0
 73
     1
  0
TEXT
  5
11E
  8
細線
 62
     0
 10
129.7083717585
 20
-600.8381907684
 30
0.0
 40
52.5
  1
ライナープレート小
 41
0.7
 11
129.7083717585
 21
-619.3843440192
 31
0.0
 73
     1
  0
TEXT
  5
11F
  8
細線
 62
     0
 10
1061.2709294446
 20
-600.8381907684
 30
0.0
 40
52.5
  1
t6.0
 41
0.7
 11
1061.2709294446
 21
-619.3843440192
 31
0.0
 73
     1
  0
TEXT
  5
120
  8
細線
 62
     0
 10
1675.0536747656
 20
-600.8381907684
 30
0.0
 40
52.5
  1
土台
 41
0.7
 11
1675.0536747656
 21
-619.3843440192
 31
0.0
 73
     1
  0
TEXT
  5
121
  8
細線
 62
     0
 10
2127.0413345303
 20
-600.8381907684
 30
0.0
 40
52.5
  1
2
 41
0.7
 11
2127.0413345303
 21
-619.3843440192
 31
0.0
 73
     1
  0
TEXT
  5
122
  8
細線
 62
     0
 10
129.7083717585
 20
-690.8381907684
 30
0.0
 40
52.5
  1
ライナープレート小
 41
0.7
 11
129.7083717585
 21
-709.3843440192
 31
0.0
 73
     1
  0
TEXT
  5
123
  8
細線
 62
     0
 10
1061.2709294446
 20
-690.8381907684
 30
0.0
 40
52.5
  1
t2.0
 41
0.7
 11
1061.2709294446
 21
-709.3843440192
 31
0.0
 73
     1
  0
TEXT
  5
124
  8
細線
 62
     0
 10
1675.0536747656
 20
-690.8381907684
 30
0.0
 40
52.5
  1
土台
 41
0.7
 11
1675.0536747656
 21
-709.3843440192
 31
0.0
 73
     1
  0
TEXT
  5
125
  8
細線
 62
     0
 10
2127.0413345303
 20
-690.8381907684
 30
0.0
 40
52.5
  1
2
 41
0.7
 11
2127.0413345303
 21
-709.3843440192
 31
0.0
 73
     1
  0
ENDBLK
  5
FA
  8
0
  0
BLOCK
  8
0
  2
_OPEN30
 70
     0
 10
0.0
 20
0.0
 30
0.0
  3
_OPEN30
  1

  0
LINE
  5
1C4
  8
0
  6
BYBLOCK
 62
     0
 10
-1.0
 20
0.267949
 30
0.0
 11
0.0
 21
0.0
 31
0.0
  0
LINE
  5
1C5
  8
0
  6
BYBLOCK
 62
     0
 10
0.0
 20
0.0
 30
0.0
 11
-1.0
 21
-0.267949
 31
0.0
  0
LINE
  5
1C6
  8
0
  6
BYBLOCK
 62
     0
 10
0.0
 20
0.0
 30
0.0
 11
-1.0
 21
0.0
 31
0.0
  0
ENDBLK
  5
1C3
  8
0
  0
BLOCK
  8
0
  2
_D
 70
     0
 10
0.0
 20
0.0
 30
0.0
  3
_D
  1

  0
INSERT
  5
1CA
  8
細線
  2
_OPEN30
 10
2180.8520530006
 20
3319.829073322
 30
285.5193511266
 41
45.0
 42
45.0
 50
90.0
  0
INSERT
  5
1CB
  8
細線
  2
_OPEN30
 10
2180.8520530006
 20
1440.9770078925
 30
285.5193511266
 41
45.0
 42
45.0
 50
270.0
  0
LINE
  5
1CC
  8
細線
 10
2408.0719819447
 20
3319.829073322
 30
0.0
 11
2165.8520530006
 21
3319.829073322
 31
0.0
  0
LINE
  5
1CD
  8
細線
 10
2407.1230942808
 20
1440.9770078925
 30
0.0
 11
2165.8520530006
 21
1440.9770078925
 31
0.0
  0
LINE
  5
1CE
  8
細線
 10
2180.8520530006
 20
3319.829073322
 30
0.0
 11
2180.8520530006
 21
1440.9770078925
 31
0.0
  0
TEXT
  5
1CF
  8
細線
 10
2162.3059032423
 20
2310.9816196508
 30
285.5193511267
 40
52.5
  1
1878.9
 50
90.0
 41
0.7
 11
2180.8520564931
 21
2310.9816196508
 31
285.5193511267
 73
     1
  0
ENDBLK
  5
1C9
  8
0
  0
BLOCK
  8
0
  2
_D_1
 70
     0
 10
0.0
 20
0.0
 30
0.0
  3
_D_1
  1

  0
INSERT
  5
1D4
  8
細線
  2
_OPEN30
 10
2420.8230942808
 20
3469.7106744842
 30
285.5193511266
 41
45.0
 42
45.0
 50
180.0
  0
INSERT
  5
1D5
  8
細線
  2
_OPEN30
 10
3263.4230942808
 20
3469.7106744842
 30
285.5193511266
 41
45.0
 42
45.0
 50
0.0
  0
LINE
  5
1D6
  8
細線
 10
2420.8230942808
 20
3332.6093421644
 30
0.0
 11
2420.8230942808
 21
3484.7106744842
 31
0.0
  0
LINE
  5
1D7
  8
細線
 10
3263.4230942808
 20
3332.6093421644
 30
0.0
 11
3263.4230942808
 21
3484.7106744842
 31
0.0
  0
LINE
  5
1D8
  8
細線
 10
2420.8230942808
 20
3469.7106744842
 30
0.0
 11
3263.4230942808
 21
3469.7106744842
 31
0.0
  0
TEXT
  5
1D9
  8
細線
 10
2768.7728578606
 20
3488.2568242425
 30
285.5193511266
 40
52.5
  1
842.6
 50
0.0
 41
0.7
 11
2768.7728578606
 21
3469.7106709918
 31
285.5193511266
 73
     1
  0
ENDBLK
  5
1D3
  8
0
  0
BLOCK
  8
0
  2
_D_2
 70
     0
 10
0.0
 20
0.0
 30
0.0
  3
_D_2
  1

  0
INSERT
  5
1DE
  8
細線
  2
_OPEN30
 10
2492.1230942808
 20
1290.9729828925
 30
285.5193511266
 41
45.0
 42
45.0
 50
180.0
  0
INSERT
  5
1DF
  8
細線
  2
_OPEN30
 10
3192.1230942808
 20
1290.9729828925
 30
285.5193511266
 41
45.0
 42
45.0
 50
0.0
  0
LINE
  5
1E0
  8
細線
 10
2492.1230942808
 20
1425.9770078925
 30
0.0
 11
2492.1230942808
 21
1275.9729828925
 31
0.0
  0
LINE
  5
1E1
  8
細線
 10
3192.1230942808
 20
1425.9770078925
 30
0.0
 11
3192.1230942808
 21
1275.9729828925
 31
0.0
  0
LINE
  5
1E2
  8
細線
 10
2492.1230942808
 20
1290.9729828925
 30
0.0
 11
3192.1230942808
 21
1290.9729828925
 31
0.0
  0
TEXT
  5
1E3
  8
細線
 10
2770.5156961831
 20
1309.5191326508
 30
285.5193511266
 40
52.5
  1
700
 41
0.7
 11
2770.5156961831
 21
1290.9729794
 31
285.5193511266
 73
     1
  0
ENDBLK
  5
1DD
  8
0
  0
BLOCK
  8
0
  2
_D_3
 70
     0
 10
0.0
 20
0.0
 30
0.0
  3
_D_3
  1

  0
INSERT
  5
1E9
  8
細線
  2
_OPEN30
 10
3085.3677425839
 20
1520.9770078925
 30
285.5193511266
 41
45.0
 42
45.0
 50
270.0
  0
INSERT
  5
1EA
  8
細線
  2
_OPEN30
 10
3085.3677425839
 20
1440.9770078925
 30
285.5193511266
 41
45.0
 42
45.0
 50
90.0
  0
LINE
  5
1EB
  8
細線
 10
3177.1230942808
 20
1440.9770078925
 30
0.0
 11
3070.3677425839
 21
1440.9770078925
 31
0.0
  0
LINE
  5
1EC
  8
細線
 10
3085.3677425839
 20
1520.9770078925
 30
0.0
 11
3085.3677425839
 21
1610.9770078925
 31
0.0
  0
LINE
  5
1ED
  8
細線
 10
3085.3677425839
 20
1520.9770078925
 30
0.0
 11
3085.3677425839
 21
1440.9770078925
 31
0.0
  0
LINE
  5
1EE
  8
細線
 10
3085.3677425839
 20
1440.9770078925
 30
0.0
 11
3085.3677425839
 21
1331.3872463523
 31
0.0
  0
TEXT
  5
1EF
  8
細線
 10
3066.8215928256
 20
1331.3872463523
 30
285.5193511266
 40
52.5
  1
80
 50
90.0
 41
0.7
 11
3085.3677460764
 21
1331.3872463523
 31
285.5193511266
 73
     1
  0
ENDBLK
  5
1E8
  8
0
  0
BLOCK
  8
0
  2
_D_4
 70
     0
 10
0.0
 20
0.0
 30
0.0
  3
_D_4
  1

  0
INSERT
  5
1F4
  8
細線
  2
_OPEN30
 10
2422.1230942808
 20
1290.9729828925
 30
285.5193511266
 41
45.0
 42
45.0
 50
0.0
  0
INSERT
  5
1F5
  8
細線
  2
_OPEN30
 10
2492.1230942808
 20
1290.9729828925
 30
285.5193511266
 41
45.0
 42
45.0
 50
180.0
  0
LINE
  5
1F6
  8
細線
 10
2422.1230942808
 20
1425.9770078925
 30
0.0
 11
2422.1230942808
 21
1275.9729828925
 31
0.0
  0
LINE
  5
1F7
  8
細線
 10
2492.1230942808
 20
1425.9770078925
 30
0.0
 11
2492.1230942808
 21
1275.9729828925
 31
0.0
  0
LINE
  5
1F8
  8
細線
 10
2422.1230942808
 20
1290.9729828925
 30
0.0
 11
2290.4427897074
 21
1290.9729828925
 31
0.0
  0
LINE
  5
1F9
  8
細線
 10
2422.1230942808
 20
1290.9729828925
 30
0.0
 11
2492.1230942808
 21
1290.9729828925
 31
0.0
  0
LINE
  5
1FA
  8
細線
 10
2492.1230942808
 20
1290.9729828925
 30
0.0
 11
2582.1230942808
 21
1290.9729828925
 31
0.0
  0
TEXT
  5
1FB
  8
細線
 10
2290.4427897074
 20
1309.5191326508
 30
285.5193511266
 40
52.5
  1
70
 41
0.7
 11
2290.4427897074
 21
1290.9729794
 31
285.5193511266
 73
     1
  0
ENDBLK
  5
1F3
  8
0
  0
BLOCK
  8
0
  2
_D_5
 70
     0
 10
0.0
 20
0.0
 30
0.0
  3
_D_5
  1

  0
INSERT
  5
200
  8
細線
  2
_OPEN30
 10
3192.1230942808
 20
1290.9729828925
 30
285.5193511266
 41
45.0
 42
45.0
 50
0.0
  0
INSERT
  5
201
  8
細線
  2
_OPEN30
 10
3262.1230942808
 20
1290.9729828925
 30
285.5193511266
 41
45.0
 42
45.0
 50
180.0
  0
LINE
  5
202
  8
細線
 10
3192.1230942808
 20
1425.9770078925
 30
0.0
 11
3192.1230942808
 21
1275.9729828925
 31
0.0
  0
LINE
  5
203
  8
細線
 10
3262.1230942808
 20
1425.9770078925
 30
0.0
 11
3262.1230942808
 21
1275.9729828925
 31
0.0
  0
LINE
  5
204
  8
細線
 10
3192.1230942808
 20
1290.9729828925
 30
0.0
 11
3102.1230942808
 21
1290.9729828925
 31
0.0
  0
LINE
  5
205
  8
細線
 10
3192.1230942808
 20
1290.9729828925
 30
0.0
 11
3262.1230942808
 21
1290.9729828925
 31
0.0
  0
LINE
  5
206
  8
細線
 10
3262.1230942808
 20
1290.9729828925
 30
0.0
 11
3383.916699141
 21
1290.9729828925
 31
0.0
  0
TEXT
  5
207
  8
細線
 10
3322.8125342165
 20
1309.5191326508
 30
285.5193511266
 40
52.5
  1
70
 41
0.7
 11
3322.8125342165
 21
1290.9729794
 31
285.5193511266
 73
     1
  0
ENDBLK
  5
1FF
  8
0
  0
BLOCK
  8
0
  2
SW_NOTE_9
 70
     0
 10
0.0
 20
0.0
 30
0.0
  3
SW_NOTE_9
  1

  0
CIRCLE
  5
20B
  8
細線
 62
     0
 10
152.7514576905
 20
-100.7661525609
 30
0.0
 40
43.08535942713748
  0
TEXT
  5
20C
  8
細線
 62
     0
 10
137.4754164594
 20
-117.074167727
 30
0.0
 40
52.5
  1
2
 41
0.7
 11
137.4754164594
 21
-135.6203209778
 31
0.0
 73
     1
  0
LINE
  5
20D
  8
細線
 62
     0
 10
122.2855078697
 20
-74.5161525609
 30
0.0
 11
0.0
 21
0.0
 31
0.0
  0
SOLID
  5
20E
  8
細線
 62
     0
 10
0.0
 20
0.0
 30
0.0
 11
32.5734822926
 21
-33.0231850573
 31
0.0
 12
44.2816302852
 22
-13.8094069129
 32
0.0
 13
44.2816302852
 23
-13.8094069129
 33
0.0
  0
ENDBLK
  5
20A
  8
0
  0
BLOCK
  8
0
  2
SW_NOTE_10
 70
     0
 10
0.0
 20
0.0
 30
0.0
  3
SW_NOTE_10
  1

  0
CIRCLE
  5
213
  8
細線
 62
     0
 10
-136.280800374
 20
104.3518811606
 30
0.0
 40
43.08535942713748
  0
TEXT
  5
214
  8
細線
 62
     0
 10
-151.5568416051
 20
88.0438659944
 30
0.0
 40
52.5
  1
1
 41
0.7
 11
-151.5568416051
 21
69.4977127437
 31
0.0
 73
     1
  0
LINE
  5
215
  8
細線
 62
     0
 10
-105.8148505532
 20
69.669981519
 30
0.0
 11
0.0
 21
0.0
 31
0.0
  0
SOLID
  5
216
  8
細線
 62
     0
 10
0.0
 20
0.0
 30
0.0
 11
-31.3982140697
 21
34.1425636593
 31
0.0
 12
-43.771395313
 22
15.3501613136
 32
0.0
 13
-43.771395313
 23
15.3501613136
 33
0.0
  0
ENDBLK
  5
212
  8
0
  0
BLOCK
  8
0
  2
SW_NOTE_11
 70
     0
 10
0.0
 20
0.0
 30
0.0
  3
SW_NOTE_11
  1

  0
CIRCLE
  5
21B
  8
細線
 62
     0
 10
271.5658364149
 20
106.7021364263
 30
0.0
 40
43.08535942713745
  0
TEXT
  5
21C
  8
細線
 62
     0
 10
256.2897951838
 20
90.3941212601
 30
0.0
 40
52.5
  1
3
 41
0.7
 11
256.2897951838
 21
71.8479680093
 31
0.0
 73
     1
  0
LINE
  5
21D
  8
細線
 62
     0
 10
228.4804769878
 20
102.4861866055
 30
0.0
 11
0.0
 21
0.0
 31
0.0
  0
INSERT
  5
223
  8
細線
 62
     0
  2
_DOT
 10
0.0
 20
0.0
 30
285.5193511267
 41
22.5
 42
22.5
 50
204.1588842271
  0
ENDBLK
  5
21A
  8
0
  0
BLOCK
  8
0
  2
_DOT
 70
     0
 10
0.0
 20
0.0
 30
0.0
  3
_DOT
  1

  0
POLYLINE
  5
221
  8
0
  6
BYBLOCK
 62
     0
 66
     1
 10
0.0
 20
0.0
 30
0.0
 70
     1
 40
0.5
 41
0.5
  0
VERTEX
  5
245
  8
0
  6
BYBLOCK
 62
     0
 10
-0.25
 20
0.0
 30
0.0
 42
1.0
  0
VERTEX
  5
246
  8
0
  6
BYBLOCK
 62
     0
 10
0.25
 20
0.0
 30
0.0
 42
1.0
  0
SEQEND
  5
247
  8
0
  6
BYBLOCK
 62
     0
  0
LINE
  5
222
  8
0
  6
BYBLOCK
 62
     0
 10
-0.5
 20
0.0
 30
0.0
 11
-1.0
 21
0.0
 31
0.0
  0
ENDBLK
  5
220
  8
0
  0
BLOCK
  8
0
  2
SW_NOTE_12
 70
     0
 10
0.0
 20
0.0
 30
0.0
  3
SW_NOTE_12
  1

  0
CIRCLE
  5
228
  8
細線
 62
     0
 10
287.0844722425
 20
121.1615944922
 30
0.0
 40
43.08535942713767
  0
TEXT
  5
229
  8
細線
 62
     0
 10
271.8084310114
 20
104.8535793261
 30
0.0
 40
52.5
  1
3
 41
0.7
 11
271.8084310114
 21
86.3074260753
 31
0.0
 73
     1
  0
LINE
  5
22A
  8
細線
 62
     0
 10
243.9991128154
 20
116.9456446715
 30
0.0
 11
0.0
 21
0.0
 31
0.0
  0
INSERT
  5
22B
  8
細線
 62
     0
  2
_DOT
 10
0.0
 20
0.0
 30
285.5193511267
 41
22.5
 42
22.5
 50
205.6078024669
  0
ENDBLK
  5
227
  8
0
  0
BLOCK
  8
0
  2
SW_NOTE_13
 70
     0
 10
0.0
 20
0.0
 30
0.0
  3
SW_NOTE_13
  1

  0
CIRCLE
  5
230
  8
細線
 62
     0
 10
284.1106392823
 20
143.6977074333
 30
0.0
 40
43.08535942713764
  0
TEXT
  5
231
  8
細線
 62
     0
 10
268.8345980512
 20
127.3896922671
 30
0.0
 40
52.5
  1
3
 41
0.7
 11
268.8345980512
 21
108.8435390164
 31
0.0
 73
     1
  0
LINE
  5
232
  8
細線
 62
     0
 10
253.6446894615
 20
109.0158077917
 30
0.0
 11
0.0
 21
0.0
 31
0.0
  0
INSERT
  5
233
  8
細線
 62
     0
  2
_DOT
 10
0.0
 20
0.0
 30
285.5193511267
 41
22.5
 42
22.5
 50
203.2579035136
  0
ENDBLK
  5
22F
  8
0
  0
BLOCK
  8
0
  2
SW_NOTE_14
 70
     0
 10
0.0
 20
0.0
 30
0.0
  3
SW_NOTE_14
  1

  0
CIRCLE
  5
238
  8
細線
 62
     0
 10
310.8751359247
 20
128.4579104925
 30
0.0
 40
43.08535942713733
  0
TEXT
  5
239
  8
細線
 62
     0
 10
295.5990946936
 20
112.1498953263
 30
0.0
 40
52.5
  1
3
 41
0.7
 11
295.5990946936
 21
93.6037420755
 31
0.0
 73
     1
  0
LINE
  5
23A
  8
細線
 62
     0
 10
267.7897764976
 20
124.2419606717
 30
0.0
 11
0.0
 21
0.0
 31
0.0
  0
INSERT
  5
23B
  8
細線
 62
     0
  2
_DOT
 10
0.0
 20
0.0
 30
285.5193511266
 41
22.5
 42
22.5
 50
204.8891001778
  0
ENDBLK
  5
237
  8
0
  0
BLOCK
  8
0
  2
SW_NOTE_15
 70
     0
 10
0.0
 20
0.0
 30
0.0
  3
SW_NOTE_15
  1

  0
CIRCLE
  5
240
  8
細線
 62
     0
 10
198.776109551
 20
135.9997797246
 30
0.0
 40
43.08535942713762
  0
TEXT
  5
241
  8
細線
 62
     0
 10
183.5000683199
 20
119.6917645584
 30
0.0
 40
52.5
  1
4
 41
0.7
 11
183.5000683199
 21
101.1456113077
 31
0.0
 73
     1
  0
LINE
  5
242
  8
細線
 62
     0
 10
168.3101597302
 20
101.317880083
 30
0.0
 11
0.0
 21
0.0
 31
0.0
  0
SOLID
  5
243
  8
細線
 62
     0
 10
0.0
 20
0.0
 30
0.0
 11
44.3556536876
 21
13.5697636658
 31
0.0
 12
32.7515703522
 22
32.8465696757
 32
0.0
 13
32.7515703522
 23
32.8465696757
 33
0.0
  0
ENDBLK
  5
23F
  8
0
  0
ENDSEC
  0
SECTION
  2
ENTITIES
  0
LINE
  5
76
  8
太線
 10
300.0
 20
4335.0
 30
0.0
 11
6180.0
 21
4335.0
 31
0.0
  0
LINE
  5
77
  8
太線
 10
300.0
 20
4335.0
 30
0.0
 11
300.0
 21
120.0
 31
0.0
  0
LINE
  5
78
  8
太線
 10
300.0
 20
120.0
 30
0.0
 11
6180.0
 21
120.0
 31
0.0
  0
LINE
  5
79
  8
太線
 10
6180.0
 20
4335.0
 30
0.0
 11
6180.0
 21
120.0
 31
0.0
  0
LINE
  5
7A
  8
中太線
 10
3930.0
 20
720.0
 30
0.0
 11
3930.0
 21
120.0
 31
0.0
  0
LINE
  5
7B
  8
中太線
 10
6180.0
 20
720.0
 30
0.0
 11
3930.0
 21
720.0
 31
0.0
  0
LINE
  5
7C
  8
細線
 10
4110.0
 20
330.0
 30
0.0
 11
4110.0
 21
120.0
 31
0.0
  0
LINE
  5
7D
  8
細線
 10
3930.0
 20
330.0
 30
0.0
 11
6180.0
 21
330.0
 31
0.0
  0
LINE
  5
7E
  8
細線
 10
4035.0
 20
720.0
 30
0.0
 11
4035.0
 21
330.0
 31
0.0
  0
LINE
  5
7F
  8
細線
 10
4950.0
 20
480.0
 30
0.0
 11
4950.0
 21
120.0
 31
0.0
  0
LINE
  5
80
  8
細線
 10
4560.0
 20
480.0
 30
0.0
 11
4560.0
 21
330.0
 31
0.0
  0
LINE
  5
81
  8
細線
 10
4665.0
 20
480.0
 30
0.0
 11
4665.0
 21
330.0
 31
0.0
  0
LINE
  5
82
  8
細線
 10
4845.0
 20
480.0
 30
0.0
 11
4845.0
 21
330.0
 31
0.0
  0
LINE
  5
83
  8
細線
 10
5130.0
 20
480.0
 30
0.0
 11
5130.0
 21
330.0
 31
0.0
  0
LINE
  5
84
  8
細線
 10
5235.0
 20
480.0
 30
0.0
 11
5235.0
 21
330.0
 31
0.0
  0
LINE
  5
85
  8
細線
 10
5415.0
 20
720.0
 30
0.0
 11
5415.0
 21
330.0
 31
0.0
  0
LINE
  5
86
  8
細線
 10
5520.0
 20
720.0
 30
0.0
 11
5520.0
 21
330.0
 31
0.0
  0
LINE
  5
87
  8
中太線
 10
6180.0
 20
480.0
 30
0.0
 11
3930.0
 21
480.0
 31
0.0
  0
TEXT
  5
88
  8
細線
 10
4961.8099742968
 20
1156.388227427
 30
0.0
 40
55.5625
  1
防火設備（乙種防火シャッター仕様）
 41
0.7
 11
4961.8099742968
 21
1136.7602152366
 31
0.0
 73
     1
  0
INSERT
  5
8E
  8
細線
  2
SW_NOTE_0
 10
3953.557675532
 20
413.2196755925
 30
0.0
  0
INSERT
  5
94
  8
細線
  2
SW_NOTE_1
 10
4580.1204765037
 20
409.2854889818
 30
0.0
  0
INSERT
  5
9A
  8
細線
  2
SW_NOTE_2
 10
4863.5820795038
 20
409.3796440961
 30
0.0
  0
INSERT
  5
A0
  8
細線
  2
SW_NOTE_3
 10
5150.2691803478
 20
410.7009579051
 30
0.0
  0
INSERT
  5
A6
  8
細線
  2
SW_NOTE_4
 10
5437.8602373816
 20
409.1018945557
 30
0.0
  0
TEXT
  5
A7
  8
細線
 10
4125.9995552771
 20
205.5253594437
 30
0.0
 40
75.0
  1
アイボリー色
 41
0.7
 11
4125.9995552771
 21
179.0308547997
 31
0.0
 73
     1
  0
TEXT
  5
A8
  8
細線
 10
4049.9388151544
 20
386.6377124581
 30
0.0
 40
75.0
  1
-
 41
0.7
 11
4049.9388151544
 21
360.1432078141
 31
0.0
 73
     1
  0
TEXT
  5
A9
  8
細線
 10
4677.4780792922
 20
398.8143556597
 30
0.0
 40
60.0
  1
山田
 41
0.7
 11
4677.4780792922
 21
377.6187519445
 31
0.0
 73
     1
  0
TEXT
  5
AA
  8
細線
 10
5247.3453973072
 20
399.2290622739
 30
0.0
 40
60.0
  1
ｍｍ
 41
0.7
 11
5247.3453973072
 21
378.0334585587
 31
0.0
 73
     1
  0
TEXT
  5
AB
  8
細線
 10
5547.2421366341
 20
398.9726262286
 30
0.0
 40
60.0
  1
2021/1/26
 41
0.7
 11
5547.2421366341
 21
377.7770225134
 31
0.0
 73
     1
  0
INSERT
  5
B4
  8
細線
  2
SW_NOTE_5
 10
2700.4271002794
 20
1067.0636632778
 30
0.0
  0
INSERT
  5
BA
  8
細線
  2
SW_NOTE_6
 10
3951.9091097125
 20
606.3277840088
 30
0.0
  0
INSERT
  5
C0
  8
細線
  2
SW_NOTE_7
 10
3952.3492382043
 20
234.4996689934
 30
0.0
  0
INSERT
  5
C6
  8
細線
  2
SW_NOTE_8
 10
5438.0460607513
 20
614.3002981522
 30
0.0
  0
TEXT
  5
C7
  8
細線
 10
4061.7425055291
 20
576.6706327872
 30
0.0
 40
79.375
  1
BN-100ST 承認図2
 41
0.7
 11
4061.7425055291
 21
548.6306153723
 31
0.0
 73
     1
  0
TEXT
  5
C8
  8
細線
 10
5548.7006738129
 20
595.176561183
 30
0.0
 40
55.5625
  1
BN-100ST_OB-01
 41
0.7
 11
5548.7006738129
 21
575.5485489926
 31
0.0
 73
     1
  0
TEXT
  5
C9
  8
細線
 10
4969.1665634839
 20
391.8266111466
 30
0.0
 40
60.0
  1
木下
 41
0.7
 11
4969.1665634839
 21
370.6310074315
 31
0.0
 73
     1
  0
TEXT
  5
CA
  8
細線
 10
6206.7195315318
 20
160.5817977602
 30
0.0
 40
55.5625
  1
E
 41
0.7
 11
6206.7195315318
 21
140.9537855698
 31
0.0
 73
     1
  0
INSERT
  5
F7
  8
細線
  2
SW_TABLEANNOTATION_0
 10
4953.9875779781
 20
1131.7002380757
 30
0.0
  0
INSERT
  5
126
  8
細線
  2
SW_TABLEANNOTATION_1
 10
3932.2849879111
 20
4335.0
 30
0.0
  0
LINE
  5
127
  8
0
  6
CONTINUOUS
 62
     7
 10
3261.1736983858
 20
3319.8290176658
 30
0.0
 11
2423.0724901758
 21
3319.8290176658
 31
0.0
  0
LINE
  5
128
  8
0
  6
CONTINUOUS
 62
     7
 10
3263.4230882727
 20
3317.6093406943
 30
0.0
 11
3263.4230882727
 21
3279.9322910575
 31
0.0
  0
LINE
  5
129
  8
0
  6
CONTINUOUS
 62
     7
 10
3263.4230882727
 20
3279.9322910575
 30
0.0
 11
3259.623083552
 21
3279.9322910575
 31
0.0
  0
LINE
  5
12A
  8
0
  6
CONTINUOUS
 62
     7
 10
3259.623083552
 20
3279.9322910575
 30
0.0
 11
3259.623083552
 21
3282.2308845786
 31
0.0
  0
LINE
  5
12B
  8
0
  6
CONTINUOUS
 62
     7
 10
2424.6231050097
 20
3279.9322910575
 30
0.0
 11
2424.6231050097
 21
3282.2308845786
 31
0.0
  0
LINE
  5
12C
  8
0
  6
CONTINUOUS
 62
     7
 10
2420.823100289
 20
3279.9322910575
 30
0.0
 11
2424.6231050097
 21
3279.9322910575
 31
0.0
  0
LINE
  5
12D
  8
0
  6
CONTINUOUS
 62
     7
 10
2420.823100289
 20
3317.6093406943
 30
0.0
 11
2420.823100289
 21
3279.9322910575
 31
0.0
  0
LINE
  5
12E
  8
0
  6
CONTINUOUS
 62
     7
 10
3259.623083552
 20
3279.8520632056
 30
0.0
 11
3259.623083552
 21
3279.9043960837
 31
0.0
  0
LINE
  5
12F
  8
0
  6
CONTINUOUS
 62
     7
 10
2424.6231050097
 20
3279.8520632056
 30
0.0
 11
2424.6231050097
 21
3279.9043960837
 31
0.0
  0
LINE
  5
130
  8
0
  6
CONTINUOUS
 62
     7
 10
2424.6231050097
 20
3279.9043960837
 30
0.0
 11
2424.6231050097
 21
3279.9322910575
 31
0.0
  0
LINE
  5
131
  8
0
  6
CONTINUOUS
 62
     7
 10
2420.823100289
 20
3279.9043960837
 30
0.0
 11
2424.6231050097
 21
3279.9043960837
 31
0.0
  0
LINE
  5
132
  8
0
  6
CONTINUOUS
 62
     7
 10
2420.823100289
 20
3279.9322910575
 30
0.0
 11
2420.823100289
 21
3279.9043960837
 31
0.0
  0
LINE
  5
133
  8
0
  6
CONTINUOUS
 62
     7
 10
3259.623083552
 20
3279.9043960837
 30
0.0
 11
3259.623083552
 21
3279.9322910575
 31
0.0
  0
LINE
  5
134
  8
0
  6
CONTINUOUS
 62
     7
 10
3263.4230882727
 20
3279.9043960837
 30
0.0
 11
3259.623083552
 21
3279.9043960837
 31
0.0
  0
LINE
  5
135
  8
0
  6
CONTINUOUS
 62
     7
 10
3263.4230882727
 20
3279.9322910575
 30
0.0
 11
3263.4230882727
 21
3279.9043960837
 31
0.0
  0
LINE
  5
136
  8
0
  6
CONTINUOUS
 62
     7
 10
2421.6230840288
 20
3279.9009390143
 30
0.0
 11
2420.823100289
 21
3279.9009390143
 31
0.0
  0
LINE
  5
137
  8
0
  6
CONTINUOUS
 62
     7
 10
2420.823100289
 20
3279.9043960837
 30
0.0
 11
2420.823100289
 21
3279.9009390143
 31
0.0
  0
LINE
  5
138
  8
0
  6
CONTINUOUS
 62
     7
 10
2421.6230840288
 20
3279.9043960837
 30
0.0
 11
2421.6230840288
 21
3279.9009390143
 31
0.0
  0
LINE
  5
139
  8
0
  6
CONTINUOUS
 62
     7
 10
3262.6231045328
 20
3279.9009390143
 30
0.0
 11
3263.4230882727
 21
3279.9009390143
 31
0.0
  0
LINE
  5
13A
  8
0
  6
CONTINUOUS
 62
     7
 10
3263.4230882727
 20
3279.9043960837
 30
0.0
 11
3263.4230882727
 21
3279.9009390143
 31
0.0
  0
LINE
  5
13B
  8
0
  6
CONTINUOUS
 62
     7
 10
3262.6231045328
 20
3279.9043960837
 30
0.0
 11
3262.6231045328
 21
3279.9009390143
 31
0.0
  0
LINE
  5
13C
  8
0
  6
CONTINUOUS
 62
     7
 10
2421.6230840288
 20
3258.4656782416
 30
0.0
 11
2420.823100289
 21
3258.4656782416
 31
0.0
  0
LINE
  5
13D
  8
0
  6
CONTINUOUS
 62
     7
 10
2420.823100289
 20
3279.9009390143
 30
0.0
 11
2420.823100289
 21
3258.4656782416
 31
0.0
  0
LINE
  5
13E
  8
0
  6
CONTINUOUS
 62
     7
 10
2421.6230840288
 20
3279.9009390143
 30
0.0
 11
2421.6230840288
 21
3258.4656782416
 31
0.0
  0
LINE
  5
13F
  8
0
  6
CONTINUOUS
 62
     7
 10
3262.6231045328
 20
3258.4656782416
 30
0.0
 11
3263.4230882727
 21
3258.4656782416
 31
0.0
  0
LINE
  5
140
  8
0
  6
CONTINUOUS
 62
     7
 10
3263.4230882727
 20
3279.9009390143
 30
0.0
 11
3263.4230882727
 21
3258.4656782416
 31
0.0
  0
LINE
  5
141
  8
0
  6
CONTINUOUS
 62
     7
 10
3262.6231045328
 20
3279.9009390143
 30
0.0
 11
3262.6231045328
 21
3258.4656782416
 31
0.0
  0
ARC
  5
142
  8
0
  6
CONTINUOUS
 62
     7
 10
2424.3630065233
 20
3316.2406736139
 30
0.0
 40
3.795284669830633
 50
109.068481071
 51
158.8615362736
  0
ARC
  5
143
  8
0
  6
CONTINUOUS
 62
     7
 10
3259.8831820383
 20
3316.2406736139
 30
0.0
 40
3.795284669830456
 50
21.1384637264
 51
70.931518929
  0
ARC
  5
144
  8
0
  6
CONTINUOUS
 62
     7
 10
2423.0815819576
 20
3317.5695906266
 30
0.0
 40
2.258497282364793
 50
88.946809215
 51
179.7869501645
  0
ARC
  5
145
  8
0
  6
CONTINUOUS
 62
     7
 10
3261.164606604
 20
3317.5695906266
 30
0.0
 40
2.258497282364785
 50
0.2130498355
 51
91.053190785
  0
LINE
  5
146
  8
0
  6
CONTINUOUS
 62
     7
 10
3259.623083552
 20
3279.7577686576
 30
0.0
 11
3259.623083552
 21
3279.8520632056
 31
0.0
  0
LINE
  5
147
  8
0
  6
CONTINUOUS
 62
     7
 10
3259.623083552
 20
3279.7577686576
 30
0.0
 11
3256.6230923735
 21
3279.6531029014
 31
0.0
  0
LINE
  5
148
  8
0
  6
CONTINUOUS
 62
     7
 10
3256.6230923735
 20
3279.6531029014
 30
0.0
 11
2427.6230961882
 21
3279.6531029014
 31
0.0
  0
LINE
  5
149
  8
0
  6
CONTINUOUS
 62
     7
 10
2424.6231050097
 20
3279.7577686576
 30
0.0
 11
2427.6230961882
 21
3279.6531029014
 31
0.0
  0
LINE
  5
14A
  8
0
  6
CONTINUOUS
 62
     7
 10
2424.6231050097
 20
3279.7577686576
 30
0.0
 11
2424.6231050097
 21
3279.8520632056
 31
0.0
  0
LINE
  5
14B
  8
0
  6
CONTINUOUS
 62
     7
 10
2420.823100289
 20
3258.4621019629
 30
0.0
 11
2422.1231073938
 21
3258.4621019629
 31
0.0
  0
LINE
  5
14C
  8
0
  6
CONTINUOUS
 62
     7
 10
3263.4230882727
 20
3258.4621019629
 30
0.0
 11
3262.1230811678
 21
3258.4621019629
 31
0.0
  0
LINE
  5
14D
  8
0
  6
CONTINUOUS
 62
     7
 10
3263.4230882727
 20
3258.4656782416
 30
0.0
 11
3263.4230882727
 21
3258.4621019629
 31
0.0
  0
LINE
  5
14E
  8
0
  6
CONTINUOUS
 62
     7
 10
2420.823100289
 20
3258.4656782416
 30
0.0
 11
2420.823100289
 21
3258.4621019629
 31
0.0
  0
LINE
  5
14F
  8
0
  6
CONTINUOUS
 62
     7
 10
2420.823100289
 20
3258.4342069892
 30
0.0
 11
2422.1231073938
 21
3258.4342069892
 31
0.0
  0
LINE
  5
150
  8
0
  6
CONTINUOUS
 62
     7
 10
2420.823100289
 20
3258.4342069892
 30
0.0
 11
2420.823100289
 21
3258.4621019629
 31
0.0
  0
LINE
  5
151
  8
0
  6
CONTINUOUS
 62
     7
 10
3263.4230882727
 20
3258.4342069892
 30
0.0
 11
3262.1230811678
 21
3258.4342069892
 31
0.0
  0
LINE
  5
152
  8
0
  6
CONTINUOUS
 62
     7
 10
3263.4230882727
 20
3258.4342069892
 30
0.0
 11
3263.4230882727
 21
3258.4621019629
 31
0.0
  0
LINE
  5
153
  8
0
  6
CONTINUOUS
 62
     7
 10
2460.3230983816
 20
1520.9770061044
 30
0.0
 11
2460.3230983816
 21
1523.8770104913
 31
0.0
  0
LINE
  5
154
  8
0
  6
CONTINUOUS
 62
     7
 10
2460.3230983816
 20
1520.9770061044
 30
0.0
 11
2457.4230939947
 21
1520.9770061044
 31
0.0
  0
LINE
  5
155
  8
0
  6
CONTINUOUS
 62
     7
 10
2457.4230939947
 20
1520.9770061044
 30
0.0
 11
2457.4230939947
 21
1948.4770007399
 31
0.0
  0
LINE
  5
156
  8
0
  6
CONTINUOUS
 62
     7
 10
2457.4230939947
 20
1948.4770007399
 30
0.0
 11
2458.6230845057
 21
1948.4770007399
 31
0.0
  0
LINE
  5
157
  8
0
  6
CONTINUOUS
 62
     7
 10
3226.8230945669
 20
1948.4770007399
 30
0.0
 11
3225.623104056
 21
1948.4770007399
 31
0.0
  0
LINE
  5
158
  8
0
  6
CONTINUOUS
 62
     7
 10
3226.8230945669
 20
1520.9770061044
 30
0.0
 11
3226.8230945669
 21
1948.4770007399
 31
0.0
  0
LINE
  5
159
  8
0
  6
CONTINUOUS
 62
     7
 10
3223.92309018
 20
1520.9770061044
 30
0.0
 11
3226.8230945669
 21
1520.9770061044
 31
0.0
  0
LINE
  5
15A
  8
0
  6
CONTINUOUS
 62
     7
 10
3223.92309018
 20
1520.9770061044
 30
0.0
 11
3223.92309018
 21
1523.8770104913
 31
0.0
  0
LINE
  5
15B
  8
0
  6
CONTINUOUS
 62
     7
 10
2458.6230845057
 20
1952.5770254401
 30
0.0
 11
2458.6230845057
 21
1955.477029827
 31
0.0
  0
LINE
  5
15C
  8
0
  6
CONTINUOUS
 62
     7
 10
2458.6230845057
 20
1955.477029827
 30
0.0
 11
3225.623104056
 21
1955.477029827
 31
0.0
  0
LINE
  5
15D
  8
0
  6
CONTINUOUS
 62
     7
 10
3225.623104056
 20
1952.5770254401
 30
0.0
 11
3225.623104056
 21
1955.477029827
 31
0.0
  0
LINE
  5
15E
  8
0
  6
CONTINUOUS
 62
     7
 10
3223.92309018
 20
1520.9770061044
 30
0.0
 11
2460.3230983816
 21
1520.9770061044
 31
0.0
  0
LINE
  5
15F
  8
0
  6
CONTINUOUS
 62
     7
 10
2458.6230845057
 20
1948.4770007399
 30
0.0
 11
2458.6230845057
 21
1952.5770254401
 31
0.0
  0
LINE
  5
160
  8
0
  6
CONTINUOUS
 62
     7
 10
3225.623104056
 20
1948.4770007399
 30
0.0
 11
3225.623104056
 21
1952.5770254401
 31
0.0
  0
LINE
  5
161
  8
0
  6
CONTINUOUS
 62
     7
 10
2460.3230983816
 20
1948.4770007399
 30
0.0
 11
2458.6230845057
 21
1948.4770007399
 31
0.0
  0
LINE
  5
162
  8
0
  6
CONTINUOUS
 62
     7
 10
3223.92309018
 20
1948.4770007399
 30
0.0
 11
3225.623104056
 21
1948.4770007399
 31
0.0
  0
LINE
  5
163
  8
0
  6
CONTINUOUS
 62
     7
 10
2458.6230845057
 20
1955.477029827
 30
0.0
 11
2458.6230845057
 21
1955.9769935874
 31
0.0
  0
LINE
  5
164
  8
0
  6
CONTINUOUS
 62
     7
 10
3225.623104056
 20
1955.477029827
 30
0.0
 11
3225.623104056
 21
1955.9769935874
 31
0.0
  0
LINE
  5
165
  8
0
  6
CONTINUOUS
 62
     7
 10
2460.3230983816
 20
2825.9769983558
 30
0.0
 11
2460.3230983816
 21
2828.8770027427
 31
0.0
  0
LINE
  5
166
  8
0
  6
CONTINUOUS
 62
     7
 10
2460.3230983816
 20
2825.9769983558
 30
0.0
 11
2457.4230939947
 21
2825.9769983558
 31
0.0
  0
LINE
  5
167
  8
0
  6
CONTINUOUS
 62
     7
 10
2457.4230939947
 20
2825.9769983558
 30
0.0
 11
2457.4230939947
 21
3253.4770078925
 31
0.0
  0
LINE
  5
168
  8
0
  6
CONTINUOUS
 62
     7
 10
2457.4230939947
 20
3253.4770078925
 30
0.0
 11
2458.6230845057
 21
3253.4770078925
 31
0.0
  0
LINE
  5
169
  8
0
  6
CONTINUOUS
 62
     7
 10
3226.8230945669
 20
3253.4770078925
 30
0.0
 11
3225.623104056
 21
3253.4770078925
 31
0.0
  0
LINE
  5
16A
  8
0
  6
CONTINUOUS
 62
     7
 10
3226.8230945669
 20
2825.9769983558
 30
0.0
 11
3226.8230945669
 21
3253.4770078925
 31
0.0
  0
LINE
  5
16B
  8
0
  6
CONTINUOUS
 62
     7
 10
3223.92309018
 20
2825.9769983558
 30
0.0
 11
3226.8230945669
 21
2825.9769983558
 31
0.0
  0
LINE
  5
16C
  8
0
  6
CONTINUOUS
 62
     7
 10
3223.92309018
 20
2825.9769983558
 30
0.0
 11
3223.92309018
 21
2828.8770027427
 31
0.0
  0
LINE
  5
16D
  8
0
  6
CONTINUOUS
 62
     7
 10
3223.92309018
 20
2825.9769983558
 30
0.0
 11
2460.3230983816
 21
2825.9769983558
 31
0.0
  0
LINE
  5
16E
  8
0
  6
CONTINUOUS
 62
     7
 10
2458.6230845057
 20
3260.4769773749
 30
0.0
 11
3225.623104056
 21
3260.4769773749
 31
0.0
  0
LINE
  5
16F
  8
0
  6
CONTINUOUS
 62
     7
 10
2458.6230845057
 20
3257.576972988
 30
0.0
 11
2458.6230845057
 21
3260.4769773749
 31
0.0
  0
LINE
  5
170
  8
0
  6
CONTINUOUS
 62
     7
 10
3225.623104056
 20
3257.576972988
 30
0.0
 11
3225.623104056
 21
3260.4769773749
 31
0.0
  0
LINE
  5
171
  8
0
  6
CONTINUOUS
 62
     7
 10
2458.6230845057
 20
3253.4770078925
 30
0.0
 11
2458.6230845057
 21
3257.576972988
 31
0.0
  0
LINE
  5
172
  8
0
  6
CONTINUOUS
 62
     7
 10
3225.623104056
 20
3253.4770078925
 30
0.0
 11
3225.623104056
 21
3257.576972988
 31
0.0
  0
LINE
  5
173
  8
0
  6
CONTINUOUS
 62
     7
 10
3223.92309018
 20
3253.4770078925
 30
0.0
 11
3225.623104056
 21
3253.4770078925
 31
0.0
  0
LINE
  5
174
  8
0
  6
CONTINUOUS
 62
     7
 10
2460.3230983816
 20
3253.4770078925
 30
0.0
 11
2458.6230845057
 21
3253.4770078925
 31
0.0
  0
LINE
  5
175
  8
0
  6
CONTINUOUS
 62
     7
 10
2458.6230845057
 20
3260.4769773749
 30
0.0
 11
2458.6230845057
 21
3262.1770210532
 31
0.0
  0
LINE
  5
176
  8
0
  6
CONTINUOUS
 62
     7
 10
3225.623104056
 20
3260.4769773749
 30
0.0
 11
3225.623104056
 21
3262.1770210532
 31
0.0
  0
ARC
  5
177
  8
0
  6
CONTINUOUS
 62
     7
 10
3204.1230942808
 20
3275.9770078925
 30
0.0
 40
4.000000000000079
 50
0.0
 51
66.7841069522
  0
ARC
  5
178
  8
0
  6
CONTINUOUS
 62
     7
 10
3204.1230942808
 20
3275.9770078925
 30
0.0
 40
4.000000000000079
 50
113.2158930478
 51
0.0
  0
LINE
  5
179
  8
0
  6
CONTINUOUS
 62
     7
 10
3225.623104056
 20
3262.1770210532
 30
0.0
 11
3225.623104056
 21
3279.6531029014
 31
0.0
  0
ARC
  5
17A
  8
0
  6
CONTINUOUS
 62
     7
 10
2480.1230942808
 20
3275.9770078925
 30
0.0
 40
4.0
 50
113.2158930479
 51
180.0
  0
ARC
  5
17B
  8
0
  6
CONTINUOUS
 62
     7
 10
2480.1230942808
 20
3275.9770078925
 30
0.0
 40
4.0
 50
180.0
 51
66.7841069521
  0
LINE
  5
17C
  8
0
  6
CONTINUOUS
 62
     7
 10
2458.6230845057
 20
3262.1770210532
 30
0.0
 11
2458.6230845057
 21
3279.6531029014
 31
0.0
  0
LINE
  5
17D
  8
0
  6
CONTINUOUS
 62
     7
 10
2460.3230983816
 20
2390.9769959716
 30
0.0
 11
2460.3230983816
 21
2393.8770003585
 31
0.0
  0
LINE
  5
17E
  8
0
  6
CONTINUOUS
 62
     7
 10
2460.3230983816
 20
2390.9769959716
 30
0.0
 11
2457.4230939947
 21
2390.9769959716
 31
0.0
  0
LINE
  5
17F
  8
0
  6
CONTINUOUS
 62
     7
 10
2457.4230939947
 20
2390.9769959716
 30
0.0
 11
2457.4230939947
 21
2818.477065113
 31
0.0
  0
LINE
  5
180
  8
0
  6
CONTINUOUS
 62
     7
 10
2457.4230939947
 20
2818.477065113
 30
0.0
 11
2458.6230845057
 21
2818.477065113
 31
0.0
  0
LINE
  5
181
  8
0
  6
CONTINUOUS
 62
     7
 10
3226.8230945669
 20
2818.477065113
 30
0.0
 11
3225.623104056
 21
2818.477065113
 31
0.0
  0
LINE
  5
182
  8
0
  6
CONTINUOUS
 62
     7
 10
3226.8230945669
 20
2390.9769959716
 30
0.0
 11
3226.8230945669
 21
2818.477065113
 31
0.0
  0
LINE
  5
183
  8
0
  6
CONTINUOUS
 62
     7
 10
3223.92309018
 20
2390.9769959716
 30
0.0
 11
3226.8230945669
 21
2390.9769959716
 31
0.0
  0
LINE
  5
184
  8
0
  6
CONTINUOUS
 62
     7
 10
3223.92309018
 20
2390.9769959716
 30
0.0
 11
3223.92309018
 21
2393.8770003585
 31
0.0
  0
LINE
  5
185
  8
0
  6
CONTINUOUS
 62
     7
 10
3223.92309018
 20
2390.9769959716
 30
0.0
 11
2460.3230983816
 21
2390.9769959716
 31
0.0
  0
LINE
  5
186
  8
0
  6
CONTINUOUS
 62
     7
 10
3225.623104056
 20
2818.477065113
 30
0.0
 11
3225.623104056
 21
2822.5770302085
 31
0.0
  0
LINE
  5
187
  8
0
  6
CONTINUOUS
 62
     7
 10
2458.6230845057
 20
2818.477065113
 30
0.0
 11
2458.6230845057
 21
2822.5770302085
 31
0.0
  0
LINE
  5
188
  8
0
  6
CONTINUOUS
 62
     7
 10
3223.92309018
 20
2818.477065113
 30
0.0
 11
3225.623104056
 21
2818.477065113
 31
0.0
  0
LINE
  5
189
  8
0
  6
CONTINUOUS
 62
     7
 10
2460.3230983816
 20
2818.477065113
 30
0.0
 11
2458.6230845057
 21
2818.477065113
 31
0.0
  0
LINE
  5
18A
  8
0
  6
CONTINUOUS
 62
     7
 10
2458.6230845057
 20
2825.4770345954
 30
0.0
 11
3225.623104056
 21
2825.4770345954
 31
0.0
  0
LINE
  5
18B
  8
0
  6
CONTINUOUS
 62
     7
 10
3225.623104056
 20
2822.5770302085
 30
0.0
 11
3225.623104056
 21
2825.4770345954
 31
0.0
  0
LINE
  5
18C
  8
0
  6
CONTINUOUS
 62
     7
 10
2458.6230845057
 20
2822.5770302085
 30
0.0
 11
2458.6230845057
 21
2825.4770345954
 31
0.0
  0
LINE
  5
18D
  8
0
  6
CONTINUOUS
 62
     7
 10
2458.6230845057
 20
2825.4770345954
 30
0.0
 11
2458.6230845057
 21
2825.9769983558
 31
0.0
  0
LINE
  5
18E
  8
0
  6
CONTINUOUS
 62
     7
 10
3225.623104056
 20
2825.4770345954
 30
0.0
 11
3225.623104056
 21
2825.9769983558
 31
0.0
  0
LINE
  5
18F
  8
0
  6
CONTINUOUS
 62
     7
 10
3226.8230945669
 20
2383.4770031241
 30
0.0
 11
3225.623104056
 21
2383.4770031241
 31
0.0
  0
LINE
  5
190
  8
0
  6
CONTINUOUS
 62
     7
 10
3226.8230945669
 20
1955.9769935874
 30
0.0
 11
3226.8230945669
 21
2383.4770031241
 31
0.0
  0
LINE
  5
191
  8
0
  6
CONTINUOUS
 62
     7
 10
3223.92309018
 20
1955.9769935874
 30
0.0
 11
3226.8230945669
 21
1955.9769935874
 31
0.0
  0
LINE
  5
192
  8
0
  6
CONTINUOUS
 62
     7
 10
3223.92309018
 20
1955.9769935874
 30
0.0
 11
3223.92309018
 21
1958.8769979743
 31
0.0
  0
LINE
  5
193
  8
0
  6
CONTINUOUS
 62
     7
 10
2460.3230983816
 20
1955.9769935874
 30
0.0
 11
2460.3230983816
 21
1958.8769979743
 31
0.0
  0
LINE
  5
194
  8
0
  6
CONTINUOUS
 62
     7
 10
2460.3230983816
 20
1955.9769935874
 30
0.0
 11
2457.4230939947
 21
1955.9769935874
 31
0.0
  0
LINE
  5
195
  8
0
  6
CONTINUOUS
 62
     7
 10
2457.4230939947
 20
1955.9769935874
 30
0.0
 11
2457.4230939947
 21
2383.4770031241
 31
0.0
  0
LINE
  5
196
  8
0
  6
CONTINUOUS
 62
     7
 10
2457.4230939947
 20
2383.4770031241
 30
0.0
 11
2458.6230845057
 21
2383.4770031241
 31
0.0
  0
LINE
  5
197
  8
0
  6
CONTINUOUS
 62
     7
 10
3223.92309018
 20
1955.9769935874
 30
0.0
 11
2460.3230983816
 21
1955.9769935874
 31
0.0
  0
LINE
  5
198
  8
0
  6
CONTINUOUS
 62
     7
 10
3225.623104056
 20
2383.4770031241
 30
0.0
 11
3225.623104056
 21
2387.5770278243
 31
0.0
  0
LINE
  5
199
  8
0
  6
CONTINUOUS
 62
     7
 10
2458.6230845057
 20
2383.4770031241
 30
0.0
 11
2458.6230845057
 21
2387.5770278243
 31
0.0
  0
LINE
  5
19A
  8
0
  6
CONTINUOUS
 62
     7
 10
3223.92309018
 20
2383.4770031241
 30
0.0
 11
3225.623104056
 21
2383.4770031241
 31
0.0
  0
LINE
  5
19B
  8
0
  6
CONTINUOUS
 62
     7
 10
2460.3230983816
 20
2383.4770031241
 30
0.0
 11
2458.6230845057
 21
2383.4770031241
 31
0.0
  0
LINE
  5
19C
  8
0
  6
CONTINUOUS
 62
     7
 10
2458.6230845057
 20
2390.4770322112
 30
0.0
 11
3225.623104056
 21
2390.4770322112
 31
0.0
  0
LINE
  5
19D
  8
0
  6
CONTINUOUS
 62
     7
 10
2458.6230845057
 20
2387.5770278243
 30
0.0
 11
2458.6230845057
 21
2390.4770322112
 31
0.0
  0
LINE
  5
19E
  8
0
  6
CONTINUOUS
 62
     7
 10
3225.623104056
 20
2387.5770278243
 30
0.0
 11
3225.623104056
 21
2390.4770322112
 31
0.0
  0
LINE
  5
19F
  8
0
  6
CONTINUOUS
 62
     7
 10
2458.6230845057
 20
2390.4770322112
 30
0.0
 11
2458.6230845057
 21
2390.9769959716
 31
0.0
  0
LINE
  5
1A0
  8
0
  6
CONTINUOUS
 62
     7
 10
3225.623104056
 20
2390.4770322112
 30
0.0
 11
3225.623104056
 21
2390.9769959716
 31
0.0
  0
LINE
  5
1A1
  8
0
  6
CONTINUOUS
 62
     7
 10
3227.1230847441
 20
3279.6531029014
 30
0.0
 11
3227.1230847441
 21
1440.9770078925
 31
0.0
  0
LINE
  5
1A2
  8
0
  6
CONTINUOUS
 62
     7
 10
3227.1230847441
 20
1440.9770078925
 30
0.0
 11
3229.4231087767
 21
1440.9770078925
 31
0.0
  0
LINE
  5
1A3
  8
0
  6
CONTINUOUS
 62
     7
 10
3262.1230811678
 20
3279.9043960837
 30
0.0
 11
3262.1230811678
 21
1440.9770078925
 31
0.0
  0
LINE
  5
1A4
  8
0
  6
CONTINUOUS
 62
     7
 10
3259.8230869375
 20
1440.9770078925
 30
0.0
 11
3262.1230811678
 21
1440.9770078925
 31
0.0
  0
LINE
  5
1A5
  8
0
  6
CONTINUOUS
 62
     7
 10
3229.4231087767
 20
1440.9770078925
 30
0.0
 11
3259.8230869375
 21
1440.9770078925
 31
0.0
  0
LINE
  5
1A6
  8
0
  6
CONTINUOUS
 62
     7
 10
3225.623104056
 20
1440.9770078925
 30
0.0
 11
3227.1230847441
 21
1440.9770078925
 31
0.0
  0
LINE
  5
1A7
  8
0
  6
CONTINUOUS
 62
     7
 10
3192.1230883204
 20
1520.9770061044
 30
0.0
 11
3192.1230883204
 21
1440.9770078925
 31
0.0
  0
LINE
  5
1A8
  8
0
  6
CONTINUOUS
 62
     7
 10
3192.1230883204
 20
1440.9770078925
 30
0.0
 11
3194.4230825506
 21
1440.9770078925
 31
0.0
  0
LINE
  5
1A9
  8
0
  6
CONTINUOUS
 62
     7
 10
3194.4230825506
 20
1440.9770078925
 30
0.0
 11
3225.623104056
 21
1440.9770078925
 31
0.0
  0
LINE
  5
1AA
  8
0
  6
CONTINUOUS
 62
     7
 10
3192.0231015287
 20
1520.9770061044
 30
0.0
 11
3192.0231015287
 21
1466.9770084289
 31
0.0
  0
LINE
  5
1AB
  8
0
  6
CONTINUOUS
 62
     7
 10
3192.1230883204
 20
1445.9770077807
 30
0.0
 11
3192.0231015287
 21
1445.9770077807
 31
0.0
  0
LINE
  5
1AC
  8
0
  6
CONTINUOUS
 62
     7
 10
3192.0231015287
 20
1440.9770078925
 30
0.0
 11
3192.1230883204
 21
1440.9770078925
 31
0.0
  0
LINE
  5
1AD
  8
0
  6
CONTINUOUS
 62
     7
 10
3192.0231015287
 20
1445.9770077807
 30
0.0
 11
3192.0231015287
 21
1440.9770078925
 31
0.0
  0
LINE
  5
1AE
  8
0
  6
CONTINUOUS
 62
     7
 10
3192.1230883204
 20
1466.9770084289
 30
0.0
 11
3192.0231015287
 21
1466.9770084289
 31
0.0
  0
LINE
  5
1AF
  8
0
  6
CONTINUOUS
 62
     7
 10
3192.0231015287
 20
1445.9770077807
 30
0.0
 11
3192.0231015287
 21
1466.9770084289
 31
0.0
  0
LINE
  5
1B0
  8
0
  6
CONTINUOUS
 62
     7
 10
2422.1231073938
 20
3279.9043960837
 30
0.0
 11
2422.1231073938
 21
1440.9770078925
 31
0.0
  0
LINE
  5
1B1
  8
0
  6
CONTINUOUS
 62
     7
 10
2424.4231016241
 20
1440.9770078925
 30
0.0
 11
2422.1231073938
 21
1440.9770078925
 31
0.0
  0
LINE
  5
1B2
  8
0
  6
CONTINUOUS
 62
     7
 10
2457.1231038176
 20
3279.6531029014
 30
0.0
 11
2457.1231038176
 21
1440.9770078925
 31
0.0
  0
LINE
  5
1B3
  8
0
  6
CONTINUOUS
 62
     7
 10
2457.1231038176
 20
1440.9770078925
 30
0.0
 11
2454.823079785
 21
1440.9770078925
 31
0.0
  0
LINE
  5
1B4
  8
0
  6
CONTINUOUS
 62
     7
 10
2454.823079785
 20
1440.9770078925
 30
0.0
 11
2424.4231016241
 21
1440.9770078925
 31
0.0
  0
LINE
  5
1B5
  8
0
  6
CONTINUOUS
 62
     7
 10
2458.6230845057
 20
1440.9770078925
 30
0.0
 11
2457.1231038176
 21
1440.9770078925
 31
0.0
  0
LINE
  5
1B6
  8
0
  6
CONTINUOUS
 62
     7
 10
2492.1231002413
 20
1520.9770061044
 30
0.0
 11
2492.1231002413
 21
1440.9770078925
 31
0.0
  0
LINE
  5
1B7
  8
0
  6
CONTINUOUS
 62
     7
 10
2492.1231002413
 20
1440.9770078925
 30
0.0
 11
2489.823106011
 21
1440.9770078925
 31
0.0
  0
LINE
  5
1B8
  8
0
  6
CONTINUOUS
 62
     7
 10
2489.823106011
 20
1440.9770078925
 30
0.0
 11
2458.6230845057
 21
1440.9770078925
 31
0.0
  0
LINE
  5
1B9
  8
0
  6
CONTINUOUS
 62
     7
 10
2492.2230870329
 20
1520.9770061044
 30
0.0
 11
2492.2230870329
 21
1466.9770084289
 31
0.0
  0
LINE
  5
1BA
  8
0
  6
CONTINUOUS
 62
     7
 10
2492.1231002413
 20
1466.9770084289
 30
0.0
 11
2492.2230870329
 21
1466.9770084289
 31
0.0
  0
LINE
  5
1BB
  8
0
  6
CONTINUOUS
 62
     7
 10
2492.2230870329
 20
1445.9770077807
 30
0.0
 11
2492.2230870329
 21
1466.9770084289
 31
0.0
  0
LINE
  5
1BC
  8
0
  6
CONTINUOUS
 62
     7
 10
2492.1231002413
 20
1445.9770077807
 30
0.0
 11
2492.2230870329
 21
1445.9770077807
 31
0.0
  0
LINE
  5
1BD
  8
0
  6
CONTINUOUS
 62
     7
 10
2492.2230870329
 20
1440.9770078925
 30
0.0
 11
2492.1231002413
 21
1440.9770078925
 31
0.0
  0
LINE
  5
1BE
  8
0
  6
CONTINUOUS
 62
     7
 10
2492.2230870329
 20
1445.9770077807
 30
0.0
 11
2492.2230870329
 21
1440.9770078925
 31
0.0
  0
DIMENSION
  5
1BF
  8
細線
  2
_D
 10
2180.8520530006
 20
1440.9770078925
 30
0.0
 11
2180.8520530006
 21
2393.5597385413
 31
0.0
 70
   160
  1
<>
  3
SLDDIMSTYLE0
 13
2423.0719819447
 23
3319.829073322
 33
0.0
 14
2422.1230942808
 24
1440.9770078925
 34
0.0
 50
90.0
  0
DIMENSION
  5
1D0
  8
細線
  2
_D_1
 10
3263.4230942808
 20
3469.7106744842
 30
0.0
 11
2836.0749442512
 21
3469.7106744842
 31
0.0
 70
   160
  1
<>
  3
SLDDIMSTYLE0
 13
2420.8230942808
 23
3317.6093421644
 33
0.0
 14
3263.4230942808
 24
3317.6093421644
 34
0.0
 50
0.0
  0
DIMENSION
  5
1DA
  8
細線
  2
_D_2
 10
3192.1230942808
 20
1290.9729828925
 30
0.0
 11
2816.3438216227
 21
1290.9729828925
 31
0.0
 70
   160
  1
<>
  3
SLDDIMSTYLE0
 13
2492.1230942808
 23
1440.9770078925
 33
0.0
 14
3192.1230942808
 24
1440.9770078925
 34
0.0
  0
DIMENSION
  5
1E4
  8
細線
  2
_D_3
 10
3085.3677425839
 20
1440.9770078925
 30
0.0
 11
3085.3677425839
 21
1361.9393288146
 31
0.0
 70
   160
  1
<>
  3
SLDDIMSTYLE1
 13
3226.8230942808
 23
1520.9770078925
 33
0.0
 14
3192.1230942808
 24
1440.9770078925
 34
0.0
 50
90.0
  0
DIMENSION
  5
1F0
  8
細線
  2
_D_4
 10
2492.1230942808
 20
1290.9729828925
 30
0.0
 11
2320.9948721696
 21
1290.9729828925
 31
0.0
 70
   160
  1
<>
  3
SLDDIMSTYLE1
 13
2422.1230942808
 23
1440.9770078925
 33
0.0
 14
2492.1230942808
 24
1440.9770078925
 34
0.0
  0
DIMENSION
  5
1FC
  8
細線
  2
_D_5
 10
3262.1230942808
 20
1290.9729828925
 30
0.0
 11
3353.3646166787
 21
1290.9729828925
 31
0.0
 70
   160
  1
<>
  3
SLDDIMSTYLE1
 13
3192.1230942808
 23
1440.9770078925
 33
0.0
 14
3262.1230942808
 24
1440.9770078925
 34
0.0
  0
INSERT
  5
20F
  8
細線
  2
SW_NOTE_9
 10
3262.1230942808
 20
1615.7347905537
 30
0.0
  0
INSERT
  5
217
  8
細線
  2
SW_NOTE_10
 10
2422.1230942808
 20
1568.3228500222
 30
0.0
  0
INSERT
  5
224
  8
細線
  2
SW_NOTE_11
 10
3143.3087155564
 20
1702.1733116024
 30
0.0
  0
INSERT
  5
22C
  8
細線
  2
SW_NOTE_12
 10
3140.3348825962
 20
2139.3267567622
 30
0.0
  0
INSERT
  5
234
  8
細線
  2
SW_NOTE_13
 10
3143.3087155564
 20
2511.0558767961
 30
0.0
  0
INSERT
  5
23C
  8
細線
  2
SW_NOTE_14
 10
3116.544218914
 20
2986.8691504394
 30
0.0
  0
INSERT
  5
244
  8
細線
  2
SW_NOTE_15
 10
3201.7615248576
 20
3319.829073322
 30
0.0
  0
ENDSEC
  0
EOF
