  0
SECTION
  2
HEADER
  9
$ACADVER
  1
AC1009
  9
$DWGCODEPAGE
  3
dos932
  9
$INSBASE
 10
0.0
 20
0.0
 30
0.0
  9
$EXTMIN
 10
0.0
 20
0.0
 30
0.0
  9
$EXTMAX
 10
4200.0
 20
2970.0
 30
0.0
  9
$LIMMIN
 10
0.0
 20
0.0
  9
$LIMMAX
 10
4200.0
 20
2970.0
  9
$ORTHOMODE
 70
     0
  9
$REGENMODE
 70
     1
  9
$FILLMODE
 70
     1
  9
$QTEXTMODE
 70
     0
  9
$MIRRTEXT
 70
     1
  9
$DRAGMODE
 70
     2
  9
$LTSCALE
 40
10.0
  9
$OSMODE
 70
    37
  9
$ATTMODE
 70
     1
  9
$TEXTSIZE
 40
35.0
  9
$TRACEWID
 40
1.0
  9
$TEXTSTYLE
  7
STANDARD
  9
$CLAYER
  8
0
  9
$CELTYPE
  6
BYLAYER
  9
$CECOLOR
 62
   256
  9
$DIMSCALE
 40
1.0
  9
$DIMASZ
 40
30.0
  9
$DIMEXO
 40
10.0
  9
$DIMDLI
 40
3.75
  9
$DIMRND
 40
0.0
  9
$DIMDLE
 40
0.0
  9
$DIMEXE
 40
10.0
  9
$DIMTP
 40
0.0
  9
$DIMTM
 40
0.0
  9
$DIMTXT
 40
35.0
  9
$DIMCEN
 40
2.5
  9
$DIMTSZ
 40
0.0
  9
$DIMTOL
 70
     0
  9
$DIMLIM
 70
     0
  9
$DIMTIH
 70
     1
  9
$DIMTOH
 70
     1
  9
$DIMSE1
 70
     0
  9
$DIMSE2
 70
     0
  9
$DIMTAD
 70
     1
  9
$DIMZIN
 70
     0
  9
$DIMBLK
  1

  9
$DIMASO
 70
     1
  9
$DIMSHO
 70
     1
  9
$DIMPOST
  1

  9
$DIMAPOST
  1

  9
$DIMALT
 70
     0
  9
$DIMALTD
 70
     3
  9
$DIMALTF
 40
0.0393700787
  9
$DIMLFAC
 40
1.0
  9
$DIMTOFL
 70
     1
  9
$DIMTVP
 40
0.0
  9
$DIMTIX
 70
     0
  9
$DIMSOXD
 70
     0
  9
$DIMSAH
 70
     0
  9
$DIMBLK1
  1

  9
$DIMBLK2
  1

  9
$DIMSTYLE
  2
ISO-25
  9
$DIMCLRD
 70
     0
  9
$DIMCLRE
 70
     0
  9
$DIMCLRT
 70
     0
  9
$DIMTFAC
 40
1.0
  9
$DIMGAP
 40
15.24
  9
$LUNITS
 70
     2
  9
$LUPREC
 70
     1
  9
$SKETCHINC
 40
1.0
  9
$FILLETRAD
 40
10.0
  9
$AUNITS
 70
     0
  9
$AUPREC
 70
     1
  9
$MENU
  1
.
  9
$ELEVATION
 40
0.0
  9
$PELEVATION
 40
0.0
  9
$THICKNESS
 40
0.0
  9
$LIMCHECK
 70
     0
  9
$CHAMFERA
 40
0.0
  9
$CHAMFERB
 40
0.0
  9
$SKPOLY
 70
     0
  9
$TDCREATE
 40
2459221.496489421
  9
$TDUPDATE
 40
2459221.496491331
  9
$TDINDWG
 40
0.0000000116
  9
$TDUSRTIMER
 40
0.0000000116
  9
$USRTIMER
 70
     1
  9
$ANGBASE
 50
0.0
  9
$ANGDIR
 70
     0
  9
$PDMODE
 70
     0
  9
$PDSIZE
 40
-1.0
  9
$PLINEWID
 40
0.0
  9
$COORDS
 70
     1
  9
$SPLFRAME
 70
     0
  9
$SPLINETYPE
 70
     6
  9
$SPLINESEGS
 70
     8
  9
$ATTDIA
 70
     0
  9
$ATTREQ
 70
     1
  9
$HANDLING
 70
     1
  9
$HANDSEED
  5
B88
  9
$SURFTAB1
 70
     6
  9
$SURFTAB2
 70
     6
  9
$SURFTYPE
 70
     6
  9
$SURFU
 70
     6
  9
$SURFV
 70
     6
  9
$UCSNAME
  2

  9
$UCSORG
 10
0.0
 20
0.0
 30
0.0
  9
$UCSXDIR
 10
1.0
 20
0.0
 30
0.0
  9
$UCSYDIR
 10
0.0
 20
1.0
 30
0.0
  9
$PUCSNAME
  2

  9
$PUCSORG
 10
0.0
 20
0.0
 30
0.0
  9
$PUCSXDIR
 10
1.0
 20
0.0
 30
0.0
  9
$PUCSYDIR
 10
0.0
 20
1.0
 30
0.0
  9
$USERI1
 70
     0
  9
$USERI2
 70
     0
  9
$USERI3
 70
     0
  9
$USERI4
 70
     0
  9
$USERI5
 70
     0
  9
$USERR1
 40
0.0
  9
$USERR2
 40
0.0
  9
$USERR3
 40
0.0
  9
$USERR4
 40
0.0
  9
$USERR5
 40
0.0
  9
$WORLDVIEW
 70
     1
  9
$SHADEDGE
 70
     3
  9
$SHADEDIF
 70
    70
  9
$TILEMODE
 70
     1
  9
$MAXACTVP
 70
    64
  9
$PLIMCHECK
 70
     0
  9
$PEXTMIN
 10
1.0000000000E+20
 20
1.0000000000E+20
 30
1.0000000000E+20
  9
$PEXTMAX
 10
-1.0000000000E+20
 20
-1.0000000000E+20
 30
-1.0000000000E+20
  9
$PLIMMIN
 10
0.0
 20
0.0
  9
$PLIMMAX
 10
420.0
 20
297.0
  9
$UNITMODE
 70
     0
  9
$VISRETAIN
 70
     1
  9
$PLINEGEN
 70
     0
  9
$PSLTSCALE
 70
     1
  0
ENDSEC
  0
SECTION
  2
TABLES
  0
TABLE
  2
VPORT
 70
     1
  0
VPORT
  2
*ACTIVE
 70
     0
 10
0.0
 20
0.0
 11
1.0
 21
1.0
 12
2100.0
 22
1485.0
 13
0.0
 23
0.0
 14
10.0
 24
10.0
 15
10.0
 25
10.0
 16
0.0
 26
0.0
 36
1.0
 17
0.0
 27
0.0
 37
0.0
 40
2970.0
 41
1.4141414141
 42
50.0
 43
0.0
 44
0.0
 50
0.0
 51
0.0
 71
     0
 72
  2000
 73
     1
 74
     3
 75
     0
 76
     0
 77
     0
 78
     0
  0
ENDTAB
  0
TABLE
  2
LTYPE
 70
     6
  0
LTYPE
  2
CONTINUOUS
 70
     0
  3
Solid line
 72
    65
 73
     0
 40
0.0
  0
LTYPE
  2
HIDDEN
 70
     0
  3
Hidden __ __ __ __ __ __ __ __ __ __ __ __ __ __
 72
    65
 73
     2
 40
1.905
 49
1.27
 49
-0.635
  0
LTYPE
  2
PHANTOM
 70
     0
  3
Phantom ______  __  __  ______  __  __  ______
 72
    65
 73
     6
 40
12.7
 49
6.35
 49
-1.27
 49
1.27
 49
-1.27
 49
1.27
 49
-1.27
  0
LTYPE
  2
CENTER
 70
     0
  3
Center ____ _ ____ _ ____ _ ____ _ ____ _ ____
 72
    65
 73
     4
 40
10.16
 49
6.35
 49
-1.27
 49
1.27
 49
-1.27
  0
LTYPE
  2
CENTERX2
 70
     0
  3
Center (2x) ________  __  ________  __  _____
 72
    65
 73
     4
 40
20.32
 49
12.7
 49
-2.54
 49
2.54
 49
-2.54
  0
LTYPE
  2
DOT2
 70
     0
  3
Dot (.5x) ........................................
 72
    65
 73
     2
 40
0.635
 49
0.0
 49
-0.635
  0
ENDTAB
  0
TABLE
  2
LAYER
 70
     6
  0
LAYER
  2
0
 70
     0
 62
     7
  6
CONTINUOUS
  0
LAYER
  2
太線
 70
     0
 62
     7
  6
CONTINUOUS
  0
LAYER
  2
中太線
 70
     0
 62
     7
  6
CONTINUOUS
  0
LAYER
  2
細線
 70
     0
 62
     7
  6
CONTINUOUS
  0
LAYER
  2
LAYER0
 70
     0
 62
     7
  6
CONTINUOUS
  0
LAYER
  2
マゼンダ
 70
     0
 62
     6
  6
CONTINUOUS
  0
ENDTAB
  0
TABLE
  2
STYLE
 70
     1
  0
STYLE
  2
STANDARD
 70
     0
 40
0.0
 41
1.0
 50
0.0
 71
     0
 42
35.0
  3
txt
  4
bigfont
  0
ENDTAB
  0
TABLE
  2
VIEW
 70
     0
  0
ENDTAB
  0
TABLE
  2
UCS
 70
     0
  0
ENDTAB
  0
TABLE
  2
APPID
 70
     1
  0
APPID
  2
ACAD
 70
     0
  0
ENDTAB
  0
TABLE
  2
DIMSTYLE
 70
     4
  0
DIMSTYLE
  2
ISO-25
 70
     0
  3

  4

  5

  6

  7

 40
1.0
 41
2.5
 42
0.625
 43
3.75
 44
1.25
 45
0.0
 46
0.0
 47
0.0
 48
0.0
140
2.5
141
2.5
142
0.0
143
0.0393700787
144
1.0
145
0.0
146
1.0
147
0.625
 71
     0
 72
     0
 73
     0
 74
     0
 75
     0
 76
     0
 77
     1
 78
     8
170
     0
171
     3
172
     1
173
     0
174
     0
175
     0
176
     0
177
     0
178
     0
  0
DIMSTYLE
  2
SLDDIMSTYLE0
 70
     0
  3

  4

  5

  6
OPEN30
  7
OPEN30
 40
1.0
 41
30.0
 42
0.0625
 43
0.38
 44
0.0
 45
0.000000001
 46
0.0
 47
0.0
 48
0.0
140
35.0
141
0.09
142
0.0
143
25.4
144
1.0
145
0.0
146
1.0
147
8.75
 71
     0
 72
     0
 73
     0
 74
     0
 75
     0
 76
     0
 77
     3
 78
    12
170
     0
171
     2
172
     0
173
     1
174
     0
175
     0
176
     0
177
     0
178
     0
  0
DIMSTYLE
  2
SLDDIMSTYLE1
 70
     0
  3

  4

  5

  6
OPEN30
  7
OPEN30
 40
1.0
 41
30.0
 42
0.0625
 43
0.38
 44
0.0
 45
0.0
 46
0.0
 47
0.0
 48
0.0
140
35.0
141
0.09
142
0.0
143
25.4
144
10.0
145
0.0
146
1.0
147
8.75
 71
     0
 72
     0
 73
     0
 74
     0
 75
     0
 76
     0
 77
     3
 78
    12
170
     0
171
     2
172
     0
173
     1
174
     0
175
     0
176
     0
177
     0
178
     0
  0
DIMSTYLE
  2
SLDDIMSTYLE2
 70
     0
  3

  4

  5

  6
NONE
  7
OPEN30
 40
1.0
 41
30.0
 42
0.0625
 43
0.38
 44
0.0
 45
0.000000001
 46
0.0
 47
0.0
 48
0.0
140
35.0
141
0.0
142
0.0
143
25.4
144
1.0
145
0.0
146
1.0
147
8.75
 71
     0
 72
     0
 73
     0
 74
     0
 75
     0
 76
     0
 77
     3
 78
    12
170
     0
171
     2
172
     1
173
     1
174
     0
175
     0
176
     0
177
     0
178
     0
  0
ENDTAB
  0
ENDSEC
  0
SECTION
  2
BLOCKS
  0
BLOCK
  8
0
  2
$MODEL_SPACE
 70
     0
 10
0.0
 20
0.0
 30
0.0
  3
$MODEL_SPACE
  1

  0
ENDBLK
  5
21
  8
0
  0
BLOCK
 67
     1
  8
0
  2
$PAPER_SPACE
 70
     0
 10
0.0
 20
0.0
 30
0.0
  3
$PAPER_SPACE
  1

  0
ENDBLK
  5
1D
 67
     1
  8
0
  0
BLOCK
  8
0
  2
SW_NOTE_0
 70
     0
 10
0.0
 20
0.0
 30
0.0
  3
SW_NOTE_0
  1

  0
TEXT
  5
8D
  8
細線
 62
     0
 10
0.0
 20
12.3641021672
 30
0.0
 40
35.0
  1
尺
 41
0.7
 11
0.0
 21
0.0
 31
0.0
 73
     1
  0
TEXT
  5
8E
  8
細線
 62
     0
 10
0.0
 20
-37.6358967152
 30
0.0
 40
35.0
  1
度
 41
0.7
 11
0.0
 21
-49.9999988824
 31
0.0
 73
     1
  0
ENDBLK
  5
8C
  8
0
  0
BLOCK
  8
0
  2
SW_NOTE_1
 70
     0
 10
0.0
 20
0.0
 30
0.0
  3
SW_NOTE_1
  1

  0
TEXT
  5
93
  8
細線
 62
     0
 10
0.0
 20
12.3641021672
 30
0.0
 40
35.0
  1
製
 41
0.7
 11
0.0
 21
0.0
 31
0.0
 73
     1
  0
TEXT
  5
94
  8
細線
 62
     0
 10
0.0
 20
-37.6358967152
 30
0.0
 40
35.0
  1
図
 41
0.7
 11
0.0
 21
-49.9999988824
 31
0.0
 73
     1
  0
ENDBLK
  5
92
  8
0
  0
BLOCK
  8
0
  2
SW_NOTE_2
 70
     0
 10
0.0
 20
0.0
 30
0.0
  3
SW_NOTE_2
  1

  0
TEXT
  5
99
  8
細線
 62
     0
 10
0.0
 20
12.3641021672
 30
0.0
 40
35.0
  1
検
 41
0.7
 11
0.0
 21
0.0
 31
0.0
 73
     1
  0
TEXT
  5
9A
  8
細線
 62
     0
 10
0.0
 20
-37.6358967152
 30
0.0
 40
35.0
  1
図
 41
0.7
 11
0.0
 21
-49.9999988824
 31
0.0
 73
     1
  0
ENDBLK
  5
98
  8
0
  0
BLOCK
  8
0
  2
SW_NOTE_3
 70
     0
 10
0.0
 20
0.0
 30
0.0
  3
SW_NOTE_3
  1

  0
TEXT
  5
9F
  8
細線
 62
     0
 10
0.0
 20
12.3641021672
 30
0.0
 40
35.0
  1
単
 41
0.7
 11
0.0
 21
0.0
 31
0.0
 73
     1
  0
TEXT
  5
A0
  8
細線
 62
     0
 10
0.0
 20
-37.6358967152
 30
0.0
 40
35.0
  1
位
 41
0.7
 11
0.0
 21
-49.9999988824
 31
0.0
 73
     1
  0
ENDBLK
  5
9E
  8
0
  0
BLOCK
  8
0
  2
SW_NOTE_4
 70
     0
 10
0.0
 20
0.0
 30
0.0
  3
SW_NOTE_4
  1

  0
TEXT
  5
A5
  8
細線
 62
     0
 10
0.0
 20
12.3641021672
 30
0.0
 40
35.0
  1
日
 41
0.7
 11
0.0
 21
0.0
 31
0.0
 73
     1
  0
TEXT
  5
A6
  8
細線
 62
     0
 10
0.0
 20
-37.6358967152
 30
0.0
 40
35.0
  1
付
 41
0.7
 11
0.0
 21
-49.9999988824
 31
0.0
 73
     1
  0
ENDBLK
  5
A4
  8
0
  0
BLOCK
  8
0
  2
SW_NOTE_5
 70
     0
 10
0.0
 20
0.0
 30
0.0
  3
SW_NOTE_5
  1

  0
LINE
  5
B0
  8
細線
 62
     0
 10
-0.9347529219
 20
1.2437920127
 30
0.0
 11
-0.9347529219
 21
64.3881219096
 31
0.0
  0
LINE
  5
B1
  8
細線
 62
     0
 10
-0.9347529219
 20
64.3881219096
 30
0.0
 11
189.7868965626
 21
64.3881219096
 31
0.0
  0
LINE
  5
B2
  8
細線
 62
     0
 10
189.7868965626
 20
64.3881219096
 30
0.0
 11
189.7868965626
 21
1.2437920127
 31
0.0
  0
LINE
  5
B3
  8
細線
 62
     0
 10
189.7868965626
 20
1.2437920127
 30
0.0
 11
-0.9347529219
 21
1.2437920127
 31
0.0
  0
TEXT
  5
B4
  8
細線
 62
     0
 10
0.0
 20
16.8240104489
 30
0.0
 40
47.625
  1
承認図
 41
0.7
 11
0.0
 21
0.0
 31
0.0
 73
     1
  0
ENDBLK
  5
AF
  8
0
  0
BLOCK
  8
0
  2
SW_NOTE_6
 70
     0
 10
0.0
 20
0.0
 30
0.0
  3
SW_NOTE_6
  1

  0
TEXT
  5
B9
  8
細線
 62
     0
 10
0.0
 20
12.3641021672
 30
0.0
 40
35.0
  1
図
 41
0.7
 11
0.0
 21
0.0
 31
0.0
 73
     1
  0
TEXT
  5
BA
  8
細線
 62
     0
 10
0.0
 20
-37.6358967152
 30
0.0
 40
35.0
  1
名
 41
0.7
 11
0.0
 21
-49.9999988824
 31
0.0
 73
     1
  0
ENDBLK
  5
B8
  8
0
  0
BLOCK
  8
0
  2
SW_NOTE_7
 70
     0
 10
0.0
 20
0.0
 30
0.0
  3
SW_NOTE_7
  1

  0
TEXT
  5
BF
  8
細線
 62
     0
 10
0.0
 20
11.2160069659
 30
0.0
 40
31.75
  1
表面
 41
0.7
 11
0.0
 21
0.0
 31
0.0
 73
     1
  0
TEXT
  5
C0
  8
細線
 62
     0
 10
0.0
 20
-31.1173258558
 30
0.0
 40
31.75
  1
処理
 41
0.7
 11
0.0
 21
-42.3333328217
 31
0.0
 73
     1
  0
ENDBLK
  5
BE
  8
0
  0
BLOCK
  8
0
  2
SW_NOTE_8
 70
     0
 10
0.0
 20
0.0
 30
0.0
  3
SW_NOTE_8
  1

  0
TEXT
  5
C5
  8
細線
 62
     0
 10
0.0
 20
12.3641021672
 30
0.0
 40
35.0
  1
図
 41
0.7
 11
0.0
 21
0.0
 31
0.0
 73
     1
  0
TEXT
  5
C6
  8
細線
 62
     0
 10
0.0
 20
-37.6358967152
 30
0.0
 40
35.0
  1
番
 41
0.7
 11
0.0
 21
-49.9999988824
 31
0.0
 73
     1
  0
ENDBLK
  5
C4
  8
0
  0
BLOCK
  8
0
  2
SW_TABLEANNOTATION_0
 70
     0
 10
0.0
 20
0.0
 30
0.0
  3
SW_TABLEANNOTATION_0
  1

  0
LINE
  5
CF
  8
細線
 62
     0
 10
0.0
 20
0.0
 30
0.0
 11
0.0
 21
-450.0
 31
0.0
  0
LINE
  5
D0
  8
細線
 62
     0
 10
0.0
 20
-450.0
 30
0.0
 11
1039.2097382585
 21
-450.0
 31
0.0
  0
LINE
  5
D1
  8
細線
 62
     0
 10
1039.2097382585
 20
-450.0
 30
0.0
 11
1039.2097382585
 21
0.0
 31
0.0
  0
LINE
  5
D2
  8
細線
 62
     0
 10
1039.2097382585
 20
0.0
 30
0.0
 11
0.0
 21
0.0
 31
0.0
  0
LINE
  5
D3
  8
細線
 62
     0
 10
180.7086958798
 20
-400.0
 30
0.0
 11
180.7086958798
 21
-450.0
 31
0.0
  0
LINE
  5
D4
  8
細線
 62
     0
 10
557.9336993965
 20
-400.0
 30
0.0
 11
557.9336993965
 21
-450.0
 31
0.0
  0
LINE
  5
D5
  8
細線
 62
     0
 10
671.3613936352
 20
-400.0
 30
0.0
 11
671.3613936352
 21
-450.0
 31
0.0
  0
LINE
  5
D6
  8
細線
 62
     0
 10
925.7820440198
 20
-400.0
 30
0.0
 11
925.7820440198
 21
-450.0
 31
0.0
  0
LINE
  5
D7
  8
細線
 62
     0
 10
180.7086958798
 20
0.0
 30
0.0
 11
180.7086958798
 21
-400.0
 31
0.0
  0
LINE
  5
D8
  8
細線
 62
     0
 10
557.9336993965
 20
0.0
 30
0.0
 11
557.9336993965
 21
-400.0
 31
0.0
  0
LINE
  5
D9
  8
細線
 62
     0
 10
671.3613936352
 20
0.0
 30
0.0
 11
671.3613936352
 21
-400.0
 31
0.0
  0
LINE
  5
DA
  8
細線
 62
     0
 10
925.7820440198
 20
0.0
 30
0.0
 11
925.7820440198
 21
-400.0
 31
0.0
  0
LINE
  5
DB
  8
細線
 62
     0
 10
0.0
 20
-50.0
 30
0.0
 11
1039.2097382585
 21
-50.0
 31
0.0
  0
LINE
  5
DC
  8
細線
 62
     0
 10
0.0
 20
-100.0
 30
0.0
 11
1039.2097382585
 21
-100.0
 31
0.0
  0
LINE
  5
DD
  8
細線
 62
     0
 10
0.0
 20
-150.0
 30
0.0
 11
1039.2097382585
 21
-150.0
 31
0.0
  0
LINE
  5
DE
  8
細線
 62
     0
 10
0.0
 20
-200.0
 30
0.0
 11
1039.2097382585
 21
-200.0
 31
0.0
  0
LINE
  5
DF
  8
細線
 62
     0
 10
0.0
 20
-250.0
 30
0.0
 11
1039.2097382585
 21
-250.0
 31
0.0
  0
LINE
  5
E0
  8
細線
 62
     0
 10
0.0
 20
-300.0
 30
0.0
 11
1039.2097382585
 21
-300.0
 31
0.0
  0
LINE
  5
E1
  8
細線
 62
     0
 10
0.0
 20
-350.0
 30
0.0
 11
1039.2097382585
 21
-350.0
 31
0.0
  0
LINE
  5
E2
  8
細線
 62
     0
 10
0.0
 20
-400.0
 30
0.0
 11
1039.2097382585
 21
-400.0
 31
0.0
  0
TEXT
  5
E3
  8
細線
 62
     0
 10
8.8821280406
 20
-435.5873958576
 30
0.0
 40
35.0
  1
部品番号
 41
0.7
 11
8.8821280406
 21
-447.9514980248
 31
0.0
 73
     1
  0
TEXT
  5
E4
  8
細線
 62
     0
 10
328.5850876885
 20
-435.5873958576
 30
0.0
 40
35.0
  1
品名
 41
0.7
 11
328.5850876885
 21
-447.9514980248
 31
0.0
 73
     1
  0
TEXT
  5
E5
  8
細線
 62
     0
 10
573.9114365662
 20
-435.5873958576
 30
0.0
 40
35.0
  1
個数
 41
0.7
 11
573.9114365662
 21
-447.9514980248
 31
0.0
 73
     1
  0
TEXT
  5
E6
  8
細線
 62
     0
 10
757.8356088778
 20
-435.5873958576
 30
0.0
 40
35.0
  1
材質
 41
0.7
 11
757.8356088778
 21
-447.9514980248
 31
0.0
 73
     1
  0
TEXT
  5
E7
  8
細線
 62
     0
 10
941.7597811895
 20
-435.5873958576
 30
0.0
 40
35.0
  1
板厚
 41
0.7
 11
941.7597811895
 21
-447.9514980248
 31
0.0
 73
     1
  0
TEXT
  5
E8
  8
細線
 62
     0
 10
80.1703204525
 20
-35.5873958576
 30
0.0
 40
35.0
  1
8
 41
0.7
 11
80.1703204525
 21
-47.9514980248
 31
0.0
 73
     1
  0
TEXT
  5
E9
  8
細線
 62
     0
 10
308.217035042
 20
-35.5873958576
 30
0.0
 40
35.0
  1
側板 R
 41
0.7
 11
308.217035042
 21
-47.9514980248
 31
0.0
 73
     1
  0
TEXT
  5
EA
  8
細線
 62
     0
 10
604.4635190284
 20
-35.5873958576
 30
0.0
 40
35.0
  1
1
 41
0.7
 11
604.4635190284
 21
-47.9514980248
 31
0.0
 73
     1
  0
TEXT
  5
EB
  8
細線
 62
     0
 10
747.6515825546
 20
-35.5873958576
 30
0.0
 40
35.0
  1
SGMHC
 41
0.7
 11
747.6515825546
 21
-47.9514980248
 31
0.0
 73
     1
  0
TEXT
  5
EC
  8
細線
 62
     0
 10
951.9438075128
 20
-35.5873958576
 30
0.0
 40
35.0
  1
1.6
 41
0.7
 11
951.9438075128
 21
-47.9514980248
 31
0.0
 73
     1
  0
TEXT
  5
ED
  8
細線
 62
     0
 10
80.1703204525
 20
-85.5873958576
 30
0.0
 40
35.0
  1
7
 41
0.7
 11
80.1703204525
 21
-97.9514980248
 31
0.0
 73
     1
  0
TEXT
  5
EE
  8
細線
 62
     0
 10
308.217035042
 20
-85.5873958576
 30
0.0
 40
35.0
  1
側板 L
 41
0.7
 11
308.217035042
 21
-97.9514980248
 31
0.0
 73
     1
  0
TEXT
  5
EF
  8
細線
 62
     0
 10
604.4635190284
 20
-85.5873958576
 30
0.0
 40
35.0
  1
1
 41
0.7
 11
604.4635190284
 21
-97.9514980248
 31
0.0
 73
     1
  0
TEXT
  5
F0
  8
細線
 62
     0
 10
747.6515825546
 20
-85.5873958576
 30
0.0
 40
35.0
  1
SGMHC
 41
0.7
 11
747.6515825546
 21
-97.9514980248
 31
0.0
 73
     1
  0
TEXT
  5
F1
  8
細線
 62
     0
 10
951.9438075128
 20
-85.5873958576
 30
0.0
 40
35.0
  1
1.6
 41
0.7
 11
951.9438075128
 21
-97.9514980248
 31
0.0
 73
     1
  0
TEXT
  5
F2
  8
細線
 62
     0
 10
80.1703204525
 20
-135.5873958576
 30
0.0
 40
35.0
  1
6
 41
0.7
 11
80.1703204525
 21
-147.9514980248
 31
0.0
 73
     1
  0
TEXT
  5
F3
  8
細線
 62
     0
 10
287.8489777389
 20
-135.5873958576
 30
0.0
 40
35.0
  1
屋根補強
 41
0.7
 11
287.8489777389
 21
-147.9514980248
 31
0.0
 73
     1
  0
TEXT
  5
F4
  8
細線
 62
     0
 10
604.4635190284
 20
-135.5873958576
 30
0.0
 40
35.0
  1
1
 41
0.7
 11
604.4635190284
 21
-147.9514980248
 31
0.0
 73
     1
  0
TEXT
  5
F5
  8
細線
 62
     0
 10
747.6515825546
 20
-135.5873958576
 30
0.0
 40
35.0
  1
SGMHC
 41
0.7
 11
747.6515825546
 21
-147.9514980248
 31
0.0
 73
     1
  0
TEXT
  5
F6
  8
細線
 62
     0
 10
951.9438075128
 20
-135.5873958576
 30
0.0
 40
35.0
  1
1.6
 41
0.7
 11
951.9438075128
 21
-147.9514980248
 31
0.0
 73
     1
  0
TEXT
  5
F7
  8
細線
 62
     0
 10
80.1703204525
 20
-185.5873958576
 30
0.0
 40
35.0
  1
5
 41
0.7
 11
80.1703204525
 21
-197.9514980248
 31
0.0
 73
     1
  0
TEXT
  5
F8
  8
細線
 62
     0
 10
328.5850876885
 20
-185.5873958576
 30
0.0
 40
35.0
  1
屋根
 41
0.7
 11
328.5850876885
 21
-197.9514980248
 31
0.0
 73
     1
  0
TEXT
  5
F9
  8
細線
 62
     0
 10
604.4635190284
 20
-185.5873958576
 30
0.0
 40
35.0
  1
1
 41
0.7
 11
604.4635190284
 21
-197.9514980248
 31
0.0
 73
     1
  0
TEXT
  5
FA
  8
細線
 62
     0
 10
747.6515825546
 20
-185.5873958576
 30
0.0
 40
35.0
  1
SGMHC
 41
0.7
 11
747.6515825546
 21
-197.9514980248
 31
0.0
 73
     1
  0
TEXT
  5
FB
  8
細線
 62
     0
 10
951.9438075128
 20
-185.5873958576
 30
0.0
 40
35.0
  1
1.6
 41
0.7
 11
951.9438075128
 21
-197.9514980248
 31
0.0
 73
     1
  0
TEXT
  5
FC
  8
細線
 62
     0
 10
80.1703204525
 20
-235.5873958576
 30
0.0
 40
35.0
  1
4
 41
0.7
 11
80.1703204525
 21
-247.9514980248
 31
0.0
 73
     1
  0
TEXT
  5
FD
  8
細線
 62
     0
 10
226.7448197993
 20
-235.5873958576
 30
0.0
 40
35.0
  1
チェーンフック
 41
0.7
 11
226.7448197993
 21
-247.9514980248
 31
0.0
 73
     1
  0
TEXT
  5
FE
  8
細線
 62
     0
 10
604.4635190284
 20
-235.5873958576
 30
0.0
 40
35.0
  1
2
 41
0.7
 11
604.4635190284
 21
-247.9514980248
 31
0.0
 73
     1
  0
TEXT
  5
FF
  8
細線
 62
     0
 10
747.6515825546
 20
-235.5873958576
 30
0.0
 40
35.0
  1
SGMHC
 41
0.7
 11
747.6515825546
 21
-247.9514980248
 31
0.0
 73
     1
  0
TEXT
  5
100
  8
細線
 62
     0
 10
951.9438075128
 20
-235.5873958576
 30
0.0
 40
35.0
  1
3.2
 41
0.7
 11
951.9438075128
 21
-247.9514980248
 31
0.0
 73
     1
  0
TEXT
  5
101
  8
細線
 62
     0
 10
80.1703204525
 20
-285.5873958576
 30
0.0
 40
35.0
  1
3
 41
0.7
 11
80.1703204525
 21
-297.9514980248
 31
0.0
 73
     1
  0
TEXT
  5
102
  8
細線
 62
     0
 10
328.5850876885
 20
-285.5873958576
 30
0.0
 40
35.0
  1
横桟
 41
0.7
 11
328.5850876885
 21
-297.9514980248
 31
0.0
 73
     1
  0
TEXT
  5
103
  8
細線
 62
     0
 10
604.4635190284
 20
-285.5873958576
 30
0.0
 40
35.0
  1
2
 41
0.7
 11
604.4635190284
 21
-297.9514980248
 31
0.0
 73
     1
  0
TEXT
  5
104
  8
細線
 62
     0
 10
747.6515825546
 20
-285.5873958576
 30
0.0
 40
35.0
  1
SGMCC
 41
0.7
 11
747.6515825546
 21
-297.9514980248
 31
0.0
 73
     1
  0
TEXT
  5
105
  8
細線
 62
     0
 10
951.9438075128
 20
-285.5873958576
 30
0.0
 40
35.0
  1
1.2
 41
0.7
 11
951.9438075128
 21
-297.9514980248
 31
0.0
 73
     1
  0
TEXT
  5
106
  8
細線
 62
     0
 10
80.1703204525
 20
-335.5873958576
 30
0.0
 40
35.0
  1
2
 41
0.7
 11
80.1703204525
 21
-347.9514980248
 31
0.0
 73
     1
  0
TEXT
  5
107
  8
細線
 62
     0
 10
308.217035042
 20
-335.5873958576
 30
0.0
 40
35.0
  1
土台 R
 41
0.7
 11
308.217035042
 21
-347.9514980248
 31
0.0
 73
     1
  0
TEXT
  5
108
  8
細線
 62
     0
 10
604.4635190284
 20
-335.5873958576
 30
0.0
 40
35.0
  1
1
 41
0.7
 11
604.4635190284
 21
-347.9514980248
 31
0.0
 73
     1
  0
TEXT
  5
109
  8
細線
 62
     0
 10
747.6515825546
 20
-335.5873958576
 30
0.0
 40
35.0
  1
SGMHC
 41
0.7
 11
747.6515825546
 21
-347.9514980248
 31
0.0
 73
     1
  0
TEXT
  5
10A
  8
細線
 62
     0
 10
951.9438075128
 20
-335.5873958576
 30
0.0
 40
35.0
  1
2.3
 41
0.7
 11
951.9438075128
 21
-347.9514980248
 31
0.0
 73
     1
  0
TEXT
  5
10B
  8
細線
 62
     0
 10
80.1703204525
 20
-385.5873958576
 30
0.0
 40
35.0
  1
1
 41
0.7
 11
80.1703204525
 21
-397.9514980248
 31
0.0
 73
     1
  0
TEXT
  5
10C
  8
細線
 62
     0
 10
308.217035042
 20
-385.5873958576
 30
0.0
 40
35.0
  1
土台 L
 41
0.7
 11
308.217035042
 21
-397.9514980248
 31
0.0
 73
     1
  0
TEXT
  5
10D
  8
細線
 62
     0
 10
604.4635190284
 20
-385.5873958576
 30
0.0
 40
35.0
  1
1
 41
0.7
 11
604.4635190284
 21
-397.9514980248
 31
0.0
 73
     1
  0
TEXT
  5
10E
  8
細線
 62
     0
 10
747.6515825546
 20
-385.5873958576
 30
0.0
 40
35.0
  1
SGMHC
 41
0.7
 11
747.6515825546
 21
-397.9514980248
 31
0.0
 73
     1
  0
TEXT
  5
10F
  8
細線
 62
     0
 10
951.9438075128
 20
-385.5873958576
 30
0.0
 40
35.0
  1
2.3
 41
0.7
 11
951.9438075128
 21
-397.9514980248
 31
0.0
 73
     1
  0
ENDBLK
  5
CE
  8
0
  0
BLOCK
  8
0
  2
SW_TABLEANNOTATION_1
 70
     0
 10
0.0
 20
0.0
 30
0.0
  3
SW_TABLEANNOTATION_1
  1

  0
LINE
  5
114
  8
細線
 62
     0
 10
0.0
 20
0.0
 30
0.0
 11
0.0
 21
-135.0
 31
0.0
  0
LINE
  5
115
  8
細線
 62
     0
 10
0.0
 20
-135.0
 30
0.0
 11
1102.7332439645
 21
-135.0
 31
0.0
  0
LINE
  5
116
  8
細線
 62
     0
 10
1102.7332439645
 20
-135.0
 30
0.0
 11
1102.7332439645
 21
0.0
 31
0.0
  0
LINE
  5
117
  8
細線
 62
     0
 10
1102.7332439645
 20
0.0
 30
0.0
 11
0.0
 21
0.0
 31
0.0
  0
LINE
  5
118
  8
細線
 62
     0
 10
118.7771439908
 20
-90.0
 30
0.0
 11
118.7771439908
 21
-135.0
 31
0.0
  0
LINE
  5
119
  8
細線
 62
     0
 10
918.7771439908
 20
-90.0
 30
0.0
 11
918.7771439908
 21
-135.0
 31
0.0
  0
LINE
  5
11A
  8
細線
 62
     0
 10
118.7771439908
 20
0.0
 30
0.0
 11
118.7771439908
 21
-90.0
 31
0.0
  0
LINE
  5
11B
  8
細線
 62
     0
 10
918.7771439908
 20
0.0
 30
0.0
 11
918.7771439908
 21
-90.0
 31
0.0
  0
LINE
  5
11C
  8
細線
 62
     0
 10
0.0
 20
-45.0
 30
0.0
 11
1102.7332439645
 21
-45.0
 31
0.0
  0
LINE
  5
11D
  8
細線
 62
     0
 10
0.0
 20
-90.0
 30
0.0
 11
1102.7332439645
 21
-90.0
 31
0.0
  0
TEXT
  5
11E
  8
細線
 62
     0
 10
31.1663501142
 20
-120.8560676508
 30
0.0
 40
21.1666666667
  1
番号
 41
0.7
 11
31.1663501142
 21
-128.3334056281
 31
0.0
 73
     1
  0
TEXT
  5
11F
  8
細線
 62
     0
 10
462.3327002285
 20
-120.8560676508
 30
0.0
 40
21.1666666667
  1
改訂内容
 41
0.7
 11
462.3327002285
 21
-128.3334056281
 31
0.0
 73
     1
  0
TEXT
  5
120
  8
細線
 62
     0
 10
982.5329720965
 20
-120.8560676508
 30
0.0
 40
21.1666666667
  1
日付
 41
0.7
 11
982.5329720965
 21
-128.3334056281
 31
0.0
 73
     1
  0
TEXT
  5
121
  8
細線
 62
     0
 10
52.3330165251
 20
-30.8560676508
 30
0.0
 40
21.1666666667
  1
2
 41
0.7
 11
52.3330165251
 21
-38.3334056281
 31
0.0
 73
     1
  0
TEXT
  5
122
  8
細線
 62
     0
 10
384.7215947119
 20
-30.8560676508
 30
0.0
 40
21.1666666667
  1
材質をJIS表記に変更
 41
0.7
 11
384.7215947119
 21
-38.3334056281
 31
0.0
 73
     1
  0
TEXT
  5
123
  8
細線
 62
     0
 10
940.1996392748
 20
-30.8560676508
 30
0.0
 40
21.1666666667
  1
2021/01/06
 41
0.7
 11
940.1996392748
 21
-38.3334056281
 31
0.0
 73
     1
  0
TEXT
  5
124
  8
細線
 62
     0
 10
52.3330165251
 20
-75.8560676508
 30
0.0
 40
21.1666666667
  1
1
 41
0.7
 11
52.3330165251
 21
-83.3334056281
 31
0.0
 73
     1
  0
TEXT
  5
125
  8
細線
 62
     0
 10
333.4512532113
 20
-75.8560676508
 30
0.0
 40
21.1666666667
  1
土台の板厚変更・横桟の穴追加
 41
0.7
 11
333.4512532113
 21
-83.3334056281
 31
0.0
 73
     1
  0
TEXT
  5
126
  8
細線
 62
     0
 10
940.1996392748
 20
-75.8560676508
 30
0.0
 40
21.1666666667
  1
2018/11/22
 41
0.7
 11
940.1996392748
 21
-83.3334056281
 31
0.0
 73
     1
  0
ENDBLK
  5
113
  8
0
  0
BLOCK
  8
0
  2
_OPEN30
 70
     0
 10
0.0
 20
0.0
 30
0.0
  3
_OPEN30
  1

  0
LINE
  5
257
  8
0
  6
BYBLOCK
 62
     0
 10
-1.0
 20
0.267949
 30
0.0
 11
0.0
 21
0.0
 31
0.0
  0
LINE
  5
258
  8
0
  6
BYBLOCK
 62
     0
 10
0.0
 20
0.0
 30
0.0
 11
-1.0
 21
-0.267949
 31
0.0
  0
LINE
  5
259
  8
0
  6
BYBLOCK
 62
     0
 10
0.0
 20
0.0
 30
0.0
 11
-1.0
 21
0.0
 31
0.0
  0
ENDBLK
  5
256
  8
0
  0
BLOCK
  8
0
  2
_D
 70
     0
 10
0.0
 20
0.0
 30
0.0
  3
_D
  1

  0
INSERT
  5
25D
  8
細線
  2
_OPEN30
 10
559.4707152513
 20
2360.9721381914
 30
0.0
 41
30.0
 42
30.0
 50
180.0
  0
INSERT
  5
25E
  8
細線
  2
_OPEN30
 10
1453.4707152513
 20
2360.9721381914
 30
0.0
 41
30.0
 42
30.0
 50
0.0
  0
LINE
  5
25F
  8
細線
 10
559.4707152513
 20
2295.470089755
 30
0.0
 11
559.4707152513
 21
2370.9721381914
 31
0.0
  0
LINE
  5
260
  8
細線
 10
1453.4707152513
 20
2295.470089755
 30
0.0
 11
1453.4707152513
 21
2370.9721381914
 31
0.0
  0
LINE
  5
261
  8
細線
 10
559.4707152513
 20
2360.9721381914
 30
0.0
 11
1453.4707152513
 21
2360.9721381914
 31
0.0
  0
TEXT
  5
262
  8
細線
 10
949.0548695649
 20
2373.3362380303
 30
0.0
 40
35.0
  1
894
 50
0.0
 41
0.7
 11
949.0548695649
 21
2360.9721358631
 31
0.0
 73
     1
  0
ENDBLK
  5
25C
  8
0
  0
BLOCK
  8
0
  2
_D_1
 70
     0
 10
0.0
 20
0.0
 30
0.0
  3
_D_1
  1

  0
INSERT
  5
267
  8
細線
  2
_OPEN30
 10
558.5707152513
 20
816.8087363393
 30
0.0
 41
30.0
 42
30.0
 50
180.0
  0
INSERT
  5
268
  8
細線
  2
_OPEN30
 10
1454.3707152513
 20
816.8087363393
 30
0.0
 41
30.0
 42
30.0
 50
0.0
  0
LINE
  5
269
  8
細線
 10
558.5707152513
 20
881.98506589
 30
0.0
 11
558.5707152513
 21
806.8087363393
 31
0.0
  0
LINE
  5
26A
  8
細線
 10
1454.3707152513
 20
881.98506589
 30
0.0
 11
1454.3707152513
 21
806.8087363393
 31
0.0
  0
LINE
  5
26B
  8
細線
 10
558.5707152513
 20
816.8087363393
 30
0.0
 11
1454.3707152513
 21
816.8087363393
 31
0.0
  0
TEXT
  5
26C
  8
細線
 10
954.3467698979
 20
829.1728361782
 30
0.0
 40
35.0
  1
895.8
 41
0.7
 11
954.3467698979
 21
816.808734011
 31
0.0
 73
     1
  0
ENDBLK
  5
266
  8
0
  0
BLOCK
  8
0
  2
SW_NOTE_9
 70
     0
 10
0.0
 20
0.0
 30
0.0
  3
SW_NOTE_9
  1

  0
CIRCLE
  5
270
  8
細線
 62
     0
 10
96.5313466043
 20
75.1905661478
 30
0.0
 40
28.7070482086926
  0
TEXT
  5
271
  8
細線
 62
     0
 10
86.3473191169
 20
64.318556037
 30
0.0
 40
35.0
  1
2
 41
0.7
 11
86.3473191169
 21
51.9544538698
 31
0.0
 73
     1
  0
LINE
  5
272
  8
細線
 62
     0
 10
75.9127899033
 20
52.7421125395
 30
0.0
 11
0.0
 21
0.0
 31
0.0
  0
SOLID
  5
273
  8
細線
 62
     0
 10
0.0
 20
0.0
 30
0.0
 11
28.9166439852
 21
10.9579971086
 31
0.0
 12
20.3579813476
 22
23.2766534418
 32
0.0
 13
20.3579813476
 23
23.2766534418
 33
0.0
  0
ENDBLK
  5
26F
  8
0
  0
BLOCK
  8
0
  2
SW_NOTE_10
 70
     0
 10
0.0
 20
0.0
 30
0.0
  3
SW_NOTE_10
  1

  0
CIRCLE
  5
278
  8
細線
 62
     0
 10
-79.8336018493
 20
86.51436341
 30
0.0
 40
28.7070482086925
  0
TEXT
  5
279
  8
細線
 62
     0
 10
-90.0176293367
 20
75.6423532992
 30
0.0
 40
35.0
  1
1
 41
0.7
 11
-90.0176293367
 21
63.278251132
 31
0.0
 73
     1
  0
LINE
  5
27A
  8
細線
 62
     0
 10
-59.2150451482
 20
64.0659098017
 30
0.0
 11
0.0
 21
0.0
 31
0.0
  0
SOLID
  5
27B
  8
細線
 62
     0
 10
0.0
 20
0.0
 30
0.0
 11
-14.8550346082
 21
27.1215402732
 31
0.0
 12
-25.8704612534
 22
16.9401663078
 32
0.0
 13
-25.8704612534
 23
16.9401663078
 33
0.0
  0
ENDBLK
  5
277
  8
0
  0
BLOCK
  8
0
  2
SW_NOTE_11
 70
     0
 10
0.0
 20
0.0
 30
0.0
  3
SW_NOTE_11
  1

  0
CIRCLE
  5
280
  8
細線
 62
     0
 10
126.5101815482
 20
108.6529610416
 30
0.0
 40
28.7070482086925
  0
TEXT
  5
281
  8
細線
 62
     0
 10
116.3261540608
 20
97.7809509309
 30
0.0
 40
35.0
  1
3
 41
0.7
 11
116.3261540608
 21
85.4168487637
 31
0.0
 73
     1
  0
LINE
  5
282
  8
細線
 62
     0
 10
105.8916248471
 20
86.2045074334
 30
0.0
 11
0.0
 21
0.0
 31
0.0
  0
INSERT
  5
288
  8
細線
 62
     0
  2
_DOT
 10
0.0
 20
0.0
 30
-192.4
 41
15.0
 42
15.0
 50
219.1484286268
  0
ENDBLK
  5
27F
  8
0
  0
BLOCK
  8
0
  2
_DOT
 70
     0
 10
0.0
 20
0.0
 30
0.0
  3
_DOT
  1

  0
POLYLINE
  5
286
  8
0
  6
BYBLOCK
 62
     0
 66
     1
 10
0.0
 20
0.0
 30
0.0
 70
     1
 40
0.5
 41
0.5
  0
VERTEX
  5
B24
  8
0
  6
BYBLOCK
 62
     0
 10
-0.25
 20
0.0
 30
0.0
 42
1.0
  0
VERTEX
  5
B25
  8
0
  6
BYBLOCK
 62
     0
 10
0.25
 20
0.0
 30
0.0
 42
1.0
  0
SEQEND
  5
B87
  8
0
  6
BYBLOCK
 62
     0
  0
LINE
  5
287
  8
0
  6
BYBLOCK
 62
     0
 10
-0.5
 20
0.0
 30
0.0
 11
-1.0
 21
0.0
 31
0.0
  0
ENDBLK
  5
285
  8
0
  0
BLOCK
  8
0
  2
SW_NOTE_12
 70
     0
 10
0.0
 20
0.0
 30
0.0
  3
SW_NOTE_12
  1

  0
CIRCLE
  5
28D
  8
細線
 62
     0
 10
155.8127899033
 20
-127.8580813072
 30
0.0
 40
28.7070482086925
  0
TEXT
  5
28E
  8
細線
 62
     0
 10
145.6287624159
 20
-138.7300914179
 30
0.0
 40
35.0
  1
4
 41
0.7
 11
145.6287624159
 21
-151.0941935851
 31
0.0
 73
     1
  0
LINE
  5
28F
  8
細線
 62
     0
 10
135.1942332023
 20
-110.3580813072
 30
0.0
 11
0.0
 21
0.0
 31
0.0
  0
SOLID
  5
290
  8
細線
 62
     0
 10
0.0
 20
0.0
 30
0.0
 11
18.4975137144
 21
-24.7808794514
 31
0.0
 12
27.9829259604
 22
-13.1607695327
 32
0.0
 13
27.9829259604
 23
-13.1607695327
 33
0.0
  0
ENDBLK
  5
28C
  8
0
  0
BLOCK
  8
0
  2
SW_NOTE_13
 70
     0
 10
0.0
 20
0.0
 30
0.0
  3
SW_NOTE_13
  1

  0
CIRCLE
  5
295
  8
細線
 62
     0
 10
98.1997882072
 20
-99.2776878586
 30
0.0
 40
28.7070482086925
  0
TEXT
  5
296
  8
細線
 62
     0
 10
88.0157607198
 20
-110.1496979694
 30
0.0
 40
35.0
  1
5
 41
0.7
 11
88.0157607198
 21
-122.5138001366
 31
0.0
 73
     1
  0
LINE
  5
297
  8
細線
 62
     0
 10
77.5812315062
 20
-81.7776878586
 30
0.0
 11
0.0
 21
0.0
 31
0.0
  0
SOLID
  5
298
  8
細線
 62
     0
 10
0.0
 20
0.0
 30
0.0
 11
15.2063623479
 21
-26.9261312509
 31
0.0
 12
26.088499131
 22
-16.6024158812
 32
0.0
 13
26.088499131
 23
-16.6024158812
 33
0.0
  0
ENDBLK
  5
294
  8
0
  0
BLOCK
  8
0
  2
SW_NOTE_14
 70
     0
 10
0.0
 20
0.0
 30
0.0
  3
SW_NOTE_14
  1

  0
CIRCLE
  5
29D
  8
細線
 62
     0
 10
138.9771573351
 20
-130.9411417457
 30
0.0
 40
28.70704820869248
  0
TEXT
  5
29E
  8
細線
 62
     0
 10
128.7931298477
 20
-141.8131518565
 30
0.0
 40
35.0
  1
6
 41
0.7
 11
128.7931298477
 21
-154.1772540237
 31
0.0
 73
     1
  0
LINE
  5
29F
  8
細線
 62
     0
 10
118.3586006341
 20
-113.4411417457
 30
0.0
 11
0.0
 21
0.0
 31
0.0
  0
SOLID
  5
2A0
  8
細線
 62
     0
 10
0.0
 20
0.0
 30
0.0
 11
16.4687250519
 21
-26.1730986925
 31
0.0
 12
26.8479803128
 22
-15.3439223513
 32
0.0
 13
26.8479803128
 23
-15.3439223513
 33
0.0
  0
ENDBLK
  5
29C
  8
0
  0
BLOCK
  8
0
  2
_D_2
 70
     0
 10
0.0
 20
0.0
 30
0.0
  3
_D_2
  1

  0
ARC
  5
2DE
  8
細線
 10
2237.7851877537
 20
2288.6803800909
 30
0.0
 40
605.884249719487
 50
180.0
 51
190.0
  0
ARC
  5
2DF
  8
細線
 10
2237.7851877537
 20
2288.6803800909
 30
0.0
 40
605.8842497194869
 50
174.3324327543
 51
180.0
  0
ARC
  5
2E0
  8
細線
 10
2237.7851877537
 20
2288.6803800909
 30
0.0
 40
605.8842497194871
 50
190.0
 51
195.6675672457
  0
INSERT
  5
2E1
  8
細線
  2
_OPEN30
 10
1631.9009380343
 20
2288.6803800909
 30
0.0
 41
30.0
 42
30.0
 50
268.582674214
  0
INSERT
  5
2E2
  8
細線
  2
_OPEN30
 10
1641.105681202
 20
2183.4696842501
 30
0.0
 41
30.0
 42
30.0
 50
101.417325786
  0
LINE
  5
2E3
  8
細線
 10
1798.9880207695
 20
2288.6803800909
 30
0.0
 11
1621.9009380343
 21
2288.6803800909
 31
0.0
  0
LINE
  5
2E4
  8
細線
 10
1801.7123147199
 20
2211.78896702
 30
0.0
 11
1631.2576036719
 21
2181.7332024734
 31
0.0
  0
TEXT
  5
2E5
  8
細線
 10
1643.4642452751
 20
2262.0968143048
 30
0.0
 40
35.0
  1
10°
 50
276.485612632
 41
0.7
 11
1631.179270265
 21
2260.7002430025
 31
0.0
 73
     1
  0
ENDBLK
  5
2DD
  8
0
  0
BLOCK
  8
0
  2
_D_3
 70
     0
 10
0.0
 20
0.0
 30
0.0
  3
_D_3
  1

  0
INSERT
  5
2EA
  8
細線
  2
_OPEN30
 10
2246.5399409946
 20
2367.0363383593
 30
0.0
 41
30.0
 42
30.0
 50
0.0
  0
INSERT
  5
2EB
  8
細線
  2
_OPEN30
 10
1808.5855256897
 20
2367.0363383593
 30
0.0
 41
30.0
 42
30.0
 50
180.0
  0
LINE
  5
2EC
  8
細線
 10
2246.5399409946
 20
2269.7612809402
 30
0.0
 11
2246.5399409946
 21
2377.0363383593
 31
0.0
  0
LINE
  5
2ED
  8
細線
 10
1808.5855256897
 20
2219.9801408859
 30
0.0
 11
1808.5855256897
 21
2377.0363383593
 31
0.0
  0
LINE
  5
2EE
  8
細線
 10
2246.5399409946
 20
2367.0363383593
 30
0.0
 11
1808.5855256897
 21
2367.0363383593
 31
0.0
  0
TEXT
  5
2EF
  8
細線
 10
1989.9134644337
 20
2379.4004381981
 30
0.0
 40
35.0
  1
438
 50
0.0
 41
0.7
 11
1989.9134644337
 21
2367.036336031
 31
0.0
 73
     1
  0
ENDBLK
  5
2E9
  8
0
  0
BLOCK
  8
0
  2
_D_4
 70
     0
 10
0.0
 20
0.0
 30
0.0
  3
_D_4
  1

  0
INSERT
  5
2F4
  8
細線
  2
_OPEN30
 10
1846.8055845433
 20
786.88506589
 30
0.0
 41
30.0
 42
30.0
 50
180.0
  0
INSERT
  5
2F5
  8
細線
  2
_OPEN30
 10
2240.8055845433
 20
786.88506589
 30
0.0
 41
30.0
 42
30.0
 50
0.0
  0
LINE
  5
2F6
  8
細線
 10
1846.8055845433
 20
876.88506589
 30
0.0
 11
1846.8055845433
 21
776.88506589
 31
0.0
  0
LINE
  5
2F7
  8
細線
 10
2240.8055845433
 20
876.88506589
 30
0.0
 11
2240.8055845433
 21
776.88506589
 31
0.0
  0
LINE
  5
2F8
  8
細線
 10
1846.8055845433
 20
786.88506589
 30
0.0
 11
2240.8055845433
 21
786.88506589
 31
0.0
  0
TEXT
  5
2F9
  8
細線
 10
2014.7337603611
 20
799.2491657289
 30
0.0
 40
35.0
  1
394
 50
0.0
 41
0.7
 11
2014.7337603611
 21
786.8850635617
 31
0.0
 73
     1
  0
ENDBLK
  5
2F3
  8
0
  0
BLOCK
  8
0
  2
_D_5
 70
     0
 10
0.0
 20
0.0
 30
0.0
  3
_D_5
  1

  0
INSERT
  5
2FE
  8
細線
  2
_OPEN30
 10
1745.9175936979
 20
886.88506589
 30
0.0
 41
30.0
 42
30.0
 50
270.0
  0
INSERT
  5
2FF
  8
細線
  2
_OPEN30
 10
1745.9175936979
 20
2183.3560827667
 30
0.0
 41
30.0
 42
30.0
 50
90.0
  0
LINE
  5
300
  8
細線
 10
1836.8055845433
 20
886.88506589
 30
0.0
 11
1735.9175936979
 21
886.88506589
 31
0.0
  0
LINE
  5
301
  8
細線
 10
1803.2245296692
 20
2183.3560827667
 30
0.0
 11
1735.9175936979
 21
2183.3560827667
 31
0.0
  0
LINE
  5
302
  8
細線
 10
1745.9175936979
 20
886.88506589
 30
0.0
 11
1745.9175936979
 21
2183.3560827667
 31
0.0
  0
TEXT
  5
303
  8
細線
 10
1733.553493859
 20
1486.7638701759
 30
0.0
 40
35.0
  1
1296.5
 50
90.0
 41
0.7
 11
1745.9175960262
 21
1486.7638701759
 31
0.0
 73
     1
  0
ENDBLK
  5
2FD
  8
0
  0
BLOCK
  8
0
  2
_D_6
 70
     0
 10
0.0
 20
0.0
 30
0.0
  3
_D_6
  1

  0
INSERT
  5
308
  8
細線
  2
_OPEN30
 10
2406.543909187
 20
886.88506589
 30
0.0
 41
30.0
 42
30.0
 50
270.0
  0
INSERT
  5
309
  8
細線
  2
_OPEN30
 10
2406.543909187
 20
2288.7350721801
 30
0.0
 41
30.0
 42
30.0
 50
90.0
  0
LINE
  5
30A
  8
細線
 10
2250.8055845433
 20
886.88506589
 30
0.0
 11
2416.543909187
 21
886.88506589
 31
0.0
  0
LINE
  5
30B
  8
細線
 10
2248.4103211933
 20
2288.7350721801
 30
0.0
 11
2416.543909187
 21
2288.7350721801
 31
0.0
  0
LINE
  5
30C
  8
細線
 10
2406.543909187
 20
886.88506589
 30
0.0
 11
2406.543909187
 21
2288.7350721801
 31
0.0
  0
TEXT
  5
30D
  8
細線
 10
2394.1798093481
 20
1486.7638701759
 30
0.0
 40
35.0
  1
1401.9
 50
90.0
 41
0.7
 11
2406.5439115153
 21
1486.7638701759
 31
0.0
 73
     1
  0
ENDBLK
  5
307
  8
0
  0
BLOCK
  8
0
  2
SW_NOTE_15
 70
     0
 10
0.0
 20
0.0
 30
0.0
  3
SW_NOTE_15
  1

  0
CIRCLE
  5
579
  8
細線
 62
     0
 10
-109.901121102
 20
95.4737217026
 30
0.0
 40
28.7070482086925
  0
TEXT
  5
57A
  8
細線
 62
     0
 10
-120.0851485894
 20
84.6017115918
 30
0.0
 40
35.0
  1
7
 41
0.7
 11
-120.0851485894
 21
72.2376094246
 31
0.0
 73
     1
  0
LINE
  5
57B
  8
細線
 62
     0
 10
-89.2825644009
 20
73.0252680943
 30
0.0
 11
0.0
 21
0.0
 31
0.0
  0
SOLID
  5
57C
  8
細線
 62
     0
 10
0.0
 20
0.0
 30
0.0
 11
-18.4734465173
 21
24.7988260564
 31
0.0
 12
-27.9701356594
 22
13.1879305122
 32
0.0
 13
-27.9701356594
 23
13.1879305122
 33
0.0
  0
ENDBLK
  5
578
  8
0
  0
BLOCK
  8
0
  2
SW_NOTE_16
 70
     0
 10
0.0
 20
0.0
 30
0.0
  3
SW_NOTE_16
  1

  0
CIRCLE
  5
581
  8
細線
 62
     0
 10
-91.705040349
 20
91.3363816238
 30
0.0
 40
28.70704820869251
  0
TEXT
  5
582
  8
細線
 62
     0
 10
-101.8890678365
 20
80.4643715131
 30
0.0
 40
35.0
  1
8
 41
0.7
 11
-101.8890678365
 21
68.1002693459
 31
0.0
 73
     1
  0
LINE
  5
583
  8
細線
 62
     0
 10
-71.086483648
 20
68.8879280156
 30
0.0
 11
0.0
 21
0.0
 31
0.0
  0
SOLID
  5
584
  8
細線
 62
     0
 10
0.0
 20
0.0
 30
0.0
 11
-16.3243795292
 21
26.2633705565
 31
0.0
 12
-26.7630974935
 22
15.4915013008
 32
0.0
 13
-26.7630974935
 23
15.4915013008
 33
0.0
  0
ENDBLK
  5
580
  8
0
  0
BLOCK
  8
0
  2
_D_7
 70
     0
 10
0.0
 20
0.0
 30
0.0
  3
_D_7
  1

  0
INSERT
  5
5F9
  8
細線
  2
_OPEN30
 10
474.0697833572
 20
649.7977730328
 30
701.2125552128
 41
30.0
 42
30.0
 50
90.0
  0
INSERT
  5
5FA
  8
細線
  2
_OPEN30
 10
474.0697833572
 20
329.7977730328
 30
701.2125552128
 41
30.0
 42
30.0
 50
270.0
  0
LINE
  5
5FB
  8
細線
 10
577.1707152513
 20
649.7977730328
 30
0.0
 11
464.0697833572
 21
649.7977730328
 31
0.0
  0
LINE
  5
5FC
  8
細線
 10
577.1707152513
 20
329.7977730328
 30
0.0
 11
464.0697833572
 21
329.7977730328
 31
0.0
  0
LINE
  5
5FD
  8
細線
 10
474.0697833572
 20
649.7977730328
 30
0.0
 11
474.0697833572
 21
329.7977730328
 31
0.0
  0
TEXT
  5
5FE
  8
細線
 10
461.7056835184
 20
460.8246079578
 30
701.2125552128
 40
35.0
  1
320
 50
90.0
 41
0.7
 11
474.0697856855
 21
460.8246079578
 31
701.2125552128
 73
     1
  0
ENDBLK
  5
5F8
  8
0
  0
BLOCK
  8
0
  2
_D_8
 70
     0
 10
0.0
 20
0.0
 30
0.0
  3
_D_8
  1

  0
INSERT
  5
603
  8
細線
  2
_OPEN30
 10
587.1707152513
 20
748.6529135052
 30
701.2125552128
 41
30.0
 42
30.0
 50
180.0
  0
INSERT
  5
604
  8
細線
  2
_OPEN30
 10
1425.7707152513
 20
748.6529135052
 30
701.2125552128
 41
30.0
 42
30.0
 50
0.0
  0
LINE
  5
605
  8
細線
 10
587.1707152513
 20
659.7977730328
 30
0.0
 11
587.1707152513
 21
758.6529135052
 31
0.0
  0
LINE
  5
606
  8
細線
 10
1425.7707152513
 20
659.7977730328
 30
0.0
 11
1425.7707152513
 21
758.6529135052
 31
0.0
  0
LINE
  5
607
  8
細線
 10
587.1707152513
 20
748.6529135052
 30
0.0
 11
1425.7707152513
 21
748.6529135052
 31
0.0
  0
TEXT
  5
608
  8
細線
 10
945.2159663212
 20
761.0170133441
 30
701.2125552128
 40
35.0
  1
838.6
 50
360.0
 41
0.7
 11
945.2159663212
 21
748.6529111769
 31
701.2125552128
 73
     1
  0
ENDBLK
  5
602
  8
0
  0
BLOCK
  8
0
  2
_NONE
 70
     0
 10
0.0
 20
0.0
 30
0.0
  3
_NONE
  1

  0
ENDBLK
  5
60D
  8
0
  0
BLOCK
  8
0
  2
_D_9
 70
     0
 10
0.0
 20
0.0
 30
0.0
  3
_D_9
  1

  0
INSERT
  5
611
  8
細線
  2
_OPEN30
 10
579.8094993283
 20
654.0477730486
 30
701.2125552128
 41
30.0
 42
30.0
 50
329.999999877
  0
LINE
  5
612
  8
細線
 10
579.8094993283
 20
654.0477730486
 30
0.0
 11
445.1365282243
 21
731.8012495535
 31
0.0
  0
LINE
  5
613
  8
細線
 10
579.8094993283
 20
654.0477730486
 30
0.0
 11
594.5319311744
 21
645.547773017
 31
0.0
  0
TEXT
  5
614
  8
細線
 10
451.0719394351
 20
742.0816832835
 30
701.2125552128
 40
35.0
  1
%%c
 50
-30.000000123
 41
0.7
 11
444.8898883286
 21
731.374056725
 31
701.2125552128
 73
     1
  0
TEXT
  5
615
  8
細線
 10
484.5865207629
 20
722.7320306362
 30
701.2125552128
 40
35.0
  1
17
 50
-30.000000123
 41
0.7
 11
478.4044696563
 21
712.0244040777
 31
701.2125552128
 73
     1
  0
ENDBLK
  5
610
  8
0
  0
ENDSEC
  0
SECTION
  2
ENTITIES
  0
LINE
  5
78
  8
太線
 10
200.0
 20
2890.0
 30
0.0
 11
4120.0
 21
2890.0
 31
0.0
  0
LINE
  5
79
  8
太線
 10
200.0
 20
2890.0
 30
0.0
 11
200.0
 21
80.0
 31
0.0
  0
LINE
  5
7A
  8
太線
 10
200.0
 20
80.0
 30
0.0
 11
4120.0
 21
80.0
 31
0.0
  0
LINE
  5
7B
  8
太線
 10
4120.0
 20
2890.0
 30
0.0
 11
4120.0
 21
80.0
 31
0.0
  0
LINE
  5
7C
  8
中太線
 10
2620.0
 20
480.0
 30
0.0
 11
2620.0
 21
80.0
 31
0.0
  0
LINE
  5
7D
  8
中太線
 10
4120.0
 20
480.0
 30
0.0
 11
2620.0
 21
480.0
 31
0.0
  0
LINE
  5
7E
  8
細線
 10
2740.0
 20
220.0
 30
0.0
 11
2740.0
 21
80.0
 31
0.0
  0
LINE
  5
7F
  8
細線
 10
2620.0
 20
220.0
 30
0.0
 11
4120.0
 21
220.0
 31
0.0
  0
LINE
  5
80
  8
細線
 10
2690.0
 20
480.0
 30
0.0
 11
2690.0
 21
220.0
 31
0.0
  0
LINE
  5
81
  8
細線
 10
3300.0
 20
320.0
 30
0.0
 11
3300.0
 21
80.0
 31
0.0
  0
LINE
  5
82
  8
細線
 10
3040.0
 20
320.0
 30
0.0
 11
3040.0
 21
220.0
 31
0.0
  0
LINE
  5
83
  8
細線
 10
3110.0
 20
320.0
 30
0.0
 11
3110.0
 21
220.0
 31
0.0
  0
LINE
  5
84
  8
細線
 10
3230.0
 20
320.0
 30
0.0
 11
3230.0
 21
220.0
 31
0.0
  0
LINE
  5
85
  8
細線
 10
3420.0
 20
320.0
 30
0.0
 11
3420.0
 21
220.0
 31
0.0
  0
LINE
  5
86
  8
細線
 10
3490.0
 20
320.0
 30
0.0
 11
3490.0
 21
220.0
 31
0.0
  0
LINE
  5
87
  8
細線
 10
3610.0
 20
480.0
 30
0.0
 11
3610.0
 21
220.0
 31
0.0
  0
LINE
  5
88
  8
細線
 10
3680.0
 20
480.0
 30
0.0
 11
3680.0
 21
220.0
 31
0.0
  0
LINE
  5
89
  8
中太線
 10
4120.0
 20
320.0
 30
0.0
 11
2620.0
 21
320.0
 31
0.0
  0
INSERT
  5
8F
  8
細線
  2
SW_NOTE_0
 10
2635.7051170213
 20
275.4797837283
 30
0.0
  0
INSERT
  5
95
  8
細線
  2
SW_NOTE_1
 10
3053.4136510025
 20
272.8569926545
 30
0.0
  0
INSERT
  5
9B
  8
細線
  2
SW_NOTE_2
 10
3242.3880530025
 20
272.9197627307
 30
0.0
  0
INSERT
  5
A1
  8
細線
  2
SW_NOTE_3
 10
3433.5127868985
 20
273.8006386034
 30
0.0
  0
INSERT
  5
A7
  8
細線
  2
SW_NOTE_4
 10
3625.2401582544
 20
272.7345963705
 30
0.0
  0
TEXT
  5
A8
  8
細線
 10
2750.6663701847
 20
137.0169062958
 30
0.0
 40
50.0
  1
アイボリー色
 41
0.7
 11
2750.6663701847
 21
119.3539031998
 31
0.0
 73
     1
  0
TEXT
  5
A9
  8
細線
 10
2699.9592101029
 20
257.7584749721
 30
0.0
 40
50.0
  1
-
 41
0.7
 11
2699.9592101029
 21
240.0954718761
 31
0.0
 73
     1
  0
TEXT
  5
AA
  8
細線
 10
3118.3187195282
 20
265.8762371064
 30
0.0
 40
40.0
  1
山田
 41
0.7
 11
3118.3187195282
 21
251.7458346297
 31
0.0
 73
     1
  0
TEXT
  5
AB
  8
細線
 10
3498.2302648715
 20
266.1527081826
 30
0.0
 40
40.0
  1
ｍｍ
 41
0.7
 11
3498.2302648715
 21
252.0223057058
 31
0.0
 73
     1
  0
TEXT
  5
AC
  8
細線
 10
3698.1614244227
 20
265.981750819
 30
0.0
 40
40.0
  1
2021/1/6
 41
0.7
 11
3698.1614244227
 21
251.8513483423
 31
0.0
 73
     1
  0
INSERT
  5
B5
  8
細線
  2
SW_NOTE_5
 10
1758.0223817879
 20
528.3953832451
 30
0.0
  0
INSERT
  5
BB
  8
細線
  2
SW_NOTE_6
 10
2634.6060731417
 20
404.2185226725
 30
0.0
  0
INSERT
  5
C1
  8
細線
  2
SW_NOTE_7
 10
2634.8994921362
 20
156.3331126623
 30
0.0
  0
INSERT
  5
C7
  8
細線
  2
SW_NOTE_8
 10
3625.3640405008
 20
409.5335321014
 30
0.0
  0
TEXT
  5
C8
  8
細線
 10
2707.8283370194
 20
384.4470885248
 30
0.0
 40
52.9166666667
  1
セフティール YGR-20
 41
0.7
 11
2707.8283370194
 21
365.7537435815
 31
0.0
 73
     1
  0
TEXT
  5
C9
  8
細線
 10
3699.133782542
 20
396.784374122
 30
0.0
 40
37.0416666667
  1
RSY-BA02-01-01
 41
0.7
 11
3699.133782542
 21
383.6990326617
 31
0.0
 73
     1
  0
TEXT
  5
CA
  8
細線
 10
3312.7777089892
 20
261.2177407644
 30
0.0
 40
40.0
  1
木下
 41
0.7
 11
3312.7777089892
 21
247.0873382876
 31
0.0
 73
     1
  0
TEXT
  5
CB
  8
細線
 10
4137.8130210212
 20
107.0545318401
 30
0.0
 40
37.0416666667
  1
E
 41
0.7
 11
4137.8130210212
 21
93.9691903799
 31
0.0
 73
     1
  0
INSERT
  5
110
  8
細線
  2
SW_TABLEANNOTATION_0
 10
3083.1455030305
 20
928.2336287432
 30
0.0
  0
INSERT
  5
127
  8
細線
  2
SW_TABLEANNOTATION_1
 10
200.0
 20
215.0
 30
0.0
  0
LINE
  5
128
  8
0
  6
CONTINUOUS
 62
     7
 10
1450.2091161875
 20
2288.7350510127
 30
0.0
 11
562.7323143152
 21
2288.7350510127
 31
0.0
  0
LINE
  5
129
  8
0
  6
CONTINUOUS
 62
     7
 10
1424.6707014707
 20
893.5850656844
 30
0.0
 11
1447.4707297949
 21
893.5850656844
 31
0.0
  0
LINE
  5
12A
  8
0
  6
CONTINUOUS
 62
     7
 10
1451.0707013277
 20
2183.3560656077
 30
0.0
 11
1451.0707013277
 21
893.5850656844
 31
0.0
  0
LINE
  5
12B
  8
0
  6
CONTINUOUS
 62
     7
 10
1451.0707013277
 20
893.5850656844
 30
0.0
 11
1447.4707297949
 21
893.5850656844
 31
0.0
  0
LINE
  5
12C
  8
0
  6
CONTINUOUS
 62
     7
 10
1421.0707299379
 20
2183.3560656077
 30
0.0
 11
1421.0707299379
 21
893.5850656844
 31
0.0
  0
LINE
  5
12D
  8
0
  6
CONTINUOUS
 62
     7
 10
1424.6707014707
 20
893.5850656844
 30
0.0
 11
1421.0707299379
 21
893.5850656844
 31
0.0
  0
LINE
  5
12E
  8
0
  6
CONTINUOUS
 62
     7
 10
1411.4707164434
 20
2183.3560656077
 30
0.0
 11
1411.4707164434
 21
2011.5850161082
 31
0.0
  0
LINE
  5
12F
  8
0
  6
CONTINUOUS
 62
     7
 10
1411.4707164434
 20
2011.5850161082
 30
0.0
 11
1406.4707212118
 21
2006.5850208766
 31
0.0
  0
LINE
  5
130
  8
0
  6
CONTINUOUS
 62
     7
 10
1403.0707232622
 20
2006.5850208766
 30
0.0
 11
1406.4707212118
 21
2006.5850208766
 31
0.0
  0
LINE
  5
131
  8
0
  6
CONTINUOUS
 62
     7
 10
1403.0707232622
 20
2006.5850208766
 30
0.0
 11
1399.4707219271
 21
2006.5850208766
 31
0.0
  0
LINE
  5
132
  8
0
  6
CONTINUOUS
 62
     7
 10
1399.4707219271
 20
2183.3560656077
 30
0.0
 11
1399.4707219271
 21
2006.5850208766
 31
0.0
  0
LINE
  5
133
  8
0
  6
CONTINUOUS
 62
     7
 10
1406.4707212118
 20
1357.5850616461
 30
0.0
 11
1411.4707164434
 21
1352.5850664145
 31
0.0
  0
LINE
  5
134
  8
0
  6
CONTINUOUS
 62
     7
 10
1411.4707164434
 20
1352.5850664145
 30
0.0
 11
1411.4707164434
 21
898.5850655726
 31
0.0
  0
LINE
  5
135
  8
0
  6
CONTINUOUS
 62
     7
 10
1403.0707232622
 20
893.5850656844
 30
0.0
 11
1406.4707212118
 21
893.5850656844
 31
0.0
  0
LINE
  5
136
  8
0
  6
CONTINUOUS
 62
     7
 10
1406.4707212118
 20
1357.5850616461
 30
0.0
 11
1403.0707232622
 21
1357.5850616461
 31
0.0
  0
LINE
  5
137
  8
0
  6
CONTINUOUS
 62
     7
 10
1411.4707164434
 20
898.5850655726
 30
0.0
 11
1406.4707212118
 21
893.5850656844
 31
0.0
  0
LINE
  5
138
  8
0
  6
CONTINUOUS
 62
     7
 10
1403.0707232622
 20
1543.585080958
 30
0.0
 11
1406.4707212118
 21
1543.585080958
 31
0.0
  0
LINE
  5
139
  8
0
  6
CONTINUOUS
 62
     7
 10
1406.4707212118
 20
1820.5850909716
 30
0.0
 11
1403.0707232622
 21
1820.5850909716
 31
0.0
  0
LINE
  5
13A
  8
0
  6
CONTINUOUS
 62
     7
 10
1406.4707212118
 20
1820.5850909716
 30
0.0
 11
1411.4707164434
 21
1815.5850361354
 31
0.0
  0
LINE
  5
13B
  8
0
  6
CONTINUOUS
 62
     7
 10
1411.4707164434
 20
1548.5850761897
 30
0.0
 11
1406.4707212118
 21
1543.585080958
 31
0.0
  0
LINE
  5
13C
  8
0
  6
CONTINUOUS
 62
     7
 10
1411.4707164434
 20
1815.5850361354
 30
0.0
 11
1411.4707164434
 21
1548.5850761897
 31
0.0
  0
LINE
  5
13D
  8
0
  6
CONTINUOUS
 62
     7
 10
1399.4707219271
 20
1357.5850616461
 30
0.0
 11
1399.4707219271
 21
911.8850662625
 31
0.0
  0
LINE
  5
13E
  8
0
  6
CONTINUOUS
 62
     7
 10
1403.0707232622
 20
893.5850656844
 30
0.0
 11
1399.4707219271
 21
893.5850656844
 31
0.0
  0
LINE
  5
13F
  8
0
  6
CONTINUOUS
 62
     7
 10
1399.4707219271
 20
1357.5850616461
 30
0.0
 11
1403.0707232622
 21
1357.5850616461
 31
0.0
  0
LINE
  5
140
  8
0
  6
CONTINUOUS
 62
     7
 10
1399.4707219271
 20
1820.5850909716
 30
0.0
 11
1399.4707219271
 21
1543.585080958
 31
0.0
  0
LINE
  5
141
  8
0
  6
CONTINUOUS
 62
     7
 10
1403.0707232622
 20
1543.585080958
 30
0.0
 11
1399.4707219271
 21
1543.585080958
 31
0.0
  0
LINE
  5
142
  8
0
  6
CONTINUOUS
 62
     7
 10
1399.4707219271
 20
1820.5850909716
 30
0.0
 11
1403.0707232622
 21
1820.5850909716
 31
0.0
  0
LINE
  5
143
  8
0
  6
CONTINUOUS
 62
     7
 10
1403.0707232622
 20
1820.5850909716
 30
0.0
 11
1403.0707232622
 21
1822.3350833422
 31
0.0
  0
LINE
  5
144
  8
0
  6
CONTINUOUS
 62
     7
 10
1403.0707232622
 20
2004.835028506
 30
0.0
 11
1403.0707232622
 21
2006.5850208766
 31
0.0
  0
LINE
  5
145
  8
0
  6
CONTINUOUS
 62
     7
 10
1403.0707232622
 20
1357.5850616461
 30
0.0
 11
1403.0707232622
 21
1359.3350540167
 31
0.0
  0
LINE
  5
146
  8
0
  6
CONTINUOUS
 62
     7
 10
1403.0707232622
 20
1541.8350885874
 30
0.0
 11
1403.0707232622
 21
1543.585080958
 31
0.0
  0
LINE
  5
147
  8
0
  6
CONTINUOUS
 62
     7
 10
1421.0707299379
 20
893.5850656844
 30
0.0
 11
1406.4707212118
 21
893.5850656844
 31
0.0
  0
LINE
  5
148
  8
0
  6
CONTINUOUS
 62
     7
 10
561.870729175
 20
893.5850656844
 30
0.0
 11
565.4707007078
 21
893.5850656844
 31
0.0
  0
LINE
  5
149
  8
0
  6
CONTINUOUS
 62
     7
 10
561.870729175
 20
2183.3560656077
 30
0.0
 11
561.870729175
 21
893.5850656844
 31
0.0
  0
LINE
  5
14A
  8
0
  6
CONTINUOUS
 62
     7
 10
588.2707290319
 20
893.5850656844
 30
0.0
 11
565.4707007078
 21
893.5850656844
 31
0.0
  0
LINE
  5
14B
  8
0
  6
CONTINUOUS
 62
     7
 10
591.8707005648
 20
2183.3560656077
 30
0.0
 11
591.8707005648
 21
893.5850656844
 31
0.0
  0
LINE
  5
14C
  8
0
  6
CONTINUOUS
 62
     7
 10
588.2707290319
 20
893.5850656844
 30
0.0
 11
591.8707005648
 21
893.5850656844
 31
0.0
  0
LINE
  5
14D
  8
0
  6
CONTINUOUS
 62
     7
 10
613.4707085756
 20
2183.3560656077
 30
0.0
 11
613.4707085756
 21
2006.5850208766
 31
0.0
  0
LINE
  5
14E
  8
0
  6
CONTINUOUS
 62
     7
 10
609.8707072405
 20
2006.5850208766
 30
0.0
 11
613.4707085756
 21
2006.5850208766
 31
0.0
  0
LINE
  5
14F
  8
0
  6
CONTINUOUS
 62
     7
 10
609.8707072405
 20
2006.5850208766
 30
0.0
 11
606.4707092909
 21
2006.5850208766
 31
0.0
  0
LINE
  5
150
  8
0
  6
CONTINUOUS
 62
     7
 10
601.4707140592
 20
2011.5850161082
 30
0.0
 11
606.4707092909
 21
2006.5850208766
 31
0.0
  0
LINE
  5
151
  8
0
  6
CONTINUOUS
 62
     7
 10
601.4707140592
 20
2183.3560656077
 30
0.0
 11
601.4707140592
 21
2011.5850161082
 31
0.0
  0
LINE
  5
152
  8
0
  6
CONTINUOUS
 62
     7
 10
609.8707072405
 20
893.5850656844
 30
0.0
 11
606.4707092909
 21
893.5850656844
 31
0.0
  0
LINE
  5
153
  8
0
  6
CONTINUOUS
 62
     7
 10
601.4707140592
 20
898.5850655726
 30
0.0
 11
606.4707092909
 21
893.5850656844
 31
0.0
  0
LINE
  5
154
  8
0
  6
CONTINUOUS
 62
     7
 10
601.4707140592
 20
1352.5850664145
 30
0.0
 11
601.4707140592
 21
898.5850655726
 31
0.0
  0
LINE
  5
155
  8
0
  6
CONTINUOUS
 62
     7
 10
606.4707092909
 20
1357.5850616461
 30
0.0
 11
601.4707140592
 21
1352.5850664145
 31
0.0
  0
LINE
  5
156
  8
0
  6
CONTINUOUS
 62
     7
 10
606.4707092909
 20
1357.5850616461
 30
0.0
 11
609.8707072405
 21
1357.5850616461
 31
0.0
  0
LINE
  5
157
  8
0
  6
CONTINUOUS
 62
     7
 10
609.8707072405
 20
1543.585080958
 30
0.0
 11
606.4707092909
 21
1543.585080958
 31
0.0
  0
LINE
  5
158
  8
0
  6
CONTINUOUS
 62
     7
 10
606.4707092909
 20
1820.5850909716
 30
0.0
 11
601.4707140592
 21
1815.5850361354
 31
0.0
  0
LINE
  5
159
  8
0
  6
CONTINUOUS
 62
     7
 10
606.4707092909
 20
1820.5850909716
 30
0.0
 11
609.8707072405
 21
1820.5850909716
 31
0.0
  0
LINE
  5
15A
  8
0
  6
CONTINUOUS
 62
     7
 10
601.4707140592
 20
1548.5850761897
 30
0.0
 11
606.4707092909
 21
1543.585080958
 31
0.0
  0
LINE
  5
15B
  8
0
  6
CONTINUOUS
 62
     7
 10
601.4707140592
 20
1815.5850361354
 30
0.0
 11
601.4707140592
 21
1548.5850761897
 31
0.0
  0
LINE
  5
15C
  8
0
  6
CONTINUOUS
 62
     7
 10
613.4707085756
 20
1357.5850616461
 30
0.0
 11
609.8707072405
 21
1357.5850616461
 31
0.0
  0
LINE
  5
15D
  8
0
  6
CONTINUOUS
 62
     7
 10
613.4707085756
 20
1357.5850616461
 30
0.0
 11
613.4707085756
 21
911.8850662625
 31
0.0
  0
LINE
  5
15E
  8
0
  6
CONTINUOUS
 62
     7
 10
609.8707072405
 20
893.5850656844
 30
0.0
 11
613.4707085756
 21
893.5850656844
 31
0.0
  0
LINE
  5
15F
  8
0
  6
CONTINUOUS
 62
     7
 10
613.4707085756
 20
1820.5850909716
 30
0.0
 11
609.8707072405
 21
1820.5850909716
 31
0.0
  0
LINE
  5
160
  8
0
  6
CONTINUOUS
 62
     7
 10
613.4707085756
 20
1820.5850909716
 30
0.0
 11
613.4707085756
 21
1543.585080958
 31
0.0
  0
LINE
  5
161
  8
0
  6
CONTINUOUS
 62
     7
 10
609.8707072405
 20
1543.585080958
 30
0.0
 11
613.4707085756
 21
1543.585080958
 31
0.0
  0
LINE
  5
162
  8
0
  6
CONTINUOUS
 62
     7
 10
609.8707072405
 20
1820.5850909716
 30
0.0
 11
609.8707072405
 21
1822.3350833422
 31
0.0
  0
LINE
  5
163
  8
0
  6
CONTINUOUS
 62
     7
 10
609.8707072405
 20
2004.835028506
 30
0.0
 11
609.8707072405
 21
2006.5850208766
 31
0.0
  0
LINE
  5
164
  8
0
  6
CONTINUOUS
 62
     7
 10
609.8707072405
 20
1357.5850616461
 30
0.0
 11
609.8707072405
 21
1359.3350540167
 31
0.0
  0
LINE
  5
165
  8
0
  6
CONTINUOUS
 62
     7
 10
609.8707072405
 20
1541.8350885874
 30
0.0
 11
609.8707072405
 21
1543.585080958
 31
0.0
  0
LINE
  5
166
  8
0
  6
CONTINUOUS
 62
     7
 10
591.8707005648
 20
893.5850656844
 30
0.0
 11
606.4707092909
 21
893.5850656844
 31
0.0
  0
POLYLINE
  5
167
  8
0
  6
CONTINUOUS
 62
     7
 66
     1
 10
0.0
 20
0.0
 30
0.0
 70
   128
  0
VERTEX
  5
616
  8
0
  6
CONTINUOUS
 62
     7
 10
563.0707196859
 20
2213.5254333979
 30
0.0
  0
VERTEX
  5
617
  8
0
  6
CONTINUOUS
 62
     7
 10
562.2924618391
 20
2212.9905413157
 30
0.0
  0
VERTEX
  5
618
  8
0
  6
CONTINUOUS
 62
     7
 10
561.8012599615
 20
2212.2942398554
 30
0.0
  0
VERTEX
  5
619
  8
0
  6
CONTINUOUS
 62
     7
 10
561.543112245
 20
2211.6959284312
 30
0.0
  0
VERTEX
  5
61A
  8
0
  6
CONTINUOUS
 62
     7
 10
561.3471023706
 20
2210.9896133906
 30
0.0
  0
VERTEX
  5
61B
  8
0
  6
CONTINUOUS
 62
     7
 10
561.2132005361
 20
2210.1975868708
 30
0.0
  0
VERTEX
  5
61C
  8
0
  6
CONTINUOUS
 62
     7
 10
561.1414365438
 20
2209.3550156123
 30
0.0
  0
SEQEND
  5
B26
  8
0
  6
CONTINUOUS
 62
     7
  0
POLYLINE
  5
168
  8
0
  6
CONTINUOUS
 62
     7
 66
     1
 10
0.0
 20
0.0
 30
0.0
 70
   128
  0
VERTEX
  5
61D
  8
0
  6
CONTINUOUS
 62
     7
 10
1449.8707108168
 20
2213.5254333979
 30
0.0
  0
VERTEX
  5
61E
  8
0
  6
CONTINUOUS
 62
     7
 10
1450.6489686636
 20
2212.9905413157
 30
0.0
  0
VERTEX
  5
61F
  8
0
  6
CONTINUOUS
 62
     7
 10
1451.1401705412
 20
2212.2942398554
 30
0.0
  0
VERTEX
  5
620
  8
0
  6
CONTINUOUS
 62
     7
 10
1451.3983182577
 20
2211.6959284312
 30
0.0
  0
VERTEX
  5
621
  8
0
  6
CONTINUOUS
 62
     7
 10
1451.594328132
 20
2210.9896133906
 30
0.0
  0
VERTEX
  5
622
  8
0
  6
CONTINUOUS
 62
     7
 10
1451.7282299665
 20
2210.1975868708
 30
0.0
  0
VERTEX
  5
623
  8
0
  6
CONTINUOUS
 62
     7
 10
1451.7999939588
 20
2209.3550156123
 30
0.0
  0
SEQEND
  5
B27
  8
0
  6
CONTINUOUS
 62
     7
  0
LINE
  5
169
  8
0
  6
CONTINUOUS
 62
     7
 10
561.1414365438
 20
2209.3550156123
 30
0.0
 11
561.1414365438
 21
2209.6328924662
 31
0.0
  0
LINE
  5
16A
  8
0
  6
CONTINUOUS
 62
     7
 10
561.1956171659
 20
2209.9862288005
 30
0.0
 11
561.1414365438
 21
2209.6328924662
 31
0.0
  0
LINE
  5
16B
  8
0
  6
CONTINUOUS
 62
     7
 10
1451.7458133367
 20
2209.9862288005
 30
0.0
 11
1451.7999939588
 21
2209.6328924662
 31
0.0
  0
LINE
  5
16C
  8
0
  6
CONTINUOUS
 62
     7
 10
1451.7999939588
 20
2209.3550156123
 30
0.0
 11
1451.7999939588
 21
2209.6328924662
 31
0.0
  0
LINE
  5
16D
  8
0
  6
CONTINUOUS
 62
     7
 10
1451.7999939588
 20
2209.3550156123
 30
0.0
 11
1451.7999939588
 21
2183.3560656077
 31
0.0
  0
LINE
  5
16E
  8
0
  6
CONTINUOUS
 62
     7
 10
1451.7999939588
 20
2183.3560656077
 30
0.0
 11
561.1414365438
 21
2183.3560656077
 31
0.0
  0
LINE
  5
16F
  8
0
  6
CONTINUOUS
 62
     7
 10
561.1414365438
 20
2209.3550156123
 30
0.0
 11
561.1414365438
 21
2183.3560656077
 31
0.0
  0
ARC
  5
170
  8
0
  6
CONTINUOUS
 62
     7
 10
563.464455369
 20
2209.5500136067
 30
0.0
 40
3.994870499087709
 50
95.6562728737
 51
178.6350911611
  0
POLYLINE
  5
171
  8
0
  6
CONTINUOUS
 62
     7
 66
     1
 10
0.0
 20
0.0
 30
0.0
 70
   128
  0
VERTEX
  5
624
  8
0
  6
CONTINUOUS
 62
     7
 10
561.0707156328
 20
2209.645171023
 30
0.0
  0
VERTEX
  5
625
  8
0
  6
CONTINUOUS
 62
     7
 10
561.1582450537
 20
2210.2391909129
 30
0.0
  0
VERTEX
  5
626
  8
0
  6
CONTINUOUS
 62
     7
 10
561.2583212522
 20
2210.4643772608
 30
0.0
  0
SEQEND
  5
B28
  8
0
  6
CONTINUOUS
 62
     7
  0
LINE
  5
172
  8
0
  6
CONTINUOUS
 62
     7
 10
559.4707183508
 20
2209.645171023
 30
0.0
 11
561.0707156328
 21
2209.645171023
 31
0.0
  0
LINE
  5
173
  8
0
  6
CONTINUOUS
 62
     7
 10
559.4707183508
 20
2285.4701469905
 30
0.0
 11
559.4707183508
 21
2209.645171023
 31
0.0
  0
ARC
  5
174
  8
0
  6
CONTINUOUS
 62
     7
 10
562.6831061069
 20
2285.4913466122
 30
0.0
 40
3.21245770701427
 50
83.0698335964
 51
180.3781085329
  0
ARC
  5
175
  8
0
  6
CONTINUOUS
 62
     7
 10
1450.2583243958
 20
2285.4913466122
 30
0.0
 40
3.212457707014043
 50
359.6218914671
 51
96.9301664036
  0
LINE
  5
176
  8
0
  6
CONTINUOUS
 62
     7
 10
1453.4707121519
 20
2285.4701469905
 30
0.0
 11
1453.4707121519
 21
2209.645171023
 31
0.0
  0
ARC
  5
177
  8
0
  6
CONTINUOUS
 62
     7
 10
1449.4769751337
 20
2209.5500136067
 30
0.0
 40
3.994870499087081
 50
1.3649088389
 51
84.3437271263
  0
POLYLINE
  5
178
  8
0
  6
CONTINUOUS
 62
     7
 66
     1
 10
0.0
 20
0.0
 30
0.0
 70
   128
  0
VERTEX
  5
627
  8
0
  6
CONTINUOUS
 62
     7
 10
1451.8707148699
 20
2209.645171023
 30
0.0
  0
VERTEX
  5
628
  8
0
  6
CONTINUOUS
 62
     7
 10
1451.783185449
 20
2210.2391909129
 30
0.0
  0
VERTEX
  5
629
  8
0
  6
CONTINUOUS
 62
     7
 10
1451.6831092504
 20
2210.4643772608
 30
0.0
  0
SEQEND
  5
B29
  8
0
  6
CONTINUOUS
 62
     7
  0
LINE
  5
179
  8
0
  6
CONTINUOUS
 62
     7
 10
1453.4707121519
 20
2209.645171023
 30
0.0
 11
1451.8707148699
 21
2209.645171023
 31
0.0
  0
LINE
  5
17A
  8
0
  6
CONTINUOUS
 62
     7
 10
559.4707183508
 20
2183.6462210185
 30
0.0
 11
561.0707156328
 21
2183.6462210185
 31
0.0
  0
LINE
  5
17B
  8
0
  6
CONTINUOUS
 62
     7
 10
559.4707183508
 20
2209.645171023
 30
0.0
 11
559.4707183508
 21
2183.6462210185
 31
0.0
  0
LINE
  5
17C
  8
0
  6
CONTINUOUS
 62
     7
 10
561.0707156328
 20
2209.1949175364
 30
0.0
 11
561.0707156328
 21
2183.6462210185
 31
0.0
  0
LINE
  5
17D
  8
0
  6
CONTINUOUS
 62
     7
 10
1453.4707121519
 20
2183.6462210185
 30
0.0
 11
1451.8707148699
 21
2183.6462210185
 31
0.0
  0
LINE
  5
17E
  8
0
  6
CONTINUOUS
 62
     7
 10
1451.8707148699
 20
2209.1949175364
 30
0.0
 11
1451.8707148699
 21
2183.6462210185
 31
0.0
  0
LINE
  5
17F
  8
0
  6
CONTINUOUS
 62
     7
 10
1453.4707121519
 20
2209.645171023
 30
0.0
 11
1453.4707121519
 21
2183.6462210185
 31
0.0
  0
POLYLINE
  5
180
  8
0
  6
CONTINUOUS
 62
     7
 66
     1
 10
0.0
 20
0.0
 30
0.0
 70
   128
  0
VERTEX
  5
62A
  8
0
  6
CONTINUOUS
 62
     7
 10
586.4707283644
 20
2255.5743645197
 30
0.0
  0
VERTEX
  5
62B
  8
0
  6
CONTINUOUS
 62
     7
 10
585.6096796659
 20
2255.6040476328
 30
0.0
  0
VERTEX
  5
62C
  8
0
  6
CONTINUOUS
 62
     7
 10
584.8797313837
 20
2255.6888054377
 30
0.0
  0
VERTEX
  5
62D
  8
0
  6
CONTINUOUS
 62
     7
 10
584.3919865755
 20
2255.8155249125
 30
0.0
  0
VERTEX
  5
62E
  8
0
  6
CONTINUOUS
 62
     7
 10
584.2207126287
 20
2255.9650133616
 30
0.0
  0
VERTEX
  5
62F
  8
0
  6
CONTINUOUS
 62
     7
 10
584.3919865755
 20
2256.11462102
 30
0.0
  0
VERTEX
  5
630
  8
0
  6
CONTINUOUS
 62
     7
 10
584.8797313837
 20
2256.2413404948
 30
0.0
  0
VERTEX
  5
631
  8
0
  6
CONTINUOUS
 62
     7
 10
585.6096796659
 20
2256.3259790904
 30
0.0
  0
VERTEX
  5
632
  8
0
  6
CONTINUOUS
 62
     7
 10
586.4707283644
 20
2256.3557814128
 30
0.0
  0
VERTEX
  5
633
  8
0
  6
CONTINUOUS
 62
     7
 10
587.3317472605
 20
2256.3259790904
 30
0.0
  0
VERTEX
  5
634
  8
0
  6
CONTINUOUS
 62
     7
 10
588.0616955427
 20
2256.2413404948
 30
0.0
  0
VERTEX
  5
635
  8
0
  6
CONTINUOUS
 62
     7
 10
588.5494403509
 20
2256.11462102
 30
0.0
  0
VERTEX
  5
636
  8
0
  6
CONTINUOUS
 62
     7
 10
588.7207142977
 20
2255.9650133616
 30
0.0
  0
VERTEX
  5
637
  8
0
  6
CONTINUOUS
 62
     7
 10
588.5494403509
 20
2255.8155249125
 30
0.0
  0
VERTEX
  5
638
  8
0
  6
CONTINUOUS
 62
     7
 10
588.0616955427
 20
2255.6888054377
 30
0.0
  0
VERTEX
  5
639
  8
0
  6
CONTINUOUS
 62
     7
 10
587.3317472605
 20
2255.6040476328
 30
0.0
  0
VERTEX
  5
63A
  8
0
  6
CONTINUOUS
 62
     7
 10
586.4707283644
 20
2255.5743645197
 30
0.0
  0
SEQEND
  5
B2A
  8
0
  6
CONTINUOUS
 62
     7
  0
POLYLINE
  5
181
  8
0
  6
CONTINUOUS
 62
     7
 66
     1
 10
0.0
 20
0.0
 30
0.0
 70
   128
  0
VERTEX
  5
63B
  8
0
  6
CONTINUOUS
 62
     7
 10
866.4707146553
 20
2255.5743645197
 30
0.0
  0
VERTEX
  5
63C
  8
0
  6
CONTINUOUS
 62
     7
 10
865.609680858
 20
2255.6040476328
 30
0.0
  0
VERTEX
  5
63D
  8
0
  6
CONTINUOUS
 62
     7
 10
864.8797176746
 20
2255.6888054377
 30
0.0
  0
VERTEX
  5
63E
  8
0
  6
CONTINUOUS
 62
     7
 10
864.3919877676
 20
2255.8155249125
 30
0.0
  0
VERTEX
  5
63F
  8
0
  6
CONTINUOUS
 62
     7
 10
864.2207138208
 20
2255.9650133616
 30
0.0
  0
VERTEX
  5
640
  8
0
  6
CONTINUOUS
 62
     7
 10
864.3919877676
 20
2256.11462102
 30
0.0
  0
VERTEX
  5
641
  8
0
  6
CONTINUOUS
 62
     7
 10
864.8797176746
 20
2256.2413404948
 30
0.0
  0
VERTEX
  5
642
  8
0
  6
CONTINUOUS
 62
     7
 10
865.609680858
 20
2256.3259790904
 30
0.0
  0
VERTEX
  5
643
  8
0
  6
CONTINUOUS
 62
     7
 10
866.4707146553
 20
2256.3557814128
 30
0.0
  0
VERTEX
  5
644
  8
0
  6
CONTINUOUS
 62
     7
 10
867.3317484526
 20
2256.3259790904
 30
0.0
  0
VERTEX
  5
645
  8
0
  6
CONTINUOUS
 62
     7
 10
868.061711636
 20
2256.2413404948
 30
0.0
  0
VERTEX
  5
646
  8
0
  6
CONTINUOUS
 62
     7
 10
868.549441543
 20
2256.11462102
 30
0.0
  0
VERTEX
  5
647
  8
0
  6
CONTINUOUS
 62
     7
 10
868.7207154898
 20
2255.9650133616
 30
0.0
  0
VERTEX
  5
648
  8
0
  6
CONTINUOUS
 62
     7
 10
868.549441543
 20
2255.8155249125
 30
0.0
  0
VERTEX
  5
649
  8
0
  6
CONTINUOUS
 62
     7
 10
868.061711636
 20
2255.6888054377
 30
0.0
  0
VERTEX
  5
64A
  8
0
  6
CONTINUOUS
 62
     7
 10
867.3317484526
 20
2255.6040476328
 30
0.0
  0
VERTEX
  5
64B
  8
0
  6
CONTINUOUS
 62
     7
 10
866.4707146553
 20
2255.5743645197
 30
0.0
  0
SEQEND
  5
B2B
  8
0
  6
CONTINUOUS
 62
     7
  0
POLYLINE
  5
182
  8
0
  6
CONTINUOUS
 62
     7
 66
     1
 10
0.0
 20
0.0
 30
0.0
 70
   128
  0
VERTEX
  5
64C
  8
0
  6
CONTINUOUS
 62
     7
 10
866.4707146553
 20
2243.7663267619
 30
0.0
  0
VERTEX
  5
64D
  8
0
  6
CONTINUOUS
 62
     7
 10
865.609680858
 20
2243.796009875
 30
0.0
  0
VERTEX
  5
64E
  8
0
  6
CONTINUOUS
 62
     7
 10
864.8797176746
 20
2243.8807676798
 30
0.0
  0
VERTEX
  5
64F
  8
0
  6
CONTINUOUS
 62
     7
 10
864.3919877676
 20
2244.0074871546
 30
0.0
  0
VERTEX
  5
650
  8
0
  6
CONTINUOUS
 62
     7
 10
864.2207138208
 20
2244.1569756037
 30
0.0
  0
VERTEX
  5
651
  8
0
  6
CONTINUOUS
 62
     7
 10
864.3919877676
 20
2244.3064640528
 30
0.0
  0
VERTEX
  5
652
  8
0
  6
CONTINUOUS
 62
     7
 10
864.8797176746
 20
2244.4333027369
 30
0.0
  0
VERTEX
  5
653
  8
0
  6
CONTINUOUS
 62
     7
 10
865.609680858
 20
2244.5179413325
 30
0.0
  0
VERTEX
  5
654
  8
0
  6
CONTINUOUS
 62
     7
 10
866.4707146553
 20
2244.5477436549
 30
0.0
  0
VERTEX
  5
655
  8
0
  6
CONTINUOUS
 62
     7
 10
867.3317484526
 20
2244.5179413325
 30
0.0
  0
VERTEX
  5
656
  8
0
  6
CONTINUOUS
 62
     7
 10
868.061711636
 20
2244.4333027369
 30
0.0
  0
VERTEX
  5
657
  8
0
  6
CONTINUOUS
 62
     7
 10
868.549441543
 20
2244.3064640528
 30
0.0
  0
VERTEX
  5
658
  8
0
  6
CONTINUOUS
 62
     7
 10
868.7207154898
 20
2244.1569756037
 30
0.0
  0
VERTEX
  5
659
  8
0
  6
CONTINUOUS
 62
     7
 10
868.549441543
 20
2244.0074871546
 30
0.0
  0
VERTEX
  5
65A
  8
0
  6
CONTINUOUS
 62
     7
 10
868.061711636
 20
2243.8807676798
 30
0.0
  0
VERTEX
  5
65B
  8
0
  6
CONTINUOUS
 62
     7
 10
867.3317484526
 20
2243.796009875
 30
0.0
  0
VERTEX
  5
65C
  8
0
  6
CONTINUOUS
 62
     7
 10
866.4707146553
 20
2243.7663267619
 30
0.0
  0
SEQEND
  5
B2C
  8
0
  6
CONTINUOUS
 62
     7
  0
POLYLINE
  5
183
  8
0
  6
CONTINUOUS
 62
     7
 66
     1
 10
0.0
 20
0.0
 30
0.0
 70
   128
  0
VERTEX
  5
65D
  8
0
  6
CONTINUOUS
 62
     7
 10
586.4707283644
 20
2243.7663267619
 30
0.0
  0
VERTEX
  5
65E
  8
0
  6
CONTINUOUS
 62
     7
 10
585.6096796659
 20
2243.796009875
 30
0.0
  0
VERTEX
  5
65F
  8
0
  6
CONTINUOUS
 62
     7
 10
584.8797313837
 20
2243.8807676798
 30
0.0
  0
VERTEX
  5
660
  8
0
  6
CONTINUOUS
 62
     7
 10
584.3919865755
 20
2244.0074871546
 30
0.0
  0
VERTEX
  5
661
  8
0
  6
CONTINUOUS
 62
     7
 10
584.2207126287
 20
2244.1569756037
 30
0.0
  0
VERTEX
  5
662
  8
0
  6
CONTINUOUS
 62
     7
 10
584.3919865755
 20
2244.3064640528
 30
0.0
  0
VERTEX
  5
663
  8
0
  6
CONTINUOUS
 62
     7
 10
584.8797313837
 20
2244.4333027369
 30
0.0
  0
VERTEX
  5
664
  8
0
  6
CONTINUOUS
 62
     7
 10
585.6096796659
 20
2244.5179413325
 30
0.0
  0
VERTEX
  5
665
  8
0
  6
CONTINUOUS
 62
     7
 10
586.4707283644
 20
2244.5477436549
 30
0.0
  0
VERTEX
  5
666
  8
0
  6
CONTINUOUS
 62
     7
 10
587.3317472605
 20
2244.5179413325
 30
0.0
  0
VERTEX
  5
667
  8
0
  6
CONTINUOUS
 62
     7
 10
588.0616955427
 20
2244.4333027369
 30
0.0
  0
VERTEX
  5
668
  8
0
  6
CONTINUOUS
 62
     7
 10
588.5494403509
 20
2244.3064640528
 30
0.0
  0
VERTEX
  5
669
  8
0
  6
CONTINUOUS
 62
     7
 10
588.7207142977
 20
2244.1569756037
 30
0.0
  0
VERTEX
  5
66A
  8
0
  6
CONTINUOUS
 62
     7
 10
588.5494403509
 20
2244.0074871546
 30
0.0
  0
VERTEX
  5
66B
  8
0
  6
CONTINUOUS
 62
     7
 10
588.0616955427
 20
2243.8807676798
 30
0.0
  0
VERTEX
  5
66C
  8
0
  6
CONTINUOUS
 62
     7
 10
587.3317472605
 20
2243.796009875
 30
0.0
  0
VERTEX
  5
66D
  8
0
  6
CONTINUOUS
 62
     7
 10
586.4707283644
 20
2243.7663267619
 30
0.0
  0
SEQEND
  5
B2D
  8
0
  6
CONTINUOUS
 62
     7
  0
POLYLINE
  5
184
  8
0
  6
CONTINUOUS
 62
     7
 66
     1
 10
0.0
 20
0.0
 30
0.0
 70
   128
  0
VERTEX
  5
66E
  8
0
  6
CONTINUOUS
 62
     7
 10
1426.4707021383
 20
2255.5743645197
 30
0.0
  0
VERTEX
  5
66F
  8
0
  6
CONTINUOUS
 62
     7
 10
1427.3317508367
 20
2255.6040476328
 30
0.0
  0
VERTEX
  5
670
  8
0
  6
CONTINUOUS
 62
     7
 10
1428.061699119
 20
2255.6888054377
 30
0.0
  0
VERTEX
  5
671
  8
0
  6
CONTINUOUS
 62
     7
 10
1428.5494439272
 20
2255.8155249125
 30
0.0
  0
VERTEX
  5
672
  8
0
  6
CONTINUOUS
 62
     7
 10
1428.7207178739
 20
2255.9650133616
 30
0.0
  0
VERTEX
  5
673
  8
0
  6
CONTINUOUS
 62
     7
 10
1428.5494439272
 20
2256.11462102
 30
0.0
  0
VERTEX
  5
674
  8
0
  6
CONTINUOUS
 62
     7
 10
1428.061699119
 20
2256.2413404948
 30
0.0
  0
VERTEX
  5
675
  8
0
  6
CONTINUOUS
 62
     7
 10
1427.3317508367
 20
2256.3259790904
 30
0.0
  0
VERTEX
  5
676
  8
0
  6
CONTINUOUS
 62
     7
 10
1426.4707021383
 20
2256.3557814128
 30
0.0
  0
VERTEX
  5
677
  8
0
  6
CONTINUOUS
 62
     7
 10
1425.6096832422
 20
2256.3259790904
 30
0.0
  0
VERTEX
  5
678
  8
0
  6
CONTINUOUS
 62
     7
 10
1424.87973496
 20
2256.2413404948
 30
0.0
  0
VERTEX
  5
679
  8
0
  6
CONTINUOUS
 62
     7
 10
1424.3919901518
 20
2256.11462102
 30
0.0
  0
VERTEX
  5
67A
  8
0
  6
CONTINUOUS
 62
     7
 10
1424.220716205
 20
2255.9650133616
 30
0.0
  0
VERTEX
  5
67B
  8
0
  6
CONTINUOUS
 62
     7
 10
1424.3919901518
 20
2255.8155249125
 30
0.0
  0
VERTEX
  5
67C
  8
0
  6
CONTINUOUS
 62
     7
 10
1424.87973496
 20
2255.6888054377
 30
0.0
  0
VERTEX
  5
67D
  8
0
  6
CONTINUOUS
 62
     7
 10
1425.6096832422
 20
2255.6040476328
 30
0.0
  0
VERTEX
  5
67E
  8
0
  6
CONTINUOUS
 62
     7
 10
1426.4707021383
 20
2255.5743645197
 30
0.0
  0
SEQEND
  5
B2E
  8
0
  6
CONTINUOUS
 62
     7
  0
POLYLINE
  5
185
  8
0
  6
CONTINUOUS
 62
     7
 66
     1
 10
0.0
 20
0.0
 30
0.0
 70
   128
  0
VERTEX
  5
67F
  8
0
  6
CONTINUOUS
 62
     7
 10
1146.4707158474
 20
2255.5743645197
 30
0.0
  0
VERTEX
  5
680
  8
0
  6
CONTINUOUS
 62
     7
 10
1147.3317496446
 20
2255.6040476328
 30
0.0
  0
VERTEX
  5
681
  8
0
  6
CONTINUOUS
 62
     7
 10
1148.0617128281
 20
2255.6888054377
 30
0.0
  0
VERTEX
  5
682
  8
0
  6
CONTINUOUS
 62
     7
 10
1148.5494427351
 20
2255.8155249125
 30
0.0
  0
VERTEX
  5
683
  8
0
  6
CONTINUOUS
 62
     7
 10
1148.7207166818
 20
2255.9650133616
 30
0.0
  0
VERTEX
  5
684
  8
0
  6
CONTINUOUS
 62
     7
 10
1148.5494427351
 20
2256.11462102
 30
0.0
  0
VERTEX
  5
685
  8
0
  6
CONTINUOUS
 62
     7
 10
1148.0617128281
 20
2256.2413404948
 30
0.0
  0
VERTEX
  5
686
  8
0
  6
CONTINUOUS
 62
     7
 10
1147.3317496446
 20
2256.3259790904
 30
0.0
  0
VERTEX
  5
687
  8
0
  6
CONTINUOUS
 62
     7
 10
1146.4707158474
 20
2256.3557814128
 30
0.0
  0
VERTEX
  5
688
  8
0
  6
CONTINUOUS
 62
     7
 10
1145.6096820501
 20
2256.3259790904
 30
0.0
  0
VERTEX
  5
689
  8
0
  6
CONTINUOUS
 62
     7
 10
1144.8797188667
 20
2256.2413404948
 30
0.0
  0
VERTEX
  5
68A
  8
0
  6
CONTINUOUS
 62
     7
 10
1144.3919889597
 20
2256.11462102
 30
0.0
  0
VERTEX
  5
68B
  8
0
  6
CONTINUOUS
 62
     7
 10
1144.2207150129
 20
2255.9650133616
 30
0.0
  0
VERTEX
  5
68C
  8
0
  6
CONTINUOUS
 62
     7
 10
1144.3919889597
 20
2255.8155249125
 30
0.0
  0
VERTEX
  5
68D
  8
0
  6
CONTINUOUS
 62
     7
 10
1144.8797188667
 20
2255.6888054377
 30
0.0
  0
VERTEX
  5
68E
  8
0
  6
CONTINUOUS
 62
     7
 10
1145.6096820501
 20
2255.6040476328
 30
0.0
  0
VERTEX
  5
68F
  8
0
  6
CONTINUOUS
 62
     7
 10
1146.4707158474
 20
2255.5743645197
 30
0.0
  0
SEQEND
  5
B2F
  8
0
  6
CONTINUOUS
 62
     7
  0
POLYLINE
  5
186
  8
0
  6
CONTINUOUS
 62
     7
 66
     1
 10
0.0
 20
0.0
 30
0.0
 70
   128
  0
VERTEX
  5
690
  8
0
  6
CONTINUOUS
 62
     7
 10
1146.4707158474
 20
2243.7663267619
 30
0.0
  0
VERTEX
  5
691
  8
0
  6
CONTINUOUS
 62
     7
 10
1147.3317496446
 20
2243.796009875
 30
0.0
  0
VERTEX
  5
692
  8
0
  6
CONTINUOUS
 62
     7
 10
1148.0617128281
 20
2243.8807676798
 30
0.0
  0
VERTEX
  5
693
  8
0
  6
CONTINUOUS
 62
     7
 10
1148.5494427351
 20
2244.0074871546
 30
0.0
  0
VERTEX
  5
694
  8
0
  6
CONTINUOUS
 62
     7
 10
1148.7207166818
 20
2244.1569756037
 30
0.0
  0
VERTEX
  5
695
  8
0
  6
CONTINUOUS
 62
     7
 10
1148.5494427351
 20
2244.3064640528
 30
0.0
  0
VERTEX
  5
696
  8
0
  6
CONTINUOUS
 62
     7
 10
1148.0617128281
 20
2244.4333027369
 30
0.0
  0
VERTEX
  5
697
  8
0
  6
CONTINUOUS
 62
     7
 10
1147.3317496446
 20
2244.5179413325
 30
0.0
  0
VERTEX
  5
698
  8
0
  6
CONTINUOUS
 62
     7
 10
1146.4707158474
 20
2244.5477436549
 30
0.0
  0
VERTEX
  5
699
  8
0
  6
CONTINUOUS
 62
     7
 10
1145.6096820501
 20
2244.5179413325
 30
0.0
  0
VERTEX
  5
69A
  8
0
  6
CONTINUOUS
 62
     7
 10
1144.8797188667
 20
2244.4333027369
 30
0.0
  0
VERTEX
  5
69B
  8
0
  6
CONTINUOUS
 62
     7
 10
1144.3919889597
 20
2244.3064640528
 30
0.0
  0
VERTEX
  5
69C
  8
0
  6
CONTINUOUS
 62
     7
 10
1144.2207150129
 20
2244.1569756037
 30
0.0
  0
VERTEX
  5
69D
  8
0
  6
CONTINUOUS
 62
     7
 10
1144.3919889597
 20
2244.0074871546
 30
0.0
  0
VERTEX
  5
69E
  8
0
  6
CONTINUOUS
 62
     7
 10
1144.8797188667
 20
2243.8807676798
 30
0.0
  0
VERTEX
  5
69F
  8
0
  6
CONTINUOUS
 62
     7
 10
1145.6096820501
 20
2243.796009875
 30
0.0
  0
VERTEX
  5
6A0
  8
0
  6
CONTINUOUS
 62
     7
 10
1146.4707158474
 20
2243.7663267619
 30
0.0
  0
SEQEND
  5
B30
  8
0
  6
CONTINUOUS
 62
     7
  0
POLYLINE
  5
187
  8
0
  6
CONTINUOUS
 62
     7
 66
     1
 10
0.0
 20
0.0
 30
0.0
 70
   128
  0
VERTEX
  5
6A1
  8
0
  6
CONTINUOUS
 62
     7
 10
1426.4707021383
 20
2243.7663267619
 30
0.0
  0
VERTEX
  5
6A2
  8
0
  6
CONTINUOUS
 62
     7
 10
1427.3317508367
 20
2243.796009875
 30
0.0
  0
VERTEX
  5
6A3
  8
0
  6
CONTINUOUS
 62
     7
 10
1428.061699119
 20
2243.8807676798
 30
0.0
  0
VERTEX
  5
6A4
  8
0
  6
CONTINUOUS
 62
     7
 10
1428.5494439272
 20
2244.0074871546
 30
0.0
  0
VERTEX
  5
6A5
  8
0
  6
CONTINUOUS
 62
     7
 10
1428.7207178739
 20
2244.1569756037
 30
0.0
  0
VERTEX
  5
6A6
  8
0
  6
CONTINUOUS
 62
     7
 10
1428.5494439272
 20
2244.3064640528
 30
0.0
  0
VERTEX
  5
6A7
  8
0
  6
CONTINUOUS
 62
     7
 10
1428.061699119
 20
2244.4333027369
 30
0.0
  0
VERTEX
  5
6A8
  8
0
  6
CONTINUOUS
 62
     7
 10
1427.3317508367
 20
2244.5179413325
 30
0.0
  0
VERTEX
  5
6A9
  8
0
  6
CONTINUOUS
 62
     7
 10
1426.4707021383
 20
2244.5477436549
 30
0.0
  0
VERTEX
  5
6AA
  8
0
  6
CONTINUOUS
 62
     7
 10
1425.6096832422
 20
2244.5179413325
 30
0.0
  0
VERTEX
  5
6AB
  8
0
  6
CONTINUOUS
 62
     7
 10
1424.87973496
 20
2244.4333027369
 30
0.0
  0
VERTEX
  5
6AC
  8
0
  6
CONTINUOUS
 62
     7
 10
1424.3919901518
 20
2244.3064640528
 30
0.0
  0
VERTEX
  5
6AD
  8
0
  6
CONTINUOUS
 62
     7
 10
1424.220716205
 20
2244.1569756037
 30
0.0
  0
VERTEX
  5
6AE
  8
0
  6
CONTINUOUS
 62
     7
 10
1424.3919901518
 20
2244.0074871546
 30
0.0
  0
VERTEX
  5
6AF
  8
0
  6
CONTINUOUS
 62
     7
 10
1424.87973496
 20
2243.8807676798
 30
0.0
  0
VERTEX
  5
6B0
  8
0
  6
CONTINUOUS
 62
     7
 10
1425.6096832422
 20
2243.796009875
 30
0.0
  0
VERTEX
  5
6B1
  8
0
  6
CONTINUOUS
 62
     7
 10
1426.4707021383
 20
2243.7663267619
 30
0.0
  0
SEQEND
  5
B31
  8
0
  6
CONTINUOUS
 62
     7
  0
LINE
  5
188
  8
0
  6
CONTINUOUS
 62
     7
 10
562.7323143152
 20
2288.6899899012
 30
0.0
 11
563.0707196859
 21
2288.6803339488
 31
0.0
  0
LINE
  5
189
  8
0
  6
CONTINUOUS
 62
     7
 10
1450.2091161875
 20
2288.6899899012
 30
0.0
 11
1449.8707108168
 21
2288.6803339488
 31
0.0
  0
LINE
  5
18A
  8
0
  6
CONTINUOUS
 62
     7
 10
1412.0707266001
 20
1402.185041762
 30
0.0
 11
1412.0707266001
 21
1409.5850776202
 31
0.0
  0
LINE
  5
18B
  8
0
  6
CONTINUOUS
 62
     7
 10
1408.8707022337
 20
1402.185041762
 30
0.0
 11
1408.8707022337
 21
1409.5850776202
 31
0.0
  0
LINE
  5
18C
  8
0
  6
CONTINUOUS
 62
     7
 10
1404.4707171587
 20
1394.5850919253
 30
0.0
 11
1396.4707009462
 21
1394.5850919253
 31
0.0
  0
LINE
  5
18D
  8
0
  6
CONTINUOUS
 62
     7
 10
1404.4707171587
 20
1397.7850864894
 30
0.0
 11
1396.4707009462
 21
1397.7850864894
 31
0.0
  0
LINE
  5
18E
  8
0
  6
CONTINUOUS
 62
     7
 10
1408.8707022337
 20
1419.5850680834
 30
0.0
 11
1412.0707266001
 21
1419.5850680834
 31
0.0
  0
LINE
  5
18F
  8
0
  6
CONTINUOUS
 62
     7
 10
1412.0707266001
 20
1419.5850680834
 30
0.0
 11
1412.0707266001
 21
1409.5850776202
 31
0.0
  0
LINE
  5
190
  8
0
  6
CONTINUOUS
 62
     7
 10
1408.8707022337
 20
1409.5850776202
 30
0.0
 11
1408.8707022337
 21
1419.5850680834
 31
0.0
  0
ARC
  5
191
  8
0
  6
CONTINUOUS
 62
     7
 10
1404.4707152513
 20
1402.18506589
 30
0.0
 40
7.600000000000136
 50
270.0
 51
0.0
  0
ARC
  5
192
  8
0
  6
CONTINUOUS
 62
     7
 10
1404.4707152513
 20
1402.18506589
 30
0.0
 40
4.400000000000091
 50
270.0
 51
0.0
  0
LINE
  5
193
  8
0
  6
CONTINUOUS
 62
     7
 10
1388.4707145361
 20
1394.5850919253
 30
0.0
 11
1388.4707145361
 21
1397.7850864894
 31
0.0
  0
LINE
  5
194
  8
0
  6
CONTINUOUS
 62
     7
 10
1396.4707009462
 20
1394.5850919253
 30
0.0
 11
1388.4707145361
 21
1394.5850919253
 31
0.0
  0
LINE
  5
195
  8
0
  6
CONTINUOUS
 62
     7
 10
1388.4707145361
 20
1397.7850864894
 30
0.0
 11
1396.4707009462
 21
1397.7850864894
 31
0.0
  0
LINE
  5
196
  8
0
  6
CONTINUOUS
 62
     7
 10
1411.4707164434
 20
1394.5850919253
 30
0.0
 11
1404.4707171587
 21
1394.5850919253
 31
0.0
  0
LINE
  5
197
  8
0
  6
CONTINUOUS
 62
     7
 10
1410.6674842504
 20
1397.7850864894
 30
0.0
 11
1411.4707164434
 21
1397.7850864894
 31
0.0
  0
LINE
  5
198
  8
0
  6
CONTINUOUS
 62
     7
 10
1421.0707299379
 20
1394.5850919253
 30
0.0
 11
1411.4707164434
 21
1394.5850919253
 31
0.0
  0
LINE
  5
199
  8
0
  6
CONTINUOUS
 62
     7
 10
1421.0707299379
 20
1397.7850864894
 30
0.0
 11
1411.4707164434
 21
1397.7850864894
 31
0.0
  0
LINE
  5
19A
  8
0
  6
CONTINUOUS
 62
     7
 10
1388.4707145361
 20
1402.185041762
 30
0.0
 11
1388.4707145361
 21
1397.7850864894
 31
0.0
  0
LINE
  5
19B
  8
0
  6
CONTINUOUS
 62
     7
 10
1388.4707145361
 20
1425.5850504405
 30
0.0
 11
1388.4707145361
 21
1402.185041762
 31
0.0
  0
ARC
  5
19C
  8
0
  6
CONTINUOUS
 62
     7
 10
1391.4707152513
 20
1425.58506589
 30
0.0
 40
3.000000000000227
 50
90.0
 51
180.0
  0
LINE
  5
19D
  8
0
  6
CONTINUOUS
 62
     7
 10
1421.0707299379
 20
1428.5850714213
 30
0.0
 11
1391.4707057146
 21
1428.5850714213
 31
0.0
  0
CIRCLE
  5
19E
  8
0
  6
CONTINUOUS
 62
     7
 10
1416.4707152513
 20
1406.58506589
 30
0.0
 40
2.100000000000136
  0
CIRCLE
  5
19F
  8
0
  6
CONTINUOUS
 62
     7
 10
1396.4707152513
 20
1406.58506589
 30
0.0
 40
2.099999999999909
  0
CIRCLE
  5
1A0
  8
0
  6
CONTINUOUS
 62
     7
 10
1399.4707152513
 20
1420.58506589
 30
0.0
 40
2.100000000000136
  0
LINE
  5
1A1
  8
0
  6
CONTINUOUS
 62
     7
 10
608.8707201151
 20
1409.5850776202
 30
0.0
 11
608.8707201151
 21
1419.5850680834
 31
0.0
  0
LINE
  5
1A2
  8
0
  6
CONTINUOUS
 62
     7
 10
608.8707201151
 20
1419.5850680834
 30
0.0
 11
612.0707146791
 21
1419.5850680834
 31
0.0
  0
LINE
  5
1A3
  8
0
  6
CONTINUOUS
 62
     7
 10
612.0707146791
 20
1419.5850680834
 30
0.0
 11
612.0707146791
 21
1409.5850776202
 31
0.0
  0
LINE
  5
1A4
  8
0
  6
CONTINUOUS
 62
     7
 10
591.8707005648
 20
1397.7850864894
 30
0.0
 11
596.4707188276
 21
1397.7850864894
 31
0.0
  0
LINE
  5
1A5
  8
0
  6
CONTINUOUS
 62
     7
 10
596.4707188276
 20
1394.5850919253
 30
0.0
 11
591.8707005648
 21
1394.5850919253
 31
0.0
  0
LINE
  5
1A6
  8
0
  6
CONTINUOUS
 62
     7
 10
604.4707052378
 20
1397.7850864894
 30
0.0
 11
596.4707188276
 21
1397.7850864894
 31
0.0
  0
LINE
  5
1A7
  8
0
  6
CONTINUOUS
 62
     7
 10
604.4707052378
 20
1394.5850919253
 30
0.0
 11
596.4707188276
 21
1394.5850919253
 31
0.0
  0
LINE
  5
1A8
  8
0
  6
CONTINUOUS
 62
     7
 10
608.8707201151
 20
1402.185041762
 30
0.0
 11
608.8707201151
 21
1409.5850776202
 31
0.0
  0
LINE
  5
1A9
  8
0
  6
CONTINUOUS
 62
     7
 10
612.0707146791
 20
1402.185041762
 30
0.0
 11
612.0707146791
 21
1409.5850776202
 31
0.0
  0
ARC
  5
1AA
  8
0
  6
CONTINUOUS
 62
     7
 10
604.4707152513
 20
1402.18506589
 30
0.0
 40
4.400000000000091
 50
270.0
 51
0.0
  0
ARC
  5
1AB
  8
0
  6
CONTINUOUS
 62
     7
 10
604.4707152513
 20
1402.18506589
 30
0.0
 40
7.600000000000023
 50
270.0
 51
0.0
  0
LINE
  5
1AC
  8
0
  6
CONTINUOUS
 62
     7
 10
610.6675021318
 20
1397.7850864894
 30
0.0
 11
611.4707045225
 21
1397.7850864894
 31
0.0
  0
LINE
  5
1AD
  8
0
  6
CONTINUOUS
 62
     7
 10
611.4707045225
 20
1394.5850919253
 30
0.0
 11
604.4707052378
 21
1394.5850919253
 31
0.0
  0
LINE
  5
1AE
  8
0
  6
CONTINUOUS
 62
     7
 10
624.4707159666
 20
1397.7850864894
 30
0.0
 11
624.4707159666
 21
1394.5850919253
 31
0.0
  0
LINE
  5
1AF
  8
0
  6
CONTINUOUS
 62
     7
 10
621.4707247881
 20
1397.7850864894
 30
0.0
 11
624.4707159666
 21
1397.7850864894
 31
0.0
  0
LINE
  5
1B0
  8
0
  6
CONTINUOUS
 62
     7
 10
624.4707159666
 20
1394.5850919253
 30
0.0
 11
621.4707247881
 21
1394.5850919253
 31
0.0
  0
LINE
  5
1B1
  8
0
  6
CONTINUOUS
 62
     7
 10
621.4707247881
 20
1397.7850864894
 30
0.0
 11
611.4707045225
 21
1397.7850864894
 31
0.0
  0
LINE
  5
1B2
  8
0
  6
CONTINUOUS
 62
     7
 10
621.4707247881
 20
1394.5850919253
 30
0.0
 11
611.4707045225
 21
1394.5850919253
 31
0.0
  0
LINE
  5
1B3
  8
0
  6
CONTINUOUS
 62
     7
 10
624.4707159666
 20
1402.185041762
 30
0.0
 11
624.4707159666
 21
1397.7850864894
 31
0.0
  0
ARC
  5
1B4
  8
0
  6
CONTINUOUS
 62
     7
 10
621.4707152513
 20
1425.58506589
 30
0.0
 40
3.000000000000227
 50
0.0
 51
90.0
  0
LINE
  5
1B5
  8
0
  6
CONTINUOUS
 62
     7
 10
624.4707159666
 20
1425.5850504405
 30
0.0
 11
624.4707159666
 21
1402.185041762
 31
0.0
  0
LINE
  5
1B6
  8
0
  6
CONTINUOUS
 62
     7
 10
621.4707247881
 20
1428.5850714213
 30
0.0
 11
591.8707005648
 21
1428.5850714213
 31
0.0
  0
CIRCLE
  5
1B7
  8
0
  6
CONTINUOUS
 62
     7
 10
616.4707152513
 20
1406.58506589
 30
0.0
 40
2.099999999999909
  0
CIRCLE
  5
1B8
  8
0
  6
CONTINUOUS
 62
     7
 10
596.4707152513
 20
1406.58506589
 30
0.0
 40
2.100000000000023
  0
CIRCLE
  5
1B9
  8
0
  6
CONTINUOUS
 62
     7
 10
599.4707152513
 20
1420.58506589
 30
0.0
 40
2.100000000000023
  0
LINE
  5
1BA
  8
0
  6
CONTINUOUS
 62
     7
 10
1421.0707299379
 20
1845.5850671298
 30
0.0
 11
591.8707005648
 21
1845.5850671298
 31
0.0
  0
CIRCLE
  5
1BB
  8
0
  6
CONTINUOUS
 62
     7
 10
599.4707152513
 20
1883.58506589
 30
0.0
 40
1.5
  0
CIRCLE
  5
1BC
  8
0
  6
CONTINUOUS
 62
     7
 10
613.4707152513
 20
1883.58506589
 30
0.0
 40
1.499999999999886
  0
CIRCLE
  5
1BD
  8
0
  6
CONTINUOUS
 62
     7
 10
616.4707152513
 20
1869.58506589
 30
0.0
 40
1.5
  0
CIRCLE
  5
1BE
  8
0
  6
CONTINUOUS
 62
     7
 10
599.4707152513
 20
1968.58506589
 30
0.0
 40
1.5
  0
CIRCLE
  5
1BF
  8
0
  6
CONTINUOUS
 62
     7
 10
1416.4707152513
 20
1869.58506589
 30
0.0
 40
1.500000000000227
  0
CIRCLE
  5
1C0
  8
0
  6
CONTINUOUS
 62
     7
 10
1413.4707152513
 20
1883.58506589
 30
0.0
 40
1.5
  0
CIRCLE
  5
1C1
  8
0
  6
CONTINUOUS
 62
     7
 10
1399.4707152513
 20
1883.58506589
 30
0.0
 40
1.5
  0
CIRCLE
  5
1C2
  8
0
  6
CONTINUOUS
 62
     7
 10
1416.4707152513
 20
1954.58506589
 30
0.0
 40
1.500000000000227
  0
CIRCLE
  5
1C3
  8
0
  6
CONTINUOUS
 62
     7
 10
596.4707152513
 20
1954.58506589
 30
0.0
 40
1.500000000000114
  0
CIRCLE
  5
1C4
  8
0
  6
CONTINUOUS
 62
     7
 10
1413.4707152513
 20
1968.58506589
 30
0.0
 40
1.5
  0
CIRCLE
  5
1C5
  8
0
  6
CONTINUOUS
 62
     7
 10
1399.4707152513
 20
1968.58506589
 30
0.0
 40
1.5
  0
CIRCLE
  5
1C6
  8
0
  6
CONTINUOUS
 62
     7
 10
613.4707152513
 20
1968.58506589
 30
0.0
 40
1.499999999999886
  0
CIRCLE
  5
1C7
  8
0
  6
CONTINUOUS
 62
     7
 10
1396.4707152513
 20
1869.58506589
 30
0.0
 40
1.500000000000227
  0
CIRCLE
  5
1C8
  8
0
  6
CONTINUOUS
 62
     7
 10
596.4707152513
 20
1869.58506589
 30
0.0
 40
1.500000000000114
  0
CIRCLE
  5
1C9
  8
0
  6
CONTINUOUS
 62
     7
 10
616.4707152513
 20
1954.58506589
 30
0.0
 40
1.5
  0
CIRCLE
  5
1CA
  8
0
  6
CONTINUOUS
 62
     7
 10
1396.4707152513
 20
1954.58506589
 30
0.0
 40
1.500000000000227
  0
LINE
  5
1CB
  8
0
  6
CONTINUOUS
 62
     7
 10
1421.0707299379
 20
1981.5850447184
 30
0.0
 11
591.8707005648
 21
1981.5850447184
 31
0.0
  0
ARC
  5
1CC
  8
0
  6
CONTINUOUS
 62
     7
 10
588.4707152513
 20
1833.58506589
 30
0.0
 40
3.999999999999964
 50
328.211669383
 51
31.788330617
  0
CIRCLE
  5
1CD
  8
0
  6
CONTINUOUS
 62
     7
 10
800.2707152513
 20
1833.58506589
 30
0.0
 40
4.0
  0
CIRCLE
  5
1CE
  8
0
  6
CONTINUOUS
 62
     7
 10
758.2707152513
 20
1833.58506589
 30
0.0
 40
4.0
  0
LINE
  5
1CF
  8
0
  6
CONTINUOUS
 62
     7
 10
1421.0707299379
 20
1822.3350833422
 30
0.0
 11
591.8707005648
 21
1822.3350833422
 31
0.0
  0
ARC
  5
1D0
  8
0
  6
CONTINUOUS
 62
     7
 10
1424.4707152513
 20
1833.58506589
 30
0.0
 40
3.999999999999868
 50
148.211669383
 51
211.788330617
  0
CIRCLE
  5
1D1
  8
0
  6
CONTINUOUS
 62
     7
 10
1212.6707152513
 20
1833.58506589
 30
0.0
 40
4.0
  0
CIRCLE
  5
1D2
  8
0
  6
CONTINUOUS
 62
     7
 10
1254.6707152513
 20
1833.58506589
 30
0.0
 40
4.0
  0
LINE
  5
1D3
  8
0
  6
CONTINUOUS
 62
     7
 10
1421.0707299379
 20
2004.835028506
 30
0.0
 11
591.8707005648
 21
2004.835028506
 31
0.0
  0
ARC
  5
1D4
  8
0
  6
CONTINUOUS
 62
     7
 10
1424.4707152513
 20
1993.58506589
 30
0.0
 40
3.999999999999868
 50
148.211669383
 51
211.788330617
  0
ARC
  5
1D5
  8
0
  6
CONTINUOUS
 62
     7
 10
588.4707152513
 20
1993.58506589
 30
0.0
 40
3.999999999999964
 50
328.211669383
 51
31.788330617
  0
LINE
  5
1D6
  8
0
  6
CONTINUOUS
 62
     7
 10
1421.0707299379
 20
1382.5850676066
 30
0.0
 11
591.8707005648
 21
1382.5850676066
 31
0.0
  0
CIRCLE
  5
1D7
  8
0
  6
CONTINUOUS
 62
     7
 10
616.4707152513
 20
1491.58506589
 30
0.0
 40
1.5
  0
CIRCLE
  5
1D8
  8
0
  6
CONTINUOUS
 62
     7
 10
1416.4707152513
 20
1406.58506589
 30
0.0
 40
1.500000000000227
  0
CIRCLE
  5
1D9
  8
0
  6
CONTINUOUS
 62
     7
 10
599.4707152513
 20
1505.58506589
 30
0.0
 40
1.5
  0
CIRCLE
  5
1DA
  8
0
  6
CONTINUOUS
 62
     7
 10
1399.4707152513
 20
1505.58506589
 30
0.0
 40
1.5
  0
CIRCLE
  5
1DB
  8
0
  6
CONTINUOUS
 62
     7
 10
1396.4707152513
 20
1491.58506589
 30
0.0
 40
1.500000000000227
  0
CIRCLE
  5
1DC
  8
0
  6
CONTINUOUS
 62
     7
 10
596.4707152513
 20
1406.58506589
 30
0.0
 40
1.500000000000114
  0
CIRCLE
  5
1DD
  8
0
  6
CONTINUOUS
 62
     7
 10
1399.4707152513
 20
1420.58506589
 30
0.0
 40
1.5
  0
CIRCLE
  5
1DE
  8
0
  6
CONTINUOUS
 62
     7
 10
1396.4707152513
 20
1406.58506589
 30
0.0
 40
1.500000000000227
  0
CIRCLE
  5
1DF
  8
0
  6
CONTINUOUS
 62
     7
 10
596.4707152513
 20
1491.58506589
 30
0.0
 40
1.500000000000114
  0
CIRCLE
  5
1E0
  8
0
  6
CONTINUOUS
 62
     7
 10
1416.4707152513
 20
1491.58506589
 30
0.0
 40
1.500000000000227
  0
CIRCLE
  5
1E1
  8
0
  6
CONTINUOUS
 62
     7
 10
599.4707152513
 20
1420.58506589
 30
0.0
 40
1.5
  0
CIRCLE
  5
1E2
  8
0
  6
CONTINUOUS
 62
     7
 10
1413.4707152513
 20
1505.58506589
 30
0.0
 40
1.5
  0
CIRCLE
  5
1E3
  8
0
  6
CONTINUOUS
 62
     7
 10
616.4707152513
 20
1406.58506589
 30
0.0
 40
1.5
  0
CIRCLE
  5
1E4
  8
0
  6
CONTINUOUS
 62
     7
 10
613.4707152513
 20
1505.58506589
 30
0.0
 40
1.499999999999886
  0
LINE
  5
1E5
  8
0
  6
CONTINUOUS
 62
     7
 10
1421.0707299379
 20
1518.5850451953
 30
0.0
 11
591.8707005648
 21
1518.5850451953
 31
0.0
  0
LINE
  5
1E6
  8
0
  6
CONTINUOUS
 62
     7
 10
1421.0707299379
 20
1541.8350885874
 30
0.0
 11
591.8707005648
 21
1541.8350885874
 31
0.0
  0
ARC
  5
1E7
  8
0
  6
CONTINUOUS
 62
     7
 10
1424.4707152513
 20
1530.58506589
 30
0.0
 40
4.000000000000107
 50
148.2116693829
 51
211.788330617
  0
ARC
  5
1E8
  8
0
  6
CONTINUOUS
 62
     7
 10
588.4707152513
 20
1530.58506589
 30
0.0
 40
4.000000000000203
 50
328.211669383
 51
31.7883306171
  0
ARC
  5
1E9
  8
0
  6
CONTINUOUS
 62
     7
 10
588.4707152513
 20
1370.58506589
 30
0.0
 40
4.000000000000083
 50
328.211669383
 51
31.788330617
  0
CIRCLE
  5
1EA
  8
0
  6
CONTINUOUS
 62
     7
 10
1212.6707152513
 20
1370.58506589
 30
0.0
 40
4.0
  0
CIRCLE
  5
1EB
  8
0
  6
CONTINUOUS
 62
     7
 10
1254.6707152513
 20
1370.58506589
 30
0.0
 40
4.0
  0
CIRCLE
  5
1EC
  8
0
  6
CONTINUOUS
 62
     7
 10
800.2707152513
 20
1370.58506589
 30
0.0
 40
4.0
  0
CIRCLE
  5
1ED
  8
0
  6
CONTINUOUS
 62
     7
 10
758.2707152513
 20
1370.58506589
 30
0.0
 40
4.0
  0
LINE
  5
1EE
  8
0
  6
CONTINUOUS
 62
     7
 10
1421.0707299379
 20
1359.3350540167
 30
0.0
 11
591.8707005648
 21
1359.3350540167
 31
0.0
  0
ARC
  5
1EF
  8
0
  6
CONTINUOUS
 62
     7
 10
1424.4707152513
 20
1370.58506589
 30
0.0
 40
3.999999999999988
 50
148.211669383
 51
211.788330617
  0
LINE
  5
1F0
  8
0
  6
CONTINUOUS
 62
     7
 10
1402.27070972
 20
889.185065941
 30
0.0
 11
1402.27070972
 21
886.88506589
 31
0.0
  0
LINE
  5
1F1
  8
0
  6
CONTINUOUS
 62
     7
 10
1407.2707049517
 20
889.185065941
 30
0.0
 11
1402.27070972
 21
889.185065941
 31
0.0
  0
LINE
  5
1F2
  8
0
  6
CONTINUOUS
 62
     7
 10
1407.2707049517
 20
886.88506589
 30
0.0
 11
1407.2707049517
 21
889.185065941
 31
0.0
  0
LINE
  5
1F3
  8
0
  6
CONTINUOUS
 62
     7
 10
1402.27070972
 20
886.88506589
 30
0.0
 11
1407.2707049517
 21
886.88506589
 31
0.0
  0
LINE
  5
1F4
  8
0
  6
CONTINUOUS
 62
     7
 10
1454.3707124857
 20
911.8850662625
 30
0.0
 11
1452.0707182554
 21
911.8850662625
 31
0.0
  0
LINE
  5
1F5
  8
0
  6
CONTINUOUS
 62
     7
 10
1454.3707124857
 20
906.885065443
 30
0.0
 11
1454.3707124857
 21
911.8850662625
 31
0.0
  0
LINE
  5
1F6
  8
0
  6
CONTINUOUS
 62
     7
 10
1452.0707182554
 20
906.885065443
 30
0.0
 11
1454.3707124857
 21
906.885065443
 31
0.0
  0
LINE
  5
1F7
  8
0
  6
CONTINUOUS
 62
     7
 10
1452.0707182554
 20
911.8850662625
 30
0.0
 11
1452.0707182554
 21
906.885065443
 31
0.0
  0
ARC
  5
1F8
  8
0
  6
CONTINUOUS
 62
     7
 10
1449.2707152513
 20
891.98506589
 30
0.0
 40
2.800000000000182
 50
270.0
 51
0.0
  0
ARC
  5
1F9
  8
0
  6
CONTINUOUS
 62
     7
 10
1449.2707152513
 20
891.98506589
 30
0.0
 40
5.100000000000136
 50
270.0
 51
0.0
  0
LINE
  5
1FA
  8
0
  6
CONTINUOUS
 62
     7
 10
1449.2707006601
 20
889.185065941
 30
0.0
 11
1407.2707049517
 21
889.185065941
 31
0.0
  0
LINE
  5
1FB
  8
0
  6
CONTINUOUS
 62
     7
 10
1449.2707006601
 20
886.88506589
 30
0.0
 11
1407.2707049517
 21
886.88506589
 31
0.0
  0
LINE
  5
1FC
  8
0
  6
CONTINUOUS
 62
     7
 10
1454.3707124857
 20
891.985066074
 30
0.0
 11
1454.3707124857
 21
906.885065443
 31
0.0
  0
LINE
  5
1FD
  8
0
  6
CONTINUOUS
 62
     7
 10
1452.0707182554
 20
891.985066074
 30
0.0
 11
1452.0707182554
 21
906.885065443
 31
0.0
  0
LINE
  5
1FE
  8
0
  6
CONTINUOUS
 62
     7
 10
1397.1707276968
 20
896.8850656665
 30
0.0
 11
1399.4707219271
 21
896.8850656665
 31
0.0
  0
LINE
  5
1FF
  8
0
  6
CONTINUOUS
 62
     7
 10
1399.4707219271
 20
896.8850656665
 30
0.0
 11
1399.4707219271
 21
891.985066074
 31
0.0
  0
ARC
  5
200
  8
0
  6
CONTINUOUS
 62
     7
 10
1402.2707152513
 20
891.98506589
 30
0.0
 40
5.100000000000136
 50
180.0
 51
270.0
  0
LINE
  5
201
  8
0
  6
CONTINUOUS
 62
     7
 10
1397.1707276968
 20
891.985066074
 30
0.0
 11
1397.1707276968
 21
896.8850656665
 31
0.0
  0
ARC
  5
202
  8
0
  6
CONTINUOUS
 62
     7
 10
1402.2707152513
 20
891.98506589
 30
0.0
 40
2.799999999999955
 50
180.0
 51
270.0
  0
LINE
  5
203
  8
0
  6
CONTINUOUS
 62
     7
 10
1397.1707276968
 20
901.8850655547
 30
0.0
 11
1397.1707276968
 21
896.8850656665
 31
0.0
  0
LINE
  5
204
  8
0
  6
CONTINUOUS
 62
     7
 10
1399.4707219271
 20
901.8850655547
 30
0.0
 11
1397.1707276968
 21
901.8850655547
 31
0.0
  0
LINE
  5
205
  8
0
  6
CONTINUOUS
 62
     7
 10
1399.4707219271
 20
896.8850656665
 30
0.0
 11
1399.4707219271
 21
901.8850655547
 31
0.0
  0
LINE
  5
206
  8
0
  6
CONTINUOUS
 62
     7
 10
1397.1707276968
 20
906.885065443
 30
0.0
 11
1399.4707219271
 21
906.885065443
 31
0.0
  0
LINE
  5
207
  8
0
  6
CONTINUOUS
 62
     7
 10
1399.4707219271
 20
906.885065443
 30
0.0
 11
1399.4707219271
 21
901.8850655547
 31
0.0
  0
LINE
  5
208
  8
0
  6
CONTINUOUS
 62
     7
 10
1397.1707276968
 20
901.8850655547
 30
0.0
 11
1397.1707276968
 21
906.885065443
 31
0.0
  0
LINE
  5
209
  8
0
  6
CONTINUOUS
 62
     7
 10
1399.4707219271
 20
911.8850662625
 30
0.0
 11
1397.1707276968
 21
911.8850662625
 31
0.0
  0
LINE
  5
20A
  8
0
  6
CONTINUOUS
 62
     7
 10
1399.4707219271
 20
906.885065443
 30
0.0
 11
1399.4707219271
 21
911.8850662625
 31
0.0
  0
LINE
  5
20B
  8
0
  6
CONTINUOUS
 62
     7
 10
1397.1707276968
 20
911.8850662625
 30
0.0
 11
1397.1707276968
 21
906.885065443
 31
0.0
  0
LINE
  5
20C
  8
0
  6
CONTINUOUS
 62
     7
 10
560.8707122473
 20
906.885065443
 30
0.0
 11
558.570718017
 21
906.885065443
 31
0.0
  0
LINE
  5
20D
  8
0
  6
CONTINUOUS
 62
     7
 10
558.570718017
 20
906.885065443
 30
0.0
 11
558.570718017
 21
911.8850662625
 31
0.0
  0
LINE
  5
20E
  8
0
  6
CONTINUOUS
 62
     7
 10
558.570718017
 20
911.8850662625
 30
0.0
 11
560.8707122473
 21
911.8850662625
 31
0.0
  0
LINE
  5
20F
  8
0
  6
CONTINUOUS
 62
     7
 10
560.8707122473
 20
911.8850662625
 30
0.0
 11
560.8707122473
 21
906.885065443
 31
0.0
  0
LINE
  5
210
  8
0
  6
CONTINUOUS
 62
     7
 10
605.670725551
 20
886.88506589
 30
0.0
 11
605.670725551
 21
889.185065941
 31
0.0
  0
LINE
  5
211
  8
0
  6
CONTINUOUS
 62
     7
 10
610.6707207826
 20
889.185065941
 30
0.0
 11
610.6707207826
 21
886.88506589
 31
0.0
  0
LINE
  5
212
  8
0
  6
CONTINUOUS
 62
     7
 10
610.6707207826
 20
886.88506589
 30
0.0
 11
605.670725551
 21
886.88506589
 31
0.0
  0
LINE
  5
213
  8
0
  6
CONTINUOUS
 62
     7
 10
605.670725551
 20
889.185065941
 30
0.0
 11
610.6707207826
 21
889.185065941
 31
0.0
  0
LINE
  5
214
  8
0
  6
CONTINUOUS
 62
     7
 10
558.570718017
 20
891.985066074
 30
0.0
 11
558.570718017
 21
906.885065443
 31
0.0
  0
LINE
  5
215
  8
0
  6
CONTINUOUS
 62
     7
 10
560.8707122473
 20
891.985066074
 30
0.0
 11
560.8707122473
 21
906.885065443
 31
0.0
  0
ARC
  5
216
  8
0
  6
CONTINUOUS
 62
     7
 10
563.6707152513
 20
891.98506589
 30
0.0
 40
5.099999999999909
 50
180.0
 51
270.0
  0
ARC
  5
217
  8
0
  6
CONTINUOUS
 62
     7
 10
563.6707152513
 20
891.98506589
 30
0.0
 40
2.799999999999955
 50
180.0
 51
270.0
  0
LINE
  5
218
  8
0
  6
CONTINUOUS
 62
     7
 10
563.6707298426
 20
886.88506589
 30
0.0
 11
605.670725551
 21
886.88506589
 31
0.0
  0
LINE
  5
219
  8
0
  6
CONTINUOUS
 62
     7
 10
563.6707298426
 20
889.185065941
 30
0.0
 11
605.670725551
 21
889.185065941
 31
0.0
  0
LINE
  5
21A
  8
0
  6
CONTINUOUS
 62
     7
 10
613.4707085756
 20
901.8850655547
 30
0.0
 11
615.7707028059
 21
901.8850655547
 31
0.0
  0
LINE
  5
21B
  8
0
  6
CONTINUOUS
 62
     7
 10
615.7707028059
 20
901.8850655547
 30
0.0
 11
615.7707028059
 21
896.8850656665
 31
0.0
  0
LINE
  5
21C
  8
0
  6
CONTINUOUS
 62
     7
 10
615.7707028059
 20
896.8850656665
 30
0.0
 11
613.4707085756
 21
896.8850656665
 31
0.0
  0
LINE
  5
21D
  8
0
  6
CONTINUOUS
 62
     7
 10
613.4707085756
 20
896.8850656665
 30
0.0
 11
613.4707085756
 21
901.8850655547
 31
0.0
  0
LINE
  5
21E
  8
0
  6
CONTINUOUS
 62
     7
 10
613.4707085756
 20
896.8850656665
 30
0.0
 11
613.4707085756
 21
891.985066074
 31
0.0
  0
LINE
  5
21F
  8
0
  6
CONTINUOUS
 62
     7
 10
615.7707028059
 20
891.985066074
 30
0.0
 11
615.7707028059
 21
896.8850656665
 31
0.0
  0
ARC
  5
220
  8
0
  6
CONTINUOUS
 62
     7
 10
610.6707152513
 20
891.98506589
 30
0.0
 40
5.100000000000023
 50
270.0
 51
0.0
  0
ARC
  5
221
  8
0
  6
CONTINUOUS
 62
     7
 10
610.6707152513
 20
891.98506589
 30
0.0
 40
2.799999999999955
 50
270.0
 51
0.0
  0
LINE
  5
222
  8
0
  6
CONTINUOUS
 62
     7
 10
615.7707028059
 20
906.885065443
 30
0.0
 11
613.4707085756
 21
906.885065443
 31
0.0
  0
LINE
  5
223
  8
0
  6
CONTINUOUS
 62
     7
 10
613.4707085756
 20
906.885065443
 30
0.0
 11
613.4707085756
 21
901.8850655547
 31
0.0
  0
LINE
  5
224
  8
0
  6
CONTINUOUS
 62
     7
 10
615.7707028059
 20
901.8850655547
 30
0.0
 11
615.7707028059
 21
906.885065443
 31
0.0
  0
LINE
  5
225
  8
0
  6
CONTINUOUS
 62
     7
 10
613.4707085756
 20
911.8850662625
 30
0.0
 11
615.7707028059
 21
911.8850662625
 31
0.0
  0
LINE
  5
226
  8
0
  6
CONTINUOUS
 62
     7
 10
613.4707085756
 20
906.885065443
 30
0.0
 11
613.4707085756
 21
911.8850662625
 31
0.0
  0
LINE
  5
227
  8
0
  6
CONTINUOUS
 62
     7
 10
615.7707028059
 20
911.8850662625
 30
0.0
 11
615.7707028059
 21
906.885065443
 31
0.0
  0
LINE
  5
228
  8
0
  6
CONTINUOUS
 62
     8
 10
1447.4707297949
 20
2183.3560656077
 30
0.0
 11
1447.4707297949
 21
893.5850656844
 31
0.0
  0
LINE
  5
229
  8
0
  6
CONTINUOUS
 62
     8
 10
1424.6707014707
 20
2183.3560656077
 30
0.0
 11
1424.6707014707
 21
893.5850656844
 31
0.0
  0
LINE
  5
22A
  8
0
  6
CONTINUOUS
 62
     8
 10
1403.0707232622
 20
2183.3560656077
 30
0.0
 11
1403.0707232622
 21
2006.5850208766
 31
0.0
  0
LINE
  5
22B
  8
0
  6
CONTINUOUS
 62
     8
 10
1403.0707232622
 20
1357.5850616461
 30
0.0
 11
1403.0707232622
 21
893.5850656844
 31
0.0
  0
LINE
  5
22C
  8
0
  6
CONTINUOUS
 62
     8
 10
1403.0707232622
 20
1820.5850909716
 30
0.0
 11
1403.0707232622
 21
1543.585080958
 31
0.0
  0
LINE
  5
22D
  8
0
  6
CONTINUOUS
 62
     8
 10
565.4707007078
 20
2183.3560656077
 30
0.0
 11
565.4707007078
 21
893.5850656844
 31
0.0
  0
LINE
  5
22E
  8
0
  6
CONTINUOUS
 62
     8
 10
588.2707290319
 20
2183.3560656077
 30
0.0
 11
588.2707290319
 21
893.5850656844
 31
0.0
  0
LINE
  5
22F
  8
0
  6
CONTINUOUS
 62
     8
 10
609.8707072405
 20
2183.3560656077
 30
0.0
 11
609.8707072405
 21
2006.5850208766
 31
0.0
  0
LINE
  5
230
  8
0
  6
CONTINUOUS
 62
     8
 10
609.8707072405
 20
1357.5850616461
 30
0.0
 11
609.8707072405
 21
893.5850656844
 31
0.0
  0
LINE
  5
231
  8
0
  6
CONTINUOUS
 62
     8
 10
609.8707072405
 20
1820.5850909716
 30
0.0
 11
609.8707072405
 21
1543.585080958
 31
0.0
  0
LINE
  5
232
  8
0
  6
CONTINUOUS
 62
     8
 10
1449.8707108168
 20
2213.5254333979
 30
0.0
 11
563.0707196859
 21
2213.5254333979
 31
0.0
  0
LINE
  5
233
  8
0
  6
CONTINUOUS
 62
     8
 10
1451.7999939588
 20
2209.3550156123
 30
0.0
 11
561.1414365438
 21
2209.3550156123
 31
0.0
  0
LINE
  5
234
  8
0
  6
CONTINUOUS
 62
     8
 10
563.0707196859
 20
2288.6803339488
 30
0.0
 11
563.0707196859
 21
2213.5254333979
 31
0.0
  0
LINE
  5
235
  8
0
  6
CONTINUOUS
 62
     8
 10
1449.8707108168
 20
2288.6803339488
 30
0.0
 11
1449.8707108168
 21
2213.5254333979
 31
0.0
  0
LINE
  5
236
  8
0
  6
CONTINUOUS
 62
     8
 10
1449.8707108168
 20
2288.6803339488
 30
0.0
 11
563.0707196859
 21
2288.6803339488
 31
0.0
  0
LINE
  5
237
  8
0
  6
CONTINUOUS
 62
     8
 10
1408.8707022337
 20
1402.185041762
 30
0.0
 11
1412.0707266001
 21
1402.185041762
 31
0.0
  0
LINE
  5
238
  8
0
  6
CONTINUOUS
 62
     8
 10
1412.0707266001
 20
1409.5850776202
 30
0.0
 11
1408.8707022337
 21
1409.5850776202
 31
0.0
  0
LINE
  5
239
  8
0
  6
CONTINUOUS
 62
     8
 10
1404.4707171587
 20
1394.5850919253
 30
0.0
 11
1404.4707171587
 21
1397.7850864894
 31
0.0
  0
LINE
  5
23A
  8
0
  6
CONTINUOUS
 62
     8
 10
1396.4707009462
 20
1397.7850864894
 30
0.0
 11
1396.4707009462
 21
1394.5850919253
 31
0.0
  0
LINE
  5
23B
  8
0
  6
CONTINUOUS
 62
     8
 10
1411.4707164434
 20
1397.7850864894
 30
0.0
 11
1411.4707164434
 21
1394.5850919253
 31
0.0
  0
LINE
  5
23C
  8
0
  6
CONTINUOUS
 62
     8
 10
1421.0707299379
 20
1402.185041762
 30
0.0
 11
1412.0707266001
 21
1402.185041762
 31
0.0
  0
LINE
  5
23D
  8
0
  6
CONTINUOUS
 62
     8
 10
1408.8707022337
 20
1402.185041762
 30
0.0
 11
1388.4707145361
 21
1402.185041762
 31
0.0
  0
LINE
  5
23E
  8
0
  6
CONTINUOUS
 62
     8
 10
612.0707146791
 20
1409.5850776202
 30
0.0
 11
608.8707201151
 21
1409.5850776202
 31
0.0
  0
LINE
  5
23F
  8
0
  6
CONTINUOUS
 62
     8
 10
596.4707188276
 20
1397.7850864894
 30
0.0
 11
596.4707188276
 21
1394.5850919253
 31
0.0
  0
LINE
  5
240
  8
0
  6
CONTINUOUS
 62
     8
 10
604.4707052378
 20
1394.5850919253
 30
0.0
 11
604.4707052378
 21
1397.7850864894
 31
0.0
  0
LINE
  5
241
  8
0
  6
CONTINUOUS
 62
     8
 10
608.8707201151
 20
1402.185041762
 30
0.0
 11
612.0707146791
 21
1402.185041762
 31
0.0
  0
LINE
  5
242
  8
0
  6
CONTINUOUS
 62
     8
 10
611.4707045225
 20
1397.7850864894
 30
0.0
 11
611.4707045225
 21
1394.5850919253
 31
0.0
  0
LINE
  5
243
  8
0
  6
CONTINUOUS
 62
     8
 10
621.4707247881
 20
1394.5850919253
 30
0.0
 11
621.4707247881
 21
1397.7850864894
 31
0.0
  0
LINE
  5
244
  8
0
  6
CONTINUOUS
 62
     8
 10
624.4707159666
 20
1402.185041762
 30
0.0
 11
612.0707146791
 21
1402.185041762
 31
0.0
  0
LINE
  5
245
  8
0
  6
CONTINUOUS
 62
     8
 10
608.8707201151
 20
1402.185041762
 30
0.0
 11
591.8707005648
 21
1402.185041762
 31
0.0
  0
LINE
  5
246
  8
0
  6
CONTINUOUS
 62
     8
 10
1421.0707299379
 20
1850.8850525385
 30
0.0
 11
591.8707005648
 21
1850.8850525385
 31
0.0
  0
LINE
  5
247
  8
0
  6
CONTINUOUS
 62
     8
 10
1421.0707299379
 20
1976.2851189143
 30
0.0
 11
591.8707005648
 21
1976.2851189143
 31
0.0
  0
LINE
  5
248
  8
0
  6
CONTINUOUS
 62
     8
 10
1421.0707299379
 20
1985.6850098139
 30
0.0
 11
591.8707005648
 21
1985.6850098139
 31
0.0
  0
LINE
  5
249
  8
0
  6
CONTINUOUS
 62
     8
 10
1421.0707299379
 20
1841.4850424296
 30
0.0
 11
591.8707005648
 21
1841.4850424296
 31
0.0
  0
LINE
  5
24A
  8
0
  6
CONTINUOUS
 62
     8
 10
1421.0707299379
 20
1387.8850530154
 30
0.0
 11
591.8707005648
 21
1387.8850530154
 31
0.0
  0
LINE
  5
24B
  8
0
  6
CONTINUOUS
 62
     8
 10
1421.0707299379
 20
1513.2850597865
 30
0.0
 11
591.8707005648
 21
1513.2850597865
 31
0.0
  0
LINE
  5
24C
  8
0
  6
CONTINUOUS
 62
     8
 10
1421.0707299379
 20
1522.6850698954
 30
0.0
 11
591.8707005648
 21
1522.6850698954
 31
0.0
  0
LINE
  5
24D
  8
0
  6
CONTINUOUS
 62
     8
 10
1421.0707299379
 20
1378.4850727088
 30
0.0
 11
591.8707005648
 21
1378.4850727088
 31
0.0
  0
LINE
  5
24E
  8
0
  6
CONTINUOUS
 62
     8
 10
1452.0707182554
 20
891.985066074
 30
0.0
 11
1454.3707124857
 21
891.985066074
 31
0.0
  0
LINE
  5
24F
  8
0
  6
CONTINUOUS
 62
     8
 10
1449.2707006601
 20
886.88506589
 30
0.0
 11
1449.2707006601
 21
889.185065941
 31
0.0
  0
LINE
  5
250
  8
0
  6
CONTINUOUS
 62
     8
 10
560.8707122473
 20
891.985066074
 30
0.0
 11
558.570718017
 21
891.985066074
 31
0.0
  0
LINE
  5
251
  8
0
  6
CONTINUOUS
 62
     8
 10
563.6707298426
 20
886.88506589
 30
0.0
 11
563.6707298426
 21
889.185065941
 31
0.0
  0
DIMENSION
  5
252
  8
細線
  2
_D
 10
1453.4707152513
 20
2360.9721381914
 30
0.0
 11
979.6026208536
 21
2360.9721381914
 31
0.0
 70
   160
  1
<>
  3
SLDDIMSTYLE0
 13
559.4707152513
 23
2285.470089755
 33
0.0
 14
1453.4707152513
 24
2285.470089755
 34
0.0
 50
0.0
  0
DIMENSION
  5
263
  8
細線
  2
_D_1
 10
1454.3707152513
 20
816.8087363393
 30
0.0
 11
999.202190001
 21
816.8087363393
 31
0.0
 70
   160
  1
<>
  3
SLDDIMSTYLE0
 13
558.5707152513
 23
891.98506589
 33
0.0
 14
1454.3707152513
 24
891.98506589
 34
0.0
  0
INSERT
  5
274
  8
細線
  2
SW_NOTE_9
 10
1454.3707152513
 20
903.4434544708
 30
0.0
  0
INSERT
  5
27C
  8
細線
  2
SW_NOTE_10
 10
558.5707152513
 20
903.7175953529
 30
0.0
  0
INSERT
  5
289
  8
細線
  2
SW_NOTE_11
 10
914.082601957
 20
1479.5171420511
 30
0.0
  0
INSERT
  5
291
  8
細線
  2
SW_NOTE_12
 10
624.4707152513
 20
1417.059112235
 30
0.0
  0
INSERT
  5
299
  8
細線
  2
SW_NOTE_13
 10
752.9600056072
 20
2209.3550074463
 30
0.0
  0
INSERT
  5
2A1
  8
細線
  2
SW_NOTE_14
 10
905.4816055515
 20
2241.0184613333
 30
0.0
  0
LINE
  5
2A2
  8
0
  6
CONTINUOUS
 62
     7
 10
2240.8055772715
 20
2258.7500999934
 30
0.0
 11
2240.8055772715
 21
906.885065443
 31
0.0
  0
ARC
  5
2A3
  8
0
  6
CONTINUOUS
 62
     7
 10
1906.6055845433
 20
2211.98506589
 30
0.0
 40
4.000000000000242
 50
298.4059848155
 51
117.4092833051
  0
LINE
  5
2A4
  8
0
  6
CONTINUOUS
 62
     7
 10
1999.082457059
 20
2215.7732437617
 30
0.0
 11
1999.0218167835
 21
2216.117162562
 31
0.0
  0
LINE
  5
2A5
  8
0
  6
CONTINUOUS
 62
     7
 10
2049.3076516026
 20
2224.6293018824
 30
0.0
 11
1999.082457059
 21
2215.7732437617
 31
0.0
  0
LINE
  5
2A6
  8
0
  6
CONTINUOUS
 62
     7
 10
2049.2470113271
 20
2224.9732206828
 30
0.0
 11
2049.3076516026
 21
2224.6293018824
 31
0.0
  0
ARC
  5
2A7
  8
0
  6
CONTINUOUS
 62
     7
 10
1981.7984960075
 20
2118.2909467161
 30
0.0
 40
20.00000000000043
 50
100.0
 51
204.6784762568
  0
LINE
  5
2A8
  8
0
  6
CONTINUOUS
 62
     7
 10
2142.6322793299
 20
1720.3656624323
 30
0.0
 11
1963.625192427
 21
2109.9404285914
 31
0.0
  0
ARC
  5
2A9
  8
0
  6
CONTINUOUS
 62
     7
 10
2160.8055845433
 20
1728.7161945795
 30
0.0
 40
20.00000000000018
 50
204.6784762568
 51
0.0
  0
LINE
  5
2AA
  8
0
  6
CONTINUOUS
 62
     7
 10
2180.8055897885
 20
2149.8546789652
 30
0.0
 11
2180.8055897885
 21
1728.7162135607
 31
0.0
  0
ARC
  5
2AB
  8
0
  6
CONTINUOUS
 62
     7
 10
2160.8055845433
 20
2149.854726163
 30
0.0
 40
20.0
 50
0.0
 51
100.0
  0
LINE
  5
2AC
  8
0
  6
CONTINUOUS
 62
     7
 10
1978.3255306714
 20
2137.9871557719
 30
0.0
 11
2157.3326250249
 21
2169.550914622
 31
0.0
  0
ARC
  5
2AD
  8
0
  6
CONTINUOUS
 62
     7
 10
1987.266871484
 20
993.58506589
 30
0.0
 40
20.0
 50
150.2584483819
 51
270.0
  0
LINE
  5
2AE
  8
0
  6
CONTINUOUS
 62
     7
 10
2160.8055790597
 20
973.5850657589
 30
0.0
 11
1987.266871863
 21
973.5850657589
 31
0.0
  0
ARC
  5
2AF
  8
0
  6
CONTINUOUS
 62
     7
 10
2160.8055845433
 20
993.58506589
 30
0.0
 40
20.0
 50
270.0
 51
0.0
  0
LINE
  5
2B0
  8
0
  6
CONTINUOUS
 62
     7
 10
2180.8055897885
 20
1297.3187755114
 30
0.0
 11
2180.8055897885
 21
993.5850690371
 31
0.0
  0
ARC
  5
2B1
  8
0
  6
CONTINUOUS
 62
     7
 10
2160.8055845433
 20
1297.3187882408
 30
0.0
 40
20.0
 50
0.0
 51
150.2584483819
  0
LINE
  5
2B2
  8
0
  6
CONTINUOUS
 62
     7
 10
1969.9014311367
 20
1003.5068358547
 30
0.0
 11
2143.440145784
 21
1307.2405646807
 31
0.0
  0
ARC
  5
2B3
  8
0
  6
CONTINUOUS
 62
     7
 10
1972.8055845433
 20
1898.3561177238
 30
0.0
 40
20.0
 50
24.6784762568
 51
180.0
  0
LINE
  5
2B4
  8
0
  6
CONTINUOUS
 62
     7
 10
1952.8055822187
 20
1169.851351834
 30
0.0
 11
1952.8055822187
 21
1898.3560989863
 31
0.0
  0
ARC
  5
2B5
  8
0
  6
CONTINUOUS
 62
     7
 10
1972.8055845433
 20
1169.8513435392
 30
0.0
 40
20.00000000000021
 50
180.0
 51
330.2584483819
  0
LINE
  5
2B6
  8
0
  6
CONTINUOUS
 62
     7
 10
2175.7042964631
 20
1484.656591273
 30
0.0
 11
1990.171022498
 21
1159.9295626647
 31
0.0
  0
ARC
  5
2B7
  8
0
  6
CONTINUOUS
 62
     7
 10
2158.3388558219
 20
1494.5783748276
 30
0.0
 40
19.99999999999996
 50
330.2584483819
 51
24.6784762568
  0
LINE
  5
2B8
  8
0
  6
CONTINUOUS
 62
     7
 10
1990.9788852268
 20
1906.70659051
 30
0.0
 11
2176.5121629172
 21
1502.928871966
 31
0.0
  0
LINE
  5
2B9
  8
0
  6
CONTINUOUS
 62
     7
 10
1892.8055872851
 20
2197.38831029
 30
0.0
 11
1892.8055872851
 21
911.8850662625
 31
0.0
  0
POLYLINE
  5
2BA
  8
0
  6
CONTINUOUS
 62
     7
 66
     1
 10
0.0
 20
0.0
 30
0.0
 70
   128
  0
VERTEX
  5
6B2
  8
0
  6
CONTINUOUS
 62
     7
 10
2237.7851864034
 20
2288.6803339488
 30
0.0
  0
VERTEX
  5
6B3
  8
0
  6
CONTINUOUS
 62
     7
 10
2238.6139740878
 20
2288.5176132685
 30
0.0
  0
VERTEX
  5
6B4
  8
0
  6
CONTINUOUS
 62
     7
 10
2239.1755541497
 20
2288.0771349436
 30
0.0
  0
VERTEX
  5
6B5
  8
0
  6
CONTINUOUS
 62
     7
 10
2239.4679447347
 20
2287.6818369395
 30
0.0
  0
VERTEX
  5
6B6
  8
0
  6
CONTINUOUS
 62
     7
 10
2239.7540321284
 20
2287.1183346278
 30
0.0
  0
VERTEX
  5
6B7
  8
0
  6
CONTINUOUS
 62
     7
 10
2240.0357385808
 20
2286.3758991725
 30
0.0
  0
VERTEX
  5
6B8
  8
0
  6
CONTINUOUS
 62
     7
 10
2240.3103073769
 20
2285.4701469905
 30
0.0
  0
SEQEND
  5
B32
  8
0
  6
CONTINUOUS
 62
     7
  0
POLYLINE
  5
2BB
  8
0
  6
CONTINUOUS
 62
     7
 66
     1
 10
0.0
 20
0.0
 30
0.0
 70
   128
  0
VERTEX
  5
6B9
  8
0
  6
CONTINUOUS
 62
     7
 10
1810.2855493956
 20
2209.645171023
 30
0.0
  0
VERTEX
  5
6BA
  8
0
  6
CONTINUOUS
 62
     7
 10
1810.2017303639
 20
2210.7844542033
 30
0.0
  0
VERTEX
  5
6BB
  8
0
  6
CONTINUOUS
 62
     7
 10
1810.2729877168
 20
2211.8158529765
 30
0.0
  0
VERTEX
  5
6BC
  8
0
  6
CONTINUOUS
 62
     7
 10
1810.5369170838
 20
2212.649364329
 30
0.0
  0
VERTEX
  5
6BD
  8
0
  6
CONTINUOUS
 62
     7
 10
1810.9843095475
 20
2213.2402847773
 30
0.0
  0
VERTEX
  5
6BE
  8
0
  6
CONTINUOUS
 62
     7
 10
1811.5603884393
 20
2213.5254333979
 30
0.0
  0
SEQEND
  5
B33
  8
0
  6
CONTINUOUS
 62
     7
  0
LINE
  5
2BC
  8
0
  6
CONTINUOUS
 62
     7
 10
2237.7851864034
 20
2288.6803339488
 30
0.0
 11
1811.5603884393
 21
2213.5254333979
 31
0.0
  0
LINE
  5
2BD
  8
0
  6
CONTINUOUS
 62
     7
 10
1810.2855493956
 20
2209.645171023
 30
0.0
 11
1814.8698618346
 21
2183.6462210185
 31
0.0
  0
LINE
  5
2BE
  8
0
  6
CONTINUOUS
 62
     7
 10
2240.3103073769
 20
2285.4701469905
 30
0.0
 11
2244.8946049147
 21
2259.4711969859
 31
0.0
  0
LINE
  5
2BF
  8
0
  6
CONTINUOUS
 62
     7
 10
2244.8946049147
 20
2259.4711969859
 30
0.0
 11
1814.8698618346
 21
2183.6462210185
 31
0.0
  0
CIRCLE
  5
2C0
  8
0
  6
CONTINUOUS
 62
     7
 10
1906.6671035794
 20
2212.0176490366
 30
0.0
 40
4.000000000000012
  0
CIRCLE
  5
2C1
  8
0
  6
CONTINUOUS
 62
     7
 10
2221.8055845433
 20
2267.58506589
 30
0.0
 40
3.999999999999972
  0
POLYLINE
  5
2C2
  8
0
  6
CONTINUOUS
 62
     7
 66
     1
 10
0.0
 20
0.0
 30
0.0
 70
   128
  0
VERTEX
  5
6BF
  8
0
  6
CONTINUOUS
 62
     7
 10
2240.3799405032
 20
2285.4824255473
 30
0.0
  0
VERTEX
  5
6C0
  8
0
  6
CONTINUOUS
 62
     7
 10
2240.1920964652
 20
2286.0435436732
 30
0.0
  0
VERTEX
  5
6C1
  8
0
  6
CONTINUOUS
 62
     7
 10
2240.0943448478
 20
2286.1825417048
 30
0.0
  0
SEQEND
  5
B34
  8
0
  6
CONTINUOUS
 62
     7
  0
ARC
  5
2C3
  8
0
  6
CONTINUOUS
 62
     7
 10
2238.410397702
 20
2285.1351245836
 30
0.0
 40
3.599916472781438
 50
9.9990250349
 51
100.0014927244
  0
LINE
  5
2C4
  8
0
  6
CONTINUOUS
 62
     7
 10
2241.9556339913
 20
2285.7601831919
 30
0.0
 11
2240.3799405032
 21
2285.4824255473
 31
0.0
  0
LINE
  5
2C5
  8
0
  6
CONTINUOUS
 62
     7
 10
2246.5399464303
 20
2259.7612331874
 30
0.0
 11
2244.9642529422
 21
2259.4834755427
 31
0.0
  0
LINE
  5
2C6
  8
0
  6
CONTINUOUS
 62
     7
 10
2240.3799405032
 20
2285.4824255473
 30
0.0
 11
2244.9642529422
 21
2259.4834755427
 31
0.0
  0
LINE
  5
2C7
  8
0
  6
CONTINUOUS
 62
     7
 10
2241.9556339913
 20
2285.7601831919
 30
0.0
 11
2246.5399464303
 21
2259.7612331874
 31
0.0
  0
POLYLINE
  5
2C8
  8
0
  6
CONTINUOUS
 62
     7
 66
     1
 10
0.0
 20
0.0
 30
0.0
 70
   128
  0
VERTEX
  5
6C2
  8
0
  6
CONTINUOUS
 62
     7
 10
1810.233350628
 20
2210.3547047145
 30
0.0
  0
VERTEX
  5
6C3
  8
0
  6
CONTINUOUS
 62
     7
 10
1810.1891835862
 20
2210.100908137
 30
0.0
  0
VERTEX
  5
6C4
  8
0
  6
CONTINUOUS
 62
     7
 10
1810.2159162694
 20
2209.6328924662
 30
0.0
  0
SEQEND
  5
B35
  8
0
  6
CONTINUOUS
 62
     7
  0
LINE
  5
2C9
  8
0
  6
CONTINUOUS
 62
     7
 10
1808.6402227813
 20
2209.3550156123
 30
0.0
 11
1810.2159162694
 21
2209.6328924662
 31
0.0
  0
ARC
  5
2CA
  8
0
  6
CONTINUOUS
 62
     7
 10
1812.1855250451
 20
2209.9801342945
 30
0.0
 40
3.599991876182595
 50
100.0000739673
 51
189.9997843036
  0
LINE
  5
2CB
  8
0
  6
CONTINUOUS
 62
     7
 10
1813.2245352202
 20
2183.3560656077
 30
0.0
 11
1814.8002287083
 21
2183.6339424616
 31
0.0
  0
LINE
  5
2CC
  8
0
  6
CONTINUOUS
 62
     7
 10
1808.6402227813
 20
2209.3550156123
 30
0.0
 11
1813.2245352202
 21
2183.3560656077
 31
0.0
  0
LINE
  5
2CD
  8
0
  6
CONTINUOUS
 62
     7
 10
1810.2159162694
 20
2209.6328924662
 30
0.0
 11
1814.8002287083
 21
2183.6339424616
 31
0.0
  0
LINE
  5
2CE
  8
0
  6
CONTINUOUS
 62
     7
 10
1846.8055834704
 20
906.885065443
 30
0.0
 11
1851.8055787021
 21
911.8850662625
 31
0.0
  0
LINE
  5
2CF
  8
0
  6
CONTINUOUS
 62
     7
 10
1851.8055787021
 20
911.8850662625
 30
0.0
 11
2235.8055820399
 21
911.8850662625
 31
0.0
  0
LINE
  5
2D0
  8
0
  6
CONTINUOUS
 62
     7
 10
2235.8055820399
 20
911.8850662625
 30
0.0
 11
2240.8055772715
 21
906.885065443
 31
0.0
  0
LINE
  5
2D1
  8
0
  6
CONTINUOUS
 62
     7
 10
2240.8055772715
 20
891.985066074
 30
0.0
 11
2240.8055772715
 21
906.885065443
 31
0.0
  0
LINE
  5
2D2
  8
0
  6
CONTINUOUS
 62
     7
 10
1846.8055834704
 20
891.985066074
 30
0.0
 11
1846.8055834704
 21
906.885065443
 31
0.0
  0
CIRCLE
  5
2D3
  8
0
  6
CONTINUOUS
 62
     7
 10
2222.8055845433
 20
903.88506589
 30
0.0
 40
3.5
  0
CIRCLE
  5
2D4
  8
0
  6
CONTINUOUS
 62
     7
 10
1907.8055845433
 20
903.88506589
 30
0.0
 40
3.499999999999773
  0
LINE
  5
2D5
  8
0
  6
CONTINUOUS
 62
     7
 10
1846.8055834704
 20
886.88506589
 30
0.0
 11
2240.8055772715
 21
886.88506589
 31
0.0
  0
LINE
  5
2D6
  8
0
  6
CONTINUOUS
 62
     7
 10
1846.8055834704
 20
886.88506589
 30
0.0
 11
1846.8055834704
 21
891.985066074
 31
0.0
  0
LINE
  5
2D7
  8
0
  6
CONTINUOUS
 62
     7
 10
2240.8055772715
 20
886.88506589
 30
0.0
 11
2240.8055772715
 21
891.985066074
 31
0.0
  0
LINE
  5
2D8
  8
細線
 10
2000.8582761068
 20
2288.6803800909
 30
0.0
 11
1808.9880207695
 21
2288.6803800909
 31
0.0
  0
DIMENSION
  5
2D9
  8
細線
  2
_D_2
 10
2237.7851877537
 20
2288.6803800909
 30
0.0
 11
1635.77844548
 21
2220.2435017642
 31
0.0
 70
   162
  1
<>
  3
SLDDIMSTYLE1
 13
1808.9880207695
 23
2288.6803800909
 33
0.0
 14
2000.8582761068
 24
2288.6803800909
 34
0.0
 15
1811.5603922501
 25
2213.5254487967
 35
0.0
 16
1634.2065105259
 26
2235.8740882875
 36
0.0
  0
DIMENSION
  5
2E6
  8
細線
  2
_D_3
 10
1808.5855256897
 20
2367.0363383593
 30
0.0
 11
2020.4612157223
 21
2367.0363383593
 31
0.0
 70
   160
  1
<>
  3
SLDDIMSTYLE0
 13
2246.5399409946
 23
2259.7612809402
 33
0.0
 14
1808.5855256897
 24
2209.9801408859
 34
0.0
  0
DIMENSION
  5
2F0
  8
細線
  2
_D_4
 10
2240.8055845433
 20
786.88506589
 30
0.0
 11
2045.2815116498
 21
786.88506589
 31
0.0
 70
   160
  1
<>
  3
SLDDIMSTYLE0
 13
1846.8055845433
 23
886.88506589
 33
0.0
 14
2240.8055845433
 24
886.88506589
 34
0.0
 50
0.0
  0
DIMENSION
  5
2FA
  8
細線
  2
_D_5
 10
1745.9175936979
 20
2183.3560827667
 30
0.0
 11
1745.9175936979
 21
1541.8083804852
 31
0.0
 70
   160
  1
<>
  3
SLDDIMSTYLE0
 13
1846.8055845433
 23
886.88506589
 33
0.0
 14
1813.2245296692
 24
2183.3560827667
 34
0.0
 50
90.0
  0
DIMENSION
  5
304
  8
細線
  2
_D_6
 10
2406.543909187
 20
2288.7350721801
 30
0.0
 11
2406.543909187
 21
1541.8083804852
 31
0.0
 70
   160
  1
<>
  3
SLDDIMSTYLE0
 13
2240.8055845433
 23
886.88506589
 33
0.0
 14
2238.4103211933
 24
2288.7350721801
 34
0.0
 50
90.0
  0
POLYLINE
  5
30E
  8
0
  6
CONTINUOUS
 62
     7
 66
     1
 10
0.0
 20
0.0
 30
0.0
 70
   128
  0
VERTEX
  5
6C5
  8
0
  6
CONTINUOUS
 62
     7
 10
559.7933582929
 20
2422.8743403793
 30
0.0
  0
VERTEX
  5
6C6
  8
0
  6
CONTINUOUS
 62
     7
 10
560.4572944311
 20
2422.9194014908
 30
0.0
  0
VERTEX
  5
6C7
  8
0
  6
CONTINUOUS
 62
     7
 10
561.1698679594
 20
2422.9537039639
 30
0.0
  0
SEQEND
  5
B36
  8
0
  6
CONTINUOUS
 62
     7
  0
POLYLINE
  5
30F
  8
0
  6
CONTINUOUS
 62
     7
 66
     1
 10
0.0
 20
0.0
 30
0.0
 70
   128
  0
VERTEX
  5
6C8
  8
0
  6
CONTINUOUS
 62
     7
 10
1451.7715625433
 20
2422.9537039639
 30
0.0
  0
VERTEX
  5
6C9
  8
0
  6
CONTINUOUS
 62
     7
 10
1452.4841360716
 20
2422.9194014908
 30
0.0
  0
VERTEX
  5
6CA
  8
0
  6
CONTINUOUS
 62
     7
 10
1453.1480722097
 20
2422.8743403793
 30
0.0
  0
SEQEND
  5
B37
  8
0
  6
CONTINUOUS
 62
     7
  0
LINE
  5
310
  8
0
  6
CONTINUOUS
 62
     7
 10
561.1374132303
 20
2421.2535410763
 30
0.0
 11
1451.8040172724
 21
2421.2535410763
 31
0.0
  0
ARC
  5
311
  8
0
  6
CONTINUOUS
 62
     7
 10
866.4544787453
 20
2665.2123175029
 30
0.0
 40
2.234929152459282
 50
184.0531929366
 51
270.4162357014
  0
ARC
  5
312
  8
0
  6
CONTINUOUS
 62
     7
 10
866.4869505653
 20
2665.2123175029
 30
0.0
 40
2.234929152459282
 50
269.5837642986
 51
355.9468070634
  0
ARC
  5
313
  8
0
  6
CONTINUOUS
 62
     7
 10
586.4544692
 20
2665.21229236
 30
0.0
 40
2.234904179234463
 50
184.0525921029
 51
270.4168365351
  0
ARC
  5
314
  8
0
  6
CONTINUOUS
 62
     7
 10
586.4869234271
 20
2665.2123616676
 30
0.0
 40
2.234973019652012
 50
269.5848196577
 51
355.9457517043
  0
ARC
  5
315
  8
0
  6
CONTINUOUS
 62
     7
 10
1146.4869517574
 20
2665.2123175029
 30
0.0
 40
2.234929152459274
 50
269.5837642986
 51
355.9468070634
  0
ARC
  5
316
  8
0
  6
CONTINUOUS
 62
     7
 10
1146.4544799374
 20
2665.2123175029
 30
0.0
 40
2.234929152459395
 50
184.0531929366
 51
270.4162357014
  0
ARC
  5
317
  8
0
  6
CONTINUOUS
 62
     7
 10
1426.4869611547
 20
2665.2122926617
 30
0.0
 40
2.234904479851252
 50
269.583167316
 51
355.9473528171
  0
ARC
  5
318
  8
0
  6
CONTINUOUS
 62
     7
 10
1426.4545072237
 20
2665.2123619695
 30
0.0
 40
2.234973320439634
 50
184.0543033778
 51
270.4151764891
  0
ARC
  5
319
  8
0
  6
CONTINUOUS
 62
     7
 10
586.4552261201
 20
2665.4920245084
 30
0.0
 40
2.236793165268085
 50
187.6757092919
 51
270.3970954016
  0
ARC
  5
31A
  8
0
  6
CONTINUOUS
 62
     7
 10
586.4862011616
 20
2665.4920243374
 30
0.0
 40
2.236792790311229
 50
269.60365884
 51
352.3242938353
  0
ARC
  5
31B
  8
0
  6
CONTINUOUS
 62
     7
 10
866.4552178559
 20
2665.4920137355
 30
0.0
 40
2.236782354888895
 50
187.6754681664
 51
270.3969578442
  0
ARC
  5
31C
  8
0
  6
CONTINUOUS
 62
     7
 10
866.4862114546
 20
2665.4920137355
 30
0.0
 40
2.236782354888705
 50
269.6030421558
 51
352.3245318336
  0
ARC
  5
31D
  8
0
  6
CONTINUOUS
 62
     7
 10
1146.4862126467
 20
2665.4920137355
 30
0.0
 40
2.236782354888893
 50
269.6030421558
 51
352.3245318336
  0
ARC
  5
31E
  8
0
  6
CONTINUOUS
 62
     7
 10
1146.455219048
 20
2665.4920137355
 30
0.0
 40
2.23678235488848
 50
187.6754681664
 51
270.3969578442
  0
ARC
  5
31F
  8
0
  6
CONTINUOUS
 62
     7
 10
1426.4862043826
 20
2665.4920245084
 30
0.0
 40
2.236793165268597
 50
269.6029045984
 51
352.3242907081
  0
ARC
  5
320
  8
0
  6
CONTINUOUS
 62
     7
 10
1426.4552293411
 20
2665.4920243374
 30
0.0
 40
2.236792790311229
 50
187.6757061647
 51
270.39634116
  0
ARC
  5
321
  8
0
  6
CONTINUOUS
 62
     7
 10
586.4707283644
 20
2598.2562240119
 30
0.0
 40
2.251911163895686
 50
184.2990311015
 51
355.7009688985
  0
ARC
  5
322
  8
0
  6
CONTINUOUS
 62
     7
 10
866.4707146553
 20
2598.2562125505
 30
0.0
 40
2.25191002552667
 50
184.2986457916
 51
355.7013542084
  0
ARC
  5
323
  8
0
  6
CONTINUOUS
 62
     7
 10
1426.4707021383
 20
2598.2562236192
 30
0.0
 40
2.251910855207341
 50
184.2989266215
 51
355.7010733785
  0
ARC
  5
324
  8
0
  6
CONTINUOUS
 62
     7
 10
1146.4707158474
 20
2598.2562125505
 30
0.0
 40
2.251910025526556
 50
184.2986457916
 51
355.7013542084
  0
ARC
  5
325
  8
0
  6
CONTINUOUS
 62
     7
 10
586.4707134632
 20
2598.5362163367
 30
0.0
 40
2.25364482462788
 50
187.9033057613
 51
352.0966942387
  0
ARC
  5
326
  8
0
  6
CONTINUOUS
 62
     7
 10
866.4707146553
 20
2598.536204075
 30
0.0
 40
2.253643138661845
 50
187.9029969865
 51
352.0970030135
  0
ARC
  5
327
  8
0
  6
CONTINUOUS
 62
     7
 10
1146.4707158474
 20
2598.536204075
 30
0.0
 40
2.253643138661733
 50
187.9029969865
 51
352.0970030135
  0
ARC
  5
328
  8
0
  6
CONTINUOUS
 62
     7
 10
1426.4707170395
 20
2598.5362163367
 30
0.0
 40
2.253644824628168
 50
187.9033057613
 51
352.0966942387
  0
ARC
  5
329
  8
0
  6
CONTINUOUS
 62
     7
 10
580.7716918935
 20
2861.1732961558
 30
0.0
 40
20.6940747940122
 50
198.4512949776
 51
211.1999987616
  0
ARC
  5
32A
  8
0
  6
CONTINUOUS
 62
     7
 10
567.8801830556
 20
2856.9417125074
 30
0.0
 40
7.782801915417012
 50
210.0199837232
 51
226.3492639427
  0
LINE
  5
32B
  8
0
  6
CONTINUOUS
 62
     7
 10
561.1414365438
 20
2854.6236544491
 30
0.0
 11
561.1414365438
 21
2853.047960961
 31
0.0
  0
ARC
  5
32C
  8
0
  6
CONTINUOUS
 62
     7
 10
1432.1697386092
 20
2861.1732961558
 30
0.0
 40
20.69407479397034
 50
328.8000012384
 51
341.5487050224
  0
ARC
  5
32D
  8
0
  6
CONTINUOUS
 62
     7
 10
1445.0612474471
 20
2856.9417125074
 30
0.0
 40
7.782801915417012
 50
313.6507360573
 51
329.9800162768
  0
LINE
  5
32E
  8
0
  6
CONTINUOUS
 62
     7
 10
1451.7999939588
 20
2854.6236544491
 30
0.0
 11
1451.7999939588
 21
2853.047960961
 31
0.0
  0
LINE
  5
32F
  8
0
  6
CONTINUOUS
 62
     7
 10
559.4707183508
 20
2852.9783278347
 30
0.0
 11
561.0707156328
 21
2852.9783278347
 31
0.0
  0
ARC
  5
330
  8
0
  6
CONTINUOUS
 62
     7
 10
568.2843801782
 20
2857.5753117624
 30
0.0
 40
8.553900712847247
 50
212.507755089
 51
229.6251039723
  0
ARC
  5
331
  8
0
  6
CONTINUOUS
 62
     7
 10
566.5422933088
 20
2859.2313179621
 30
0.0
 40
9.439653485228131
 50
221.4844942963
 51
248.4221586145
  0
ARC
  5
332
  8
0
  6
CONTINUOUS
 62
     7
 10
559.2756842411
 20
2429.2247420422
 30
0.0
 40
6.274204246371039
 50
271.7813305613
 51
307.2190006374
  0
LINE
  5
333
  8
0
  6
CONTINUOUS
 62
     7
 10
559.4707183508
 20
2852.9783278347
 30
0.0
 11
559.4707183508
 21
2422.9535698534
 31
0.0
  0
ARC
  5
334
  8
0
  6
CONTINUOUS
 62
     7
 10
1446.3991371938
 20
2859.2313179621
 30
0.0
 40
9.439653485223772
 50
291.5778413855
 51
318.5155057037
  0
LINE
  5
335
  8
0
  6
CONTINUOUS
 62
     7
 10
1453.4707121519
 20
2852.9783278347
 30
0.0
 11
1453.4707121519
 21
2422.9535698534
 31
0.0
  0
ARC
  5
336
  8
0
  6
CONTINUOUS
 62
     7
 10
1453.6657462616
 20
2429.2247420422
 30
0.0
 40
6.274204246370608
 50
232.7809993626
 51
268.2186694387
  0
ARC
  5
337
  8
0
  6
CONTINUOUS
 62
     7
 10
1444.6570503245
 20
2857.5753117624
 30
0.0
 40
8.553900712847026
 50
310.3748960277
 51
327.492244911
  0
LINE
  5
338
  8
0
  6
CONTINUOUS
 62
     7
 10
1453.4707121519
 20
2852.9783278347
 30
0.0
 11
1451.8707148699
 21
2852.9783278347
 31
0.0
  0
CIRCLE
  5
339
  8
0
  6
CONTINUOUS
 62
     7
 10
586.4793617413
 20
2664.9375186279
 30
0.0
 40
2.237925694010068
  0
CIRCLE
  5
33A
  8
0
  6
CONTINUOUS
 62
     7
 10
866.4793627838
 20
2664.9375186279
 30
0.0
 40
2.237925750984603
  0
CIRCLE
  5
33B
  8
0
  6
CONTINUOUS
 62
     7
 10
866.4793627838
 20
2597.9705919489
 30
0.0
 40
2.237925750984603
  0
CIRCLE
  5
33C
  8
0
  6
CONTINUOUS
 62
     7
 10
586.4793617413
 20
2597.9705919489
 30
0.0
 40
2.237925694010068
  0
CIRCLE
  5
33D
  8
0
  6
CONTINUOUS
 62
     7
 10
1426.4620687614
 20
2664.9375186279
 30
0.0
 40
2.237925694010068
  0
CIRCLE
  5
33E
  8
0
  6
CONTINUOUS
 62
     7
 10
1146.4620677188
 20
2664.9375186279
 30
0.0
 40
2.237925750984604
  0
CIRCLE
  5
33F
  8
0
  6
CONTINUOUS
 62
     7
 10
1146.4620677188
 20
2597.9705919489
 30
0.0
 40
2.237925750984604
  0
CIRCLE
  5
340
  8
0
  6
CONTINUOUS
 62
     7
 10
1426.4620687614
 20
2597.9705919489
 30
0.0
 40
2.237925694010068
  0
ARC
  5
341
  8
0
  6
CONTINUOUS
 62
     7
 10
559.7637900511
 20
2426.2944761306
 30
0.0
 40
3.587437696883377
 50
291.3648876495
 51
319.165989039
  0
ARC
  5
342
  8
0
  6
CONTINUOUS
 62
     7
 10
1453.1776404516
 20
2426.2944761306
 30
0.0
 40
3.587437696905503
 50
220.8340109611
 51
248.6351123504
  0
LINE
  5
343
  8
0
  6
CONTINUOUS
 62
     7
 10
1451.7999939588
 20
2854.6236544491
 30
0.0
 11
1451.7999939588
 21
2859.207966888
 31
0.0
  0
LINE
  5
344
  8
0
  6
CONTINUOUS
 62
     7
 10
561.1414365438
 20
2854.6236544491
 30
0.0
 11
561.1414365438
 21
2859.207966888
 31
0.0
  0
LINE
  5
345
  8
0
  6
CONTINUOUS
 62
     7
 10
1451.7999939588
 20
2859.207966888
 30
0.0
 11
561.1414365438
 21
2859.207966888
 31
0.0
  0
LINE
  5
346
  8
0
  6
CONTINUOUS
 62
     7
 10
559.4707183508
 20
2857.5626253725
 30
0.0
 11
561.0707156328
 21
2857.5626253725
 31
0.0
  0
LINE
  5
347
  8
0
  6
CONTINUOUS
 62
     7
 10
561.0707156328
 20
2854.7837376238
 30
0.0
 11
561.0707156328
 21
2857.5626253725
 31
0.0
  0
LINE
  5
348
  8
0
  6
CONTINUOUS
 62
     7
 10
559.4707183508
 20
2852.9783278347
 30
0.0
 11
559.4707183508
 21
2857.5626253725
 31
0.0
  0
LINE
  5
349
  8
0
  6
CONTINUOUS
 62
     7
 10
1453.4707121519
 20
2857.5626253725
 30
0.0
 11
1451.8707148699
 21
2857.5626253725
 31
0.0
  0
LINE
  5
34A
  8
0
  6
CONTINUOUS
 62
     7
 10
1453.4707121519
 20
2852.9783278347
 30
0.0
 11
1453.4707121519
 21
2857.5626253725
 31
0.0
  0
LINE
  5
34B
  8
0
  6
CONTINUOUS
 62
     7
 10
1451.8707148699
 20
2854.7837376238
 30
0.0
 11
1451.8707148699
 21
2857.5626253725
 31
0.0
  0
ARC
  5
34C
  8
0
  6
CONTINUOUS
 62
     7
 10
586.4544718384
 20
2598.2453665294
 30
0.0
 40
2.234906871052463
 50
184.0526090193
 51
270.4167683898
  0
ARC
  5
34D
  8
0
  6
CONTINUOUS
 62
     7
 10
586.4869207884
 20
2598.2454358372
 30
0.0
 40
2.234975711679489
 50
269.5848878035
 51
355.9457347873
  0
ARC
  5
34E
  8
0
  6
CONTINUOUS
 62
     7
 10
866.4544813838
 20
2598.2453916724
 30
0.0
 40
2.234931844387658
 50
184.0532098541
 51
270.4161675551
  0
ARC
  5
34F
  8
0
  6
CONTINUOUS
 62
     7
 10
866.4869479268
 20
2598.2453916724
 30
0.0
 40
2.234931844387656
 50
269.5838324449
 51
355.9467901459
  0
ARC
  5
350
  8
0
  6
CONTINUOUS
 62
     7
 10
1146.4869491189
 20
2598.2453916724
 30
0.0
 40
2.234931844387656
 50
269.5838324449
 51
355.9467901459
  0
ARC
  5
351
  8
0
  6
CONTINUOUS
 62
     7
 10
1146.4544825759
 20
2598.2453916724
 30
0.0
 40
2.234931844387658
 50
184.0532098541
 51
270.4161675551
  0
ARC
  5
352
  8
0
  6
CONTINUOUS
 62
     7
 10
1426.4869586642
 20
2598.2453665294
 30
0.0
 40
2.234906871052464
 50
269.5832316102
 51
355.9473909807
  0
ARC
  5
353
  8
0
  6
CONTINUOUS
 62
     7
 10
1426.4545097142
 20
2598.2454358372
 30
0.0
 40
2.23497571167949
 50
184.0542652127
 51
270.4151121965
  0
POLYLINE
  5
354
  8
0
  6
CONTINUOUS
 62
     7
 66
     1
 10
0.0
 20
0.0
 30
0.0
 70
   128
  0
VERTEX
  5
6CB
  8
0
  6
CONTINUOUS
 62
     7
 10
563.0707196859
 20
2424.228408897
 30
0.0
  0
VERTEX
  5
6CC
  8
0
  6
CONTINUOUS
 62
     7
 10
562.2924618391
 20
2422.8793769718
 30
0.0
  0
VERTEX
  5
6CD
  8
0
  6
CONTINUOUS
 62
     7
 10
561.8012599615
 20
2422.0958590151
 30
0.0
  0
VERTEX
  5
6CE
  8
0
  6
CONTINUOUS
 62
     7
 10
561.543112245
 20
2421.6887294889
 30
0.0
  0
VERTEX
  5
6CF
  8
0
  6
CONTINUOUS
 62
     7
 10
561.3471023706
 20
2421.3979780317
 30
0.0
  0
VERTEX
  5
6D0
  8
0
  6
CONTINUOUS
 62
     7
 10
561.2132005361
 20
2421.2601273895
 30
0.0
  0
VERTEX
  5
6D1
  8
0
  6
CONTINUOUS
 62
     7
 10
561.1414365438
 20
2421.308243239
 30
0.0
  0
SEQEND
  5
B38
  8
0
  6
CONTINUOUS
 62
     7
  0
POLYLINE
  5
355
  8
0
  6
CONTINUOUS
 62
     7
 66
     1
 10
0.0
 20
0.0
 30
0.0
 70
   128
  0
VERTEX
  5
6D2
  8
0
  6
CONTINUOUS
 62
     7
 10
1449.8707108168
 20
2424.228408897
 30
0.0
  0
VERTEX
  5
6D3
  8
0
  6
CONTINUOUS
 62
     7
 10
1450.6489686636
 20
2422.8793769718
 30
0.0
  0
VERTEX
  5
6D4
  8
0
  6
CONTINUOUS
 62
     7
 10
1451.1401705412
 20
2422.0958590151
 30
0.0
  0
VERTEX
  5
6D5
  8
0
  6
CONTINUOUS
 62
     7
 10
1451.3983182577
 20
2421.6887294889
 30
0.0
  0
VERTEX
  5
6D6
  8
0
  6
CONTINUOUS
 62
     7
 10
1451.594328132
 20
2421.3979780317
 30
0.0
  0
VERTEX
  5
6D7
  8
0
  6
CONTINUOUS
 62
     7
 10
1451.7282299665
 20
2421.2601273895
 30
0.0
  0
VERTEX
  5
6D8
  8
0
  6
CONTINUOUS
 62
     7
 10
1451.7999939588
 20
2421.308243239
 30
0.0
  0
SEQEND
  5
B39
  8
0
  6
CONTINUOUS
 62
     7
  0
LINE
  5
356
  8
0
  6
CONTINUOUS
 62
     7
 10
561.1414365438
 20
2421.308243239
 30
0.0
 11
561.1414365438
 21
2422.8839367271
 31
0.0
  0
ARC
  5
357
  8
0
  6
CONTINUOUS
 62
     7
 10
559.5695625278
 20
2426.2429221703
 30
0.0
 40
3.708580743274934
 50
295.07775855
 51
321.0943482177
  0
ARC
  5
358
  8
0
  6
CONTINUOUS
 62
     7
 10
1453.3718679749
 20
2426.2429221702
 30
0.0
 40
3.708580743261216
 50
218.9056517822
 51
244.9222414501
  0
LINE
  5
359
  8
0
  6
CONTINUOUS
 62
     7
 10
1451.7999939588
 20
2421.308243239
 30
0.0
 11
1451.7999939588
 21
2422.8839367271
 31
0.0
  0
LINE
  5
35A
  8
0
  6
CONTINUOUS
 62
     7
 10
1451.7999939588
 20
2422.8839367271
 30
0.0
 11
1451.7999939588
 21
2422.952333057
 31
0.0
  0
LINE
  5
35B
  8
0
  6
CONTINUOUS
 62
     7
 10
561.1414365438
 20
2422.8839367271
 30
0.0
 11
561.1414365438
 21
2422.952333057
 31
0.0
  0
LINE
  5
35C
  8
0
  6
CONTINUOUS
 62
     7
 10
1454.3707124857
 20
2853.4735977293
 30
0.0
 11
1453.4707121519
 21
2853.4735977293
 31
0.0
  0
LINE
  5
35D
  8
0
  6
CONTINUOUS
 62
     7
 10
1453.4707121519
 20
2848.4736024977
 30
0.0
 11
1454.3707124857
 21
2848.4736024977
 31
0.0
  0
LINE
  5
35E
  8
0
  6
CONTINUOUS
 62
     7
 10
1454.3707124857
 20
2848.4736024977
 30
0.0
 11
1454.3707124857
 21
2853.4735977293
 31
0.0
  0
LINE
  5
35F
  8
0
  6
CONTINUOUS
 62
     7
 10
1454.3707124857
 20
2464.4735991598
 30
0.0
 11
1453.4707121519
 21
2464.4735991598
 31
0.0
  0
LINE
  5
360
  8
0
  6
CONTINUOUS
 62
     7
 10
1454.3707124857
 20
2464.4735991598
 30
0.0
 11
1454.3707124857
 21
2848.4736024977
 31
0.0
  0
LINE
  5
361
  8
0
  6
CONTINUOUS
 62
     7
 10
1453.4707121519
 20
2459.4736039282
 30
0.0
 11
1454.3707124857
 21
2459.4736039282
 31
0.0
  0
LINE
  5
362
  8
0
  6
CONTINUOUS
 62
     7
 10
1454.3707124857
 20
2459.4736039282
 30
0.0
 11
1454.3707124857
 21
2464.4735991598
 31
0.0
  0
LINE
  5
363
  8
0
  6
CONTINUOUS
 62
     7
 10
1451.8230013517
 20
2853.4735977293
 30
0.0
 11
1451.8707148699
 21
2853.4735977293
 31
0.0
  0
LINE
  5
364
  8
0
  6
CONTINUOUS
 62
     7
 10
559.4707183508
 20
2848.4736024977
 30
0.0
 11
558.570718017
 21
2848.4736024977
 31
0.0
  0
LINE
  5
365
  8
0
  6
CONTINUOUS
 62
     7
 10
558.570718017
 20
2848.4736024977
 30
0.0
 11
558.570718017
 21
2853.4735977293
 31
0.0
  0
LINE
  5
366
  8
0
  6
CONTINUOUS
 62
     7
 10
558.570718017
 20
2853.4735977293
 30
0.0
 11
559.4707183508
 21
2853.4735977293
 31
0.0
  0
LINE
  5
367
  8
0
  6
CONTINUOUS
 62
     7
 10
558.570718017
 20
2464.4735991598
 30
0.0
 11
559.4707183508
 21
2464.4735991598
 31
0.0
  0
LINE
  5
368
  8
0
  6
CONTINUOUS
 62
     7
 10
558.570718017
 20
2464.4735991598
 30
0.0
 11
558.570718017
 21
2848.4736024977
 31
0.0
  0
LINE
  5
369
  8
0
  6
CONTINUOUS
 62
     7
 10
559.4707183508
 20
2459.4736039282
 30
0.0
 11
558.570718017
 21
2459.4736039282
 31
0.0
  0
LINE
  5
36A
  8
0
  6
CONTINUOUS
 62
     7
 10
558.570718017
 20
2459.4736039282
 30
0.0
 11
558.570718017
 21
2464.4735991598
 31
0.0
  0
LINE
  5
36B
  8
0
  6
CONTINUOUS
 62
     7
 10
561.118429151
 20
2853.4735977293
 30
0.0
 11
561.0707156328
 21
2853.4735977293
 31
0.0
  0
LINE
  5
36C
  8
0
  6
CONTINUOUS
 62
     7
 10
3622.7620923911
 20
2225.1916194578
 30
0.0
 11
3622.7620923911
 21
1362.9777934019
 31
0.0
  0
LINE
  5
36D
  8
0
  6
CONTINUOUS
 62
     7
 10
3843.0154465383
 20
1480.919783371
 30
0.0
 11
3843.0154465383
 21
2397.1882078125
 31
0.0
  0
LINE
  5
36E
  8
0
  6
CONTINUOUS
 62
     7
 10
3795.6497030464
 20
2311.4234368853
 30
0.0
 11
3795.6497030464
 21
2234.8206106026
 31
0.0
  0
LINE
  5
36F
  8
0
  6
CONTINUOUS
 62
     7
 10
3795.6497030464
 20
2108.2568324565
 30
0.0
 11
3795.6497030464
 21
1998.8494216002
 31
0.0
  0
LINE
  5
370
  8
0
  6
CONTINUOUS
 62
     7
 10
3795.6497030464
 20
1731.3147640206
 30
0.0
 11
3795.6497030464
 21
1498.6154488635
 31
0.0
  0
LINE
  5
371
  8
0
  6
CONTINUOUS
 62
     7
 10
3116.4736366119
 20
2478.0179381488
 30
0.0
 11
3116.4736366119
 21
1655.251897694
 31
0.0
  0
LINE
  5
372
  8
0
  6
CONTINUOUS
 62
     7
 10
3349.454917541
 20
2198.3712532695
 30
0.0
 11
3349.454917541
 21
2343.5207039186
 31
0.0
  0
LINE
  5
373
  8
0
  6
CONTINUOUS
 62
     7
 10
3349.454917541
 20
1765.8461460249
 30
0.0
 11
3349.454917541
 21
2071.8074142864
 31
0.0
  0
POLYLINE
  5
374
  8
0
  6
CONTINUOUS
 62
     7
 66
     1
 10
0.0
 20
0.0
 30
0.0
 70
   128
  0
VERTEX
  5
6D9
  8
0
  6
CONTINUOUS
 62
     7
 10
3590.7149458724
 20
2223.1060871865
 30
0.0
  0
VERTEX
  5
6DA
  8
0
  6
CONTINUOUS
 62
     7
 10
3590.7797817744
 20
2222.6611547806
 30
0.0
  0
VERTEX
  5
6DB
  8
0
  6
CONTINUOUS
 62
     7
 10
3590.7953058636
 20
2222.252858258
 30
0.0
  0
SEQEND
  5
B3A
  8
0
  6
CONTINUOUS
 62
     7
  0
LINE
  5
375
  8
0
  6
CONTINUOUS
 62
     7
 10
3844.5732994264
 20
2419.6854710579
 30
0.0
 11
3320.153655764
 21
2722.4264873205
 31
0.0
  0
LINE
  5
376
  8
0
  6
CONTINUOUS
 62
     7
 10
3318.5947404241
 20
2722.3202404326
 30
0.0
 11
3065.7355042558
 21
2524.8614931513
 31
0.0
  0
LINE
  5
377
  8
0
  6
CONTINUOUS
 62
     7
 10
3793.8892028423
 20
1825.9270622085
 30
0.0
 11
3792.0035704012
 21
1827.0156146463
 31
0.0
  0
LINE
  5
378
  8
0
  6
CONTINUOUS
 62
     7
 10
3781.3100105328
 20
1805.2808762466
 30
0.0
 11
3788.3810751134
 21
1809.3629149403
 31
0.0
  0
LINE
  5
379
  8
0
  6
CONTINUOUS
 62
     7
 10
3771.476940041
 20
1813.2146076207
 30
0.0
 11
3771.476940041
 21
1811.0371691545
 31
0.0
  0
LINE
  5
37A
  8
0
  6
CONTINUOUS
 62
     7
 10
3793.3928534564
 20
1847.2227080208
 30
0.0
 11
3791.5072385764
 21
1846.1341657209
 31
0.0
  0
LINE
  5
37B
  8
0
  6
CONTINUOUS
 62
     7
 10
3322.4846750268
 20
2098.0631035379
 30
0.0
 11
3320.5990601468
 21
2099.1516458379
 31
0.0
  0
LINE
  5
37C
  8
0
  6
CONTINUOUS
 62
     7
 10
3309.9055002785
 20
2077.4169074381
 30
0.0
 11
3316.9765648591
 21
2081.4989461319
 31
0.0
  0
LINE
  5
37D
  8
0
  6
CONTINUOUS
 62
     7
 10
3300.0724122255
 20
2085.35064895
 30
0.0
 11
3300.0724122255
 21
2083.1732104839
 31
0.0
  0
LINE
  5
37E
  8
0
  6
CONTINUOUS
 62
     7
 10
3321.9883432021
 20
2119.3587392124
 30
0.0
 11
3320.1027283221
 21
2118.2701969124
 31
0.0
  0
LINE
  5
37F
  8
0
  6
CONTINUOUS
 62
     7
 10
3685.2913324537
 20
2196.0865161275
 30
0.0
 11
3807.9599457789
 21
2125.2714329963
 31
0.0
  0
LINE
  5
380
  8
0
  6
CONTINUOUS
 62
     7
 10
3309.4217510441
 20
2098.0227236149
 30
0.0
 11
3313.7122299778
 21
2095.5458828475
 31
0.0
  0
LINE
  5
381
  8
0
  6
CONTINUOUS
 62
     7
 10
3337.4410461789
 20
2081.8475288323
 30
0.0
 11
3622.7620923911
 21
1917.1351948546
 31
0.0
  0
LINE
  5
382
  8
0
  6
CONTINUOUS
 62
     7
 10
3674.5524559426
 20
1887.2372543718
 30
0.0
 11
3785.1167577933
 21
1823.4098415181
 31
0.0
  0
LINE
  5
383
  8
0
  6
CONTINUOUS
 62
     7
 10
3613.1555260876
 20
1332.9677524943
 30
0.0
 11
3845.3222489245
 21
1466.9947487432
 31
0.0
  0
LINE
  5
384
  8
0
  6
CONTINUOUS
 62
     7
 10
3299.9072141405
 20
1722.6665599067
 30
0.0
 11
3351.1724543014
 21
1752.2613531087
 31
0.0
  0
ARC
  5
385
  8
0
  6
CONTINUOUS
 62
     7
 10
3831.0394982555
 20
1473.5453223487
 30
0.0
 40
4.968106364111049
 50
300.6889470921
 51
359.3163894391
  0
ARC
  5
386
  8
0
  6
CONTINUOUS
 62
     7
 10
3645.4239731073
 20
1366.3917564576
 30
0.0
 40
4.968102831825257
 50
300.6889242188
 51
359.3164123124
  0
ARC
  5
387
  8
0
  6
CONTINUOUS
 62
     7
 10
3830.8827916169
 20
2400.8860394887
 30
0.0
 40
4.496697892691729
 50
287.8372492927
 51
12.1682357371
  0
ARC
  5
388
  8
0
  6
CONTINUOUS
 62
     7
 10
3645.1417774356
 20
2255.8243503977
 30
0.0
 40
4.499790203265126
 50
288.5951212188
 51
12.6997103403
  0
POLYLINE
  5
389
  8
0
  6
CONTINUOUS
 62
     7
 66
     1
 10
0.0
 20
0.0
 30
0.0
 70
   128
  0
VERTEX
  5
6DC
  8
0
  6
CONTINUOUS
 62
     7
 10
3689.590225391
 20
2228.6182689898
 30
0.0
  0
VERTEX
  5
6DD
  8
0
  6
CONTINUOUS
 62
     7
 10
3687.9846807097
 20
2227.2282351758
 30
0.0
  0
VERTEX
  5
6DE
  8
0
  6
CONTINUOUS
 62
     7
 10
3686.4511478703
 20
2225.624662962
 30
0.0
  0
VERTEX
  5
6DF
  8
0
  6
CONTINUOUS
 62
     7
 10
3685.0198628463
 20
2223.8391213957
 30
0.0
  0
VERTEX
  5
6E0
  8
0
  6
CONTINUOUS
 62
     7
 10
3683.7190508554
 20
2221.9068045859
 30
0.0
  0
VERTEX
  5
6E1
  8
0
  6
CONTINUOUS
 62
     7
 10
3682.5743622062
 20
2219.8659626767
 30
0.0
  0
VERTEX
  5
6E2
  8
0
  6
CONTINUOUS
 62
     7
 10
3681.6083652189
 20
2217.7566357238
 30
0.0
  0
VERTEX
  5
6E3
  8
0
  6
CONTINUOUS
 62
     7
 10
3680.8401071959
 20
2215.6205624807
 30
0.0
  0
VERTEX
  5
6E4
  8
0
  6
CONTINUOUS
 62
     7
 10
3680.2847412463
 20
2213.4997482282
 30
0.0
  0
VERTEX
  5
6E5
  8
0
  6
CONTINUOUS
 62
     7
 10
3679.953214575
 20
2211.4361225954
 30
0.0
  0
VERTEX
  5
6E6
  8
0
  6
CONTINUOUS
 62
     7
 10
3679.8520665288
 20
2209.47028735
 30
0.0
  0
VERTEX
  5
6E7
  8
0
  6
CONTINUOUS
 62
     7
 10
3679.9832881075
 20
2207.641029715
 30
0.0
  0
VERTEX
  5
6E8
  8
0
  6
CONTINUOUS
 62
     7
 10
3680.3442956213
 20
2205.9844960013
 30
0.0
  0
VERTEX
  5
6E9
  8
0
  6
CONTINUOUS
 62
     7
 10
3680.927968009
 20
2204.5332397587
 30
0.0
  0
SEQEND
  5
B3B
  8
0
  6
CONTINUOUS
 62
     7
  0
LINE
  5
38A
  8
0
  6
CONTINUOUS
 62
     7
 10
3786.4089055336
 20
2000.3396756428
 30
0.0
 11
3680.927968009
 21
2204.5332397587
 31
0.0
  0
POLYLINE
  5
38B
  8
0
  6
CONTINUOUS
 62
     7
 66
     1
 10
0.0
 20
0.0
 30
0.0
 70
   128
  0
VERTEX
  5
6EA
  8
0
  6
CONTINUOUS
 62
     7
 10
3786.4089055336
 20
2000.3396756428
 30
0.0
  0
VERTEX
  5
6EB
  8
0
  6
CONTINUOUS
 62
     7
 10
3787.1720400803
 20
1999.1613504365
 30
0.0
  0
VERTEX
  5
6EC
  8
0
  6
CONTINUOUS
 62
     7
 10
3788.1176177976
 20
1998.2222294576
 30
0.0
  0
VERTEX
  5
6ED
  8
0
  6
CONTINUOUS
 62
     7
 10
3789.2282882326
 20
1997.5396326089
 30
0.0
  0
VERTEX
  5
6EE
  8
0
  6
CONTINUOUS
 62
     7
 10
3790.4836847991
 20
1997.1260156489
 30
0.0
  0
VERTEX
  5
6EF
  8
0
  6
CONTINUOUS
 62
     7
 10
3791.8607628294
 20
1996.988962555
 30
0.0
  0
VERTEX
  5
6F0
  8
0
  6
CONTINUOUS
 62
     7
 10
3793.3342868981
 20
1997.1310612688
 30
0.0
  0
VERTEX
  5
6F1
  8
0
  6
CONTINUOUS
 62
     7
 10
3794.8772039968
 20
1997.5496324297
 30
0.0
  0
VERTEX
  5
6F2
  8
0
  6
CONTINUOUS
 62
     7
 10
3796.4612230533
 20
1998.236982808
 30
0.0
  0
VERTEX
  5
6F3
  8
0
  6
CONTINUOUS
 62
     7
 10
3798.0572803035
 20
1999.1805928417
 30
0.0
  0
VERTEX
  5
6F4
  8
0
  6
CONTINUOUS
 62
     7
 10
3799.6361012487
 20
2000.3630760264
 30
0.0
  0
VERTEX
  5
6F5
  8
0
  6
CONTINUOUS
 62
     7
 10
3801.1687274918
 20
2001.7627669566
 30
0.0
  0
VERTEX
  5
6F6
  8
0
  6
CONTINUOUS
 62
     7
 10
3802.6270347921
 20
2003.353979835
 30
0.0
  0
VERTEX
  5
6F7
  8
0
  6
CONTINUOUS
 62
     7
 10
3803.9842774618
 20
2005.1075255356
 30
0.0
  0
VERTEX
  5
6F8
  8
0
  6
CONTINUOUS
 62
     7
 10
3805.2155625187
 20
2006.9912692324
 30
0.0
  0
VERTEX
  5
6F9
  8
0
  6
CONTINUOUS
 62
     7
 10
3806.2982974958
 20
2008.9706322628
 30
0.0
  0
VERTEX
  5
6FA
  8
0
  6
CONTINUOUS
 62
     7
 10
3807.2126206906
 20
2011.0092866433
 30
0.0
  0
VERTEX
  5
6FB
  8
0
  6
CONTINUOUS
 62
     7
 10
3807.9417699505
 20
2013.0698546608
 30
0.0
  0
VERTEX
  5
6FC
  8
0
  6
CONTINUOUS
 62
     7
 10
3808.4723548703
 20
2015.1145527054
 30
0.0
  0
VERTEX
  5
6FD
  8
0
  6
CONTINUOUS
 62
     7
 10
3808.7946465525
 20
2017.105845242
 30
0.0
  0
VERTEX
  5
6FE
  8
0
  6
CONTINUOUS
 62
     7
 10
3808.9027444383
 20
2019.0072306052
 30
0.0
  0
SEQEND
  5
B3C
  8
0
  6
CONTINUOUS
 62
     7
  0
LINE
  5
38C
  8
0
  6
CONTINUOUS
 62
     7
 10
3808.9027444383
 20
2305.5711843199
 30
0.0
 11
3808.9027444383
 21
2019.0072306052
 31
0.0
  0
POLYLINE
  5
38D
  8
0
  6
CONTINUOUS
 62
     7
 66
     1
 10
0.0
 20
0.0
 30
0.0
 70
   128
  0
VERTEX
  5
6FF
  8
0
  6
CONTINUOUS
 62
     7
 10
3808.9027444383
 20
2305.5711843199
 30
0.0
  0
VERTEX
  5
700
  8
0
  6
CONTINUOUS
 62
     7
 10
3808.7966924307
 20
2307.3315847482
 30
0.0
  0
VERTEX
  5
701
  8
0
  6
CONTINUOUS
 62
     7
 10
3808.4804417968
 20
2308.9378692116
 30
0.0
  0
VERTEX
  5
702
  8
0
  6
CONTINUOUS
 62
     7
 10
3807.9596911417
 20
2310.3610432601
 30
0.0
  0
VERTEX
  5
703
  8
0
  6
CONTINUOUS
 62
     7
 10
3807.2438093585
 20
2311.5756913448
 30
0.0
  0
VERTEX
  5
704
  8
0
  6
CONTINUOUS
 62
     7
 10
3806.345677578
 20
2312.559723345
 30
0.0
  0
VERTEX
  5
705
  8
0
  6
CONTINUOUS
 62
     7
 10
3805.2814608725
 20
2313.2955406325
 30
0.0
  0
VERTEX
  5
706
  8
0
  6
CONTINUOUS
 62
     7
 10
3804.0703184969
 20
2313.7699499132
 30
0.0
  0
VERTEX
  5
707
  8
0
  6
CONTINUOUS
 62
     7
 10
3802.7340438843
 20
2313.9742798653
 30
0.0
  0
VERTEX
  5
708
  8
0
  6
CONTINUOUS
 62
     7
 10
3801.29668708
 20
2313.9049743355
 30
0.0
  0
VERTEX
  5
709
  8
0
  6
CONTINUOUS
 62
     7
 10
3799.7841157123
 20
2313.5632577767
 30
0.0
  0
VERTEX
  5
70A
  8
0
  6
CONTINUOUS
 62
     7
 10
3798.2235584014
 20
2312.9551961278
 30
0.0
  0
VERTEX
  5
70B
  8
0
  6
CONTINUOUS
 62
     7
 10
3796.6430867046
 20
2312.0918033271
 30
0.0
  0
VERTEX
  5
70C
  8
0
  6
CONTINUOUS
 62
     7
 10
3795.0711673059
 20
2310.9887016812
 30
0.0
  0
SEQEND
  5
B3D
  8
0
  6
CONTINUOUS
 62
     7
  0
LINE
  5
38E
  8
0
  6
CONTINUOUS
 62
     7
 10
3689.590225391
 20
2228.6182689898
 30
0.0
 11
3795.0711673059
 21
2310.9887016812
 31
0.0
  0
POLYLINE
  5
38F
  8
0
  6
CONTINUOUS
 62
     7
 66
     1
 10
0.0
 20
0.0
 30
0.0
 70
   128
  0
VERTEX
  5
70D
  8
0
  6
CONTINUOUS
 62
     7
 10
3684.6262771357
 20
1453.7947414139
 30
0.0
  0
VERTEX
  5
70E
  8
0
  6
CONTINUOUS
 62
     7
 10
3683.9135058778
 20
1451.6768494344
 30
0.0
  0
VERTEX
  5
70F
  8
0
  6
CONTINUOUS
 62
     7
 10
3683.4128583913
 20
1449.5836437225
 30
0.0
  0
VERTEX
  5
710
  8
0
  6
CONTINUOUS
 62
     7
 10
3683.1340394272
 20
1447.5556927954
 30
0.0
  0
VERTEX
  5
711
  8
0
  6
CONTINUOUS
 62
     7
 10
3683.0824512456
 20
1445.632298136
 30
0.0
  0
VERTEX
  5
712
  8
0
  6
CONTINUOUS
 62
     7
 10
3683.2590970293
 20
1443.8507388083
 30
0.0
  0
VERTEX
  5
713
  8
0
  6
CONTINUOUS
 62
     7
 10
3683.6605501516
 20
1442.2455338121
 30
0.0
  0
VERTEX
  5
714
  8
0
  6
CONTINUOUS
 62
     7
 10
3684.2790310069
 20
1440.8477969491
 30
0.0
  0
VERTEX
  5
715
  8
0
  6
CONTINUOUS
 62
     7
 10
3685.102554085
 20
1439.684617032
 30
0.0
  0
VERTEX
  5
716
  8
0
  6
CONTINUOUS
 62
     7
 10
3686.1151584623
 20
1438.7785369461
 30
0.0
  0
VERTEX
  5
717
  8
0
  6
CONTINUOUS
 62
     7
 10
3687.2972195123
 20
1438.1471201559
 30
0.0
  0
VERTEX
  5
718
  8
0
  6
CONTINUOUS
 62
     7
 10
3688.6258286669
 20
1437.8025919844
 30
0.0
  0
VERTEX
  5
719
  8
0
  6
CONTINUOUS
 62
     7
 10
3690.0752390308
 20
1437.7516456536
 30
0.0
  0
VERTEX
  5
71A
  8
0
  6
CONTINUOUS
 62
     7
 10
3691.6173570955
 20
1437.9952546573
 30
0.0
  0
VERTEX
  5
71B
  8
0
  6
CONTINUOUS
 62
     7
 10
3693.2223003062
 20
1438.528705662
 30
0.0
  0
VERTEX
  5
71C
  8
0
  6
CONTINUOUS
 62
     7
 10
3694.8589612155
 20
1439.341655489
 30
0.0
  0
SEQEND
  5
B3E
  8
0
  6
CONTINUOUS
 62
     7
  0
LINE
  5
390
  8
0
  6
CONTINUOUS
 62
     7
 10
3797.1176250965
 20
1498.3743256017
 30
0.0
 11
3694.8589612155
 21
1439.341655489
 31
0.0
  0
ARC
  5
391
  8
0
  6
CONTINUOUS
 62
     7
 10
3783.4147869163
 20
1519.8939468408
 30
0.0
 40
25.51199467834112
 50
302.4873614202
 51
357.5126261104
  0
LINE
  5
392
  8
0
  6
CONTINUOUS
 62
     7
 10
3808.9027444383
 20
1725.4625520133
 30
0.0
 11
3808.9027444383
 21
1518.7867459453
 31
0.0
  0
POLYLINE
  5
393
  8
0
  6
CONTINUOUS
 62
     7
 66
     1
 10
0.0
 20
0.0
 30
0.0
 70
   128
  0
VERTEX
  5
71D
  8
0
  6
CONTINUOUS
 62
     7
 10
3808.9027444383
 20
1725.4625520133
 30
0.0
  0
VERTEX
  5
71E
  8
0
  6
CONTINUOUS
 62
     7
 10
3808.790660163
 20
1727.2703095667
 30
0.0
  0
VERTEX
  5
71F
  8
0
  6
CONTINUOUS
 62
     7
 10
3808.4565410215
 20
1728.9142588989
 30
0.0
  0
VERTEX
  5
720
  8
0
  6
CONTINUOUS
 62
     7
 10
3807.9067441632
 20
1730.3631291791
 30
0.0
  0
VERTEX
  5
721
  8
0
  6
CONTINUOUS
 62
     7
 10
3807.1517272751
 20
1731.5893957392
 30
0.0
  0
VERTEX
  5
722
  8
0
  6
CONTINUOUS
 62
     7
 10
3806.205855408
 20
1732.5697160903
 30
0.0
  0
VERTEX
  5
723
  8
0
  6
CONTINUOUS
 62
     7
 10
3805.0871112173
 20
1733.2854318555
 30
0.0
  0
VERTEX
  5
724
  8
0
  6
CONTINUOUS
 62
     7
 10
3803.8167788614
 20
1733.7229541005
 30
0.0
  0
VERTEX
  5
725
  8
0
  6
CONTINUOUS
 62
     7
 10
3802.4190225335
 20
1733.8739458846
 30
0.0
  0
VERTEX
  5
726
  8
0
  6
CONTINUOUS
 62
     7
 10
3800.9204210899
 20
1733.7355200248
 30
0.0
  0
VERTEX
  5
727
  8
0
  6
CONTINUOUS
 62
     7
 10
3799.3494938982
 20
1733.3103303952
 30
0.0
  0
VERTEX
  5
728
  8
0
  6
CONTINUOUS
 62
     7
 10
3797.7361125372
 20
1732.6064553787
 30
0.0
  0
VERTEX
  5
729
  8
0
  6
CONTINUOUS
 62
     7
 10
3796.110965181
 20
1731.6372914517
 30
0.0
  0
VERTEX
  5
72A
  8
0
  6
CONTINUOUS
 62
     7
 10
3794.5049682991
 20
1730.4212744035
 30
0.0
  0
VERTEX
  5
72B
  8
0
  6
CONTINUOUS
 62
     7
 10
3792.9486607954
 20
1728.9815295799
 30
0.0
  0
VERTEX
  5
72C
  8
0
  6
CONTINUOUS
 62
     7
 10
3791.4716596118
 20
1727.3454359358
 30
0.0
  0
VERTEX
  5
72D
  8
0
  6
CONTINUOUS
 62
     7
 10
3790.1020450858
 20
1725.5441292568
 30
0.0
  0
VERTEX
  5
72E
  8
0
  6
CONTINUOUS
 62
     7
 10
3788.8658824093
 20
1723.6118406016
 30
0.0
  0
VERTEX
  5
72F
  8
0
  6
CONTINUOUS
 62
     7
 10
3787.7866684502
 20
1721.5853741693
 30
0.0
  0
VERTEX
  5
730
  8
0
  6
CONTINUOUS
 62
     7
 10
3786.8849454069
 20
1719.5032353384
 30
0.0
  0
SEQEND
  5
B3F
  8
0
  6
CONTINUOUS
 62
     7
  0
LINE
  5
394
  8
0
  6
CONTINUOUS
 62
     7
 10
3684.6262771357
 20
1453.7947414139
 30
0.0
 11
3786.8849454069
 21
1719.5032353384
 31
0.0
  0
POLYLINE
  5
395
  8
0
  6
CONTINUOUS
 62
     7
 66
     1
 10
0.0
 20
0.0
 30
0.0
 70
   128
  0
VERTEX
  5
731
  8
0
  6
CONTINUOUS
 62
     7
 10
3697.0462860667
 20
2075.5475440882
 30
0.0
  0
VERTEX
  5
732
  8
0
  6
CONTINUOUS
 62
     7
 10
3696.2831537151
 20
2076.7259111198
 30
0.0
  0
VERTEX
  5
733
  8
0
  6
CONTINUOUS
 62
     7
 10
3695.3375781931
 20
2077.665033366
 30
0.0
  0
VERTEX
  5
734
  8
0
  6
CONTINUOUS
 62
     7
 10
3694.2269055628
 20
2078.3476695054
 30
0.0
  0
VERTEX
  5
735
  8
0
  6
CONTINUOUS
 62
     7
 10
3692.9715133867
 20
2078.7612484418
 30
0.0
  0
VERTEX
  5
736
  8
0
  6
CONTINUOUS
 62
     7
 10
3691.5944265757
 20
2078.8982964668
 30
0.0
  0
VERTEX
  5
737
  8
0
  6
CONTINUOUS
 62
     7
 10
3690.1209090925
 20
2078.7562015547
 30
0.0
  0
VERTEX
  5
738
  8
0
  6
CONTINUOUS
 62
     7
 10
3688.5779897987
 20
2078.3376696846
 30
0.0
  0
VERTEX
  5
739
  8
0
  6
CONTINUOUS
 62
     7
 10
3686.9939729373
 20
2077.6502800155
 30
0.0
  0
VERTEX
  5
73A
  8
0
  6
CONTINUOUS
 62
     7
 10
3685.3979156872
 20
2076.7066699818
 30
0.0
  0
VERTEX
  5
73B
  8
0
  6
CONTINUOUS
 62
     7
 10
3683.8190947419
 20
2075.5242273552
 30
0.0
  0
VERTEX
  5
73C
  8
0
  6
CONTINUOUS
 62
     7
 10
3682.286470694
 20
2074.1245376921
 30
0.0
  0
VERTEX
  5
73D
  8
0
  6
CONTINUOUS
 62
     7
 10
3680.8281611986
 20
2072.5333235465
 30
0.0
  0
VERTEX
  5
73E
  8
0
  6
CONTINUOUS
 62
     7
 10
3679.4709141385
 20
2070.7797347534
 30
0.0
  0
VERTEX
  5
73F
  8
0
  6
CONTINUOUS
 62
     7
 10
3678.2396334719
 20
2068.8959935911
 30
0.0
  0
VERTEX
  5
740
  8
0
  6
CONTINUOUS
 62
     7
 10
3677.1568984949
 20
2066.9166305607
 30
0.0
  0
VERTEX
  5
741
  8
0
  6
CONTINUOUS
 62
     7
 10
3676.2425709097
 20
2064.8780142038
 30
0.0
  0
VERTEX
  5
742
  8
0
  6
CONTINUOUS
 62
     7
 10
3675.5134260401
 20
2062.8174081628
 30
0.0
  0
VERTEX
  5
743
  8
0
  6
CONTINUOUS
 62
     7
 10
3674.9828411204
 20
2060.7727101181
 30
0.0
  0
VERTEX
  5
744
  8
0
  6
CONTINUOUS
 62
     7
 10
3674.6605450479
 20
2058.7814150471
 30
0.0
  0
VERTEX
  5
745
  8
0
  6
CONTINUOUS
 62
     7
 10
3674.5524515523
 20
2056.8800322183
 30
0.0
  0
SEQEND
  5
B40
  8
0
  6
CONTINUOUS
 62
     7
  0
LINE
  5
396
  8
0
  6
CONTINUOUS
 62
     7
 10
3674.5524515523
 20
1561.168484133
 30
0.0
 11
3674.5524515523
 21
2056.8800322183
 31
0.0
  0
POLYLINE
  5
397
  8
0
  6
CONTINUOUS
 62
     7
 66
     1
 10
0.0
 20
0.0
 30
0.0
 70
   128
  0
VERTEX
  5
746
  8
0
  6
CONTINUOUS
 62
     7
 10
3674.5524515523
 20
1561.168484133
 30
0.0
  0
VERTEX
  5
747
  8
0
  6
CONTINUOUS
 62
     7
 10
3674.6645358276
 20
1559.3607265796
 30
0.0
  0
VERTEX
  5
748
  8
0
  6
CONTINUOUS
 62
     7
 10
3674.9986505788
 20
1557.716794992
 30
0.0
  0
VERTEX
  5
749
  8
0
  6
CONTINUOUS
 62
     7
 10
3675.5484474371
 20
1556.2679044328
 30
0.0
  0
VERTEX
  5
74A
  8
0
  6
CONTINUOUS
 62
     7
 10
3676.3034643252
 20
1555.0416378727
 30
0.0
  0
VERTEX
  5
74B
  8
0
  6
CONTINUOUS
 62
     7
 10
3677.2493405826
 20
1554.061320056
 30
0.0
  0
VERTEX
  5
74C
  8
0
  6
CONTINUOUS
 62
     7
 10
3678.3680847733
 20
1553.3456042909
 30
0.0
  0
VERTEX
  5
74D
  8
0
  6
CONTINUOUS
 62
     7
 10
3679.6384171292
 20
1552.9080820459
 30
0.0
  0
VERTEX
  5
74E
  8
0
  6
CONTINUOUS
 62
     7
 10
3681.0361756523
 20
1552.7571118079
 30
0.0
  0
VERTEX
  5
74F
  8
0
  6
CONTINUOUS
 62
     7
 10
3682.5347705104
 20
1552.8955135871
 30
0.0
  0
VERTEX
  5
750
  8
0
  6
CONTINUOUS
 62
     7
 10
3684.1056998973
 20
1553.3207044839
 30
0.0
  0
VERTEX
  5
751
  8
0
  6
CONTINUOUS
 62
     7
 10
3685.7190834534
 20
1554.0245807677
 30
0.0
  0
VERTEX
  5
752
  8
0
  6
CONTINUOUS
 62
     7
 10
3687.3442286145
 20
1554.9937434274
 30
0.0
  0
VERTEX
  5
753
  8
0
  6
CONTINUOUS
 62
     7
 10
3688.9502276915
 20
1556.2097617429
 30
0.0
  0
VERTEX
  5
754
  8
0
  6
CONTINUOUS
 62
     7
 10
3690.5065308049
 20
1557.6495040319
 30
0.0
  0
VERTEX
  5
755
  8
0
  6
CONTINUOUS
 62
     7
 10
3691.9835341837
 20
1559.2855989433
 30
0.0
  0
VERTEX
  5
756
  8
0
  6
CONTINUOUS
 62
     7
 10
3693.3531465145
 20
1561.0869246341
 30
0.0
  0
VERTEX
  5
757
  8
0
  6
CONTINUOUS
 62
     7
 10
3694.5893135813
 20
1563.0191955447
 30
0.0
  0
VERTEX
  5
758
  8
0
  6
CONTINUOUS
 62
     7
 10
3695.6685231501
 20
1565.0456594426
 30
0.0
  0
VERTEX
  5
759
  8
0
  6
CONTINUOUS
 62
     7
 10
3696.5702483885
 20
1567.1277995407
 30
0.0
  0
SEQEND
  5
B41
  8
0
  6
CONTINUOUS
 62
     7
  0
LINE
  5
398
  8
0
  6
CONTINUOUS
 62
     7
 10
3805.8967785189
 20
1851.2013883075
 30
0.0
 11
3696.5702483885
 21
1567.1277995407
 31
0.0
  0
POLYLINE
  5
399
  8
0
  6
CONTINUOUS
 62
     7
 66
     1
 10
0.0
 20
0.0
 30
0.0
 70
   128
  0
VERTEX
  5
75A
  8
0
  6
CONTINUOUS
 62
     7
 10
3805.8967785189
 20
1851.2013883075
 30
0.0
  0
VERTEX
  5
75B
  8
0
  6
CONTINUOUS
 62
     7
 10
3806.5172415932
 20
1853.0067247585
 30
0.0
  0
VERTEX
  5
75C
  8
0
  6
CONTINUOUS
 62
     7
 10
3806.9848959998
 20
1854.7985139598
 30
0.0
  0
VERTEX
  5
75D
  8
0
  6
CONTINUOUS
 62
     7
 10
3807.2931650743
 20
1856.5515446488
 30
0.0
  0
VERTEX
  5
75E
  8
0
  6
CONTINUOUS
 62
     7
 10
3807.4377024229
 20
1858.2411224683
 30
0.0
  0
VERTEX
  5
75F
  8
0
  6
CONTINUOUS
 62
     7
 10
3807.4164797285
 20
1859.8434856783
 30
0.0
  0
VERTEX
  5
760
  8
0
  6
CONTINUOUS
 62
     7
 10
3807.2297867508
 20
1861.3360485036
 30
0.0
  0
VERTEX
  5
761
  8
0
  6
CONTINUOUS
 62
     7
 10
3806.8802576678
 20
1862.6978219212
 30
0.0
  0
VERTEX
  5
762
  8
0
  6
CONTINUOUS
 62
     7
 10
3806.3728183923
 20
1863.9095860369
 30
0.0
  0
SEQEND
  5
B42
  8
0
  6
CONTINUOUS
 62
     7
  0
LINE
  5
39A
  8
0
  6
CONTINUOUS
 62
     7
 10
3697.0462860667
 20
2075.5475440882
 30
0.0
 11
3806.3728183923
 21
1863.9095860369
 31
0.0
  0
LINE
  5
39B
  8
0
  6
CONTINUOUS
 62
     7
 10
3623.6407663766
 20
1361.7531909179
 30
0.0
 11
3629.0012484268
 21
1358.6586504994
 31
0.0
  0
ARC
  5
39C
  8
0
  6
CONTINUOUS
 62
     7
 10
3643.7308208755
 20
2256.6477045818
 30
0.0
 40
5.014320573833374
 50
302.4640981355
 51
358.3165277802
  0
ARC
  5
39D
  8
0
  6
CONTINUOUS
 62
     7
 10
3624.2634571241
 20
1363.1275158855
 30
0.0
 40
1.508811745636408
 50
185.6949502672
 51
245.6252695909
  0
ARC
  5
39E
  8
0
  6
CONTINUOUS
 62
     7
 10
3829.4687753809
 20
2401.7023634468
 30
0.0
 40
5.010519650942781
 50
301.9389201681
 51
358.0665017155
  0
LINE
  5
39F
  8
0
  6
CONTINUOUS
 62
     7
 10
3801.4781292628
 20
2313.9282590591
 30
0.0
 11
3801.4781292628
 21
2234.1408169781
 31
0.0
  0
LINE
  5
3A0
  8
0
  6
CONTINUOUS
 62
     7
 10
3801.4781292628
 20
2234.1408169781
 30
0.0
 11
3798.5318538177
 21
2232.4394154508
 31
0.0
  0
LINE
  5
3A1
  8
0
  6
CONTINUOUS
 62
     7
 10
3796.5283858125
 20
2233.5959929117
 30
0.0
 11
3798.5318538177
 21
2232.4394154508
 31
0.0
  0
LINE
  5
3A2
  8
0
  6
CONTINUOUS
 62
     7
 10
3802.4209367028
 20
2234.6850881281
 30
0.0
 11
3801.4781292628
 21
2234.1408169781
 31
0.0
  0
LINE
  5
3A3
  8
0
  6
CONTINUOUS
 62
     7
 10
3802.4209367028
 20
2313.982589317
 30
0.0
 11
3802.4209367028
 21
2234.6850881281
 31
0.0
  0
ARC
  5
3A4
  8
0
  6
CONTINUOUS
 62
     7
 10
3797.1510731255
 20
2234.9703243209
 30
0.0
 40
1.508816195544773
 50
185.6945989117
 51
245.6254893395
  0
LINE
  5
3A5
  8
0
  6
CONTINUOUS
 62
     7
 10
3807.9599457789
 20
2241.5559749541
 30
0.0
 11
3802.4209367028
 21
2238.3583730774
 31
0.0
  0
POLYLINE
  5
3A6
  8
0
  6
CONTINUOUS
 62
     7
 66
     1
 10
0.0
 20
0.0
 30
0.0
 70
   128
  0
VERTEX
  5
763
  8
0
  6
CONTINUOUS
 62
     7
 10
3804.9655439011
 20
2313.4509789806
 30
0.0
  0
VERTEX
  5
764
  8
0
  6
CONTINUOUS
 62
     7
 10
3805.402870138
 20
2313.1039944949
 30
0.0
  0
VERTEX
  5
765
  8
0
  6
CONTINUOUS
 62
     7
 10
3806.3010019185
 20
2312.1199624948
 30
0.0
  0
VERTEX
  5
766
  8
0
  6
CONTINUOUS
 62
     7
 10
3807.0168837017
 20
2310.90531441
 30
0.0
  0
VERTEX
  5
767
  8
0
  6
CONTINUOUS
 62
     7
 10
3807.5376343568
 20
2309.4821403615
 30
0.0
  0
VERTEX
  5
768
  8
0
  6
CONTINUOUS
 62
     7
 10
3807.8538849907
 20
2307.8758558982
 30
0.0
  0
VERTEX
  5
769
  8
0
  6
CONTINUOUS
 62
     7
 10
3807.9599369983
 20
2306.1154554699
 30
0.0
  0
SEQEND
  5
B43
  8
0
  6
CONTINUOUS
 62
     7
  0
LINE
  5
3A7
  8
0
  6
CONTINUOUS
 62
     7
 10
3807.9599369983
 20
2306.1154554699
 30
0.0
 11
3807.9599369983
 21
2019.5515017552
 31
0.0
  0
ARC
  5
3A8
  8
0
  6
CONTINUOUS
 62
     7
 10
3690.5331641902
 20
2073.3412127623
 30
0.0
 40
6.212424398144833
 50
26.2800045147
 51
53.9915283313
  0
LINE
  5
3A9
  8
0
  6
CONTINUOUS
 62
     7
 10
3696.1034786267
 20
2076.0918152382
 30
0.0
 11
3805.4300109523
 21
1864.4538571869
 31
0.0
  0
LINE
  5
3AA
  8
0
  6
CONTINUOUS
 62
     7
 10
3798.5318538177
 20
2232.4394154508
 30
0.0
 11
3799.4746612577
 21
2232.9836866008
 31
0.0
  0
LINE
  5
3AB
  8
0
  6
CONTINUOUS
 62
     7
 10
3799.4746612577
 20
2232.9836866008
 30
0.0
 11
3802.4209367028
 21
2234.6850881281
 31
0.0
  0
POLYLINE
  5
3AC
  8
0
  6
CONTINUOUS
 62
     7
 66
     1
 10
0.0
 20
0.0
 30
0.0
 70
   128
  0
VERTEX
  5
76A
  8
0
  6
CONTINUOUS
 62
     7
 10
3807.9599369983
 20
2019.5515017552
 30
0.0
  0
VERTEX
  5
76B
  8
0
  6
CONTINUOUS
 62
     7
 10
3807.8518391125
 20
2017.6501163919
 30
0.0
  0
VERTEX
  5
76C
  8
0
  6
CONTINUOUS
 62
     7
 10
3807.5295474303
 20
2015.6588238554
 30
0.0
  0
VERTEX
  5
76D
  8
0
  6
CONTINUOUS
 62
     7
 10
3806.9989625105
 20
2013.6141258107
 30
0.0
  0
VERTEX
  5
76E
  8
0
  6
CONTINUOUS
 62
     7
 10
3806.2698132506
 20
2011.5535577933
 30
0.0
  0
VERTEX
  5
76F
  8
0
  6
CONTINUOUS
 62
     7
 10
3805.3554900558
 20
2009.5149034128
 30
0.0
  0
VERTEX
  5
770
  8
0
  6
CONTINUOUS
 62
     7
 10
3804.2727550787
 20
2007.5355403824
 30
0.0
  0
VERTEX
  5
771
  8
0
  6
CONTINUOUS
 62
     7
 10
3803.0414700218
 20
2005.6517966856
 30
0.0
  0
VERTEX
  5
772
  8
0
  6
CONTINUOUS
 62
     7
 10
3801.6842273521
 20
2003.898250985
 30
0.0
  0
VERTEX
  5
773
  8
0
  6
CONTINUOUS
 62
     7
 10
3800.2259200518
 20
2002.3070381066
 30
0.0
  0
VERTEX
  5
774
  8
0
  6
CONTINUOUS
 62
     7
 10
3798.6932938087
 20
2000.9073471764
 30
0.0
  0
VERTEX
  5
775
  8
0
  6
CONTINUOUS
 62
     7
 10
3797.1144728635
 20
1999.7248639917
 30
0.0
  0
VERTEX
  5
776
  8
0
  6
CONTINUOUS
 62
     7
 10
3795.5184156133
 20
1998.7812539579
 30
0.0
  0
VERTEX
  5
777
  8
0
  6
CONTINUOUS
 62
     7
 10
3793.9343965568
 20
1998.0939035797
 30
0.0
  0
VERTEX
  5
778
  8
0
  6
CONTINUOUS
 62
     7
 10
3792.3914794581
 20
1997.6753324188
 30
0.0
  0
VERTEX
  5
779
  8
0
  6
CONTINUOUS
 62
     7
 10
3790.9179553894
 20
1997.533233705
 30
0.0
  0
VERTEX
  5
77A
  8
0
  6
CONTINUOUS
 62
     7
 10
3789.5408773591
 20
1997.6702867989
 30
0.0
  0
VERTEX
  5
77B
  8
0
  6
CONTINUOUS
 62
     7
 10
3788.3269120228
 20
1998.0649111129
 30
0.0
  0
SEQEND
  5
B44
  8
0
  6
CONTINUOUS
 62
     7
  0
LINE
  5
3AD
  8
0
  6
CONTINUOUS
 62
     7
 10
3801.4781292628
 20
2100.7724979976
 30
0.0
 11
3802.4209367028
 21
2101.3167691476
 31
0.0
  0
LINE
  5
3AE
  8
0
  6
CONTINUOUS
 62
     7
 10
3798.5318538177
 20
2105.8756373047
 30
0.0
 11
3801.4781292628
 21
2100.7724979976
 31
0.0
  0
LINE
  5
3AF
  8
0
  6
CONTINUOUS
 62
     7
 10
3799.4746612577
 20
2106.4199084547
 30
0.0
 11
3798.5318538177
 21
2105.8756373047
 31
0.0
  0
LINE
  5
3B0
  8
0
  6
CONTINUOUS
 62
     7
 10
3802.4209367028
 20
2101.3167691476
 30
0.0
 11
3799.4746612577
 21
2106.4199084547
 31
0.0
  0
LINE
  5
3B1
  8
0
  6
CONTINUOUS
 62
     7
 10
3801.4781292628
 20
2100.7724979976
 30
0.0
 11
3801.4781292628
 21
2003.6563575962
 31
0.0
  0
LINE
  5
3B2
  8
0
  6
CONTINUOUS
 62
     7
 10
3798.5318538177
 20
2105.8756373047
 30
0.0
 11
3796.5283858125
 21
2107.0322147657
 31
0.0
  0
LINE
  5
3B3
  8
0
  6
CONTINUOUS
 62
     7
 10
3802.4209367028
 20
2101.3167691476
 30
0.0
 11
3802.4209367028
 21
2004.8134604415
 31
0.0
  0
LINE
  5
3B4
  8
0
  6
CONTINUOUS
 62
     7
 10
3799.4746612577
 20
2106.4199084547
 30
0.0
 11
3797.4711932525
 21
2107.5764859156
 31
0.0
  0
ARC
  5
3B5
  8
0
  6
CONTINUOUS
 62
     7
 10
3796.9931627183
 20
2108.2568273876
 30
0.0
 40
1.309844893826605
 50
110.783243025
 51
249.216756975
  0
ARC
  5
3B6
  8
0
  6
CONTINUOUS
 62
     7
 10
3797.7294028059
 20
2108.2568273876
 30
0.0
 40
0.7276927180385688
 50
110.7832234264
 51
249.2167765736
  0
LINE
  5
3B7
  8
0
  6
CONTINUOUS
 62
     7
 10
3797.4711932525
 20
2108.9371688595
 30
0.0
 11
3807.9599457789
 21
2114.9921968081
 31
0.0
  0
LINE
  5
3B8
  8
0
  6
CONTINUOUS
 62
     7
 10
3796.5283858125
 20
2109.4814400095
 30
0.0
 11
3807.9599457789
 21
2116.080739108
 31
0.0
  0
LINE
  5
3B9
  8
0
  6
CONTINUOUS
 62
     7
 10
3804.9539710789
 20
1851.7456594575
 30
0.0
 11
3695.6274409485
 21
1567.6720706907
 31
0.0
  0
POLYLINE
  5
3BA
  8
0
  6
CONTINUOUS
 62
     7
 66
     1
 10
0.0
 20
0.0
 30
0.0
 70
   128
  0
VERTEX
  5
77C
  8
0
  6
CONTINUOUS
 62
     7
 10
3805.4300109523
 20
1864.4538571869
 30
0.0
  0
VERTEX
  5
77D
  8
0
  6
CONTINUOUS
 62
     7
 10
3805.9374502278
 20
1863.2420930712
 30
0.0
  0
VERTEX
  5
77E
  8
0
  6
CONTINUOUS
 62
     7
 10
3806.2869793108
 20
1861.8803196535
 30
0.0
  0
VERTEX
  5
77F
  8
0
  6
CONTINUOUS
 62
     7
 10
3806.4736722885
 20
1860.3877568283
 30
0.0
  0
VERTEX
  5
780
  8
0
  6
CONTINUOUS
 62
     7
 10
3806.4948949829
 20
1858.7853936183
 30
0.0
  0
VERTEX
  5
781
  8
0
  6
CONTINUOUS
 62
     7
 10
3806.3503576343
 20
1857.0958157988
 30
0.0
  0
VERTEX
  5
782
  8
0
  6
CONTINUOUS
 62
     7
 10
3806.0420885598
 20
1855.3427851098
 30
0.0
  0
VERTEX
  5
783
  8
0
  6
CONTINUOUS
 62
     7
 10
3805.5744341532
 20
1853.5509959085
 30
0.0
  0
VERTEX
  5
784
  8
0
  6
CONTINUOUS
 62
     7
 10
3804.9539710789
 20
1851.7456594575
 30
0.0
  0
SEQEND
  5
B45
  8
0
  6
CONTINUOUS
 62
     7
  0
POLYLINE
  5
3BB
  8
0
  6
CONTINUOUS
 62
     7
 66
     1
 10
0.0
 20
0.0
 30
0.0
 70
   128
  0
VERTEX
  5
785
  8
0
  6
CONTINUOUS
 62
     7
 10
3695.6274409485
 20
1567.6720706907
 30
0.0
  0
VERTEX
  5
786
  8
0
  6
CONTINUOUS
 62
     7
 10
3694.7257157101
 20
1565.5899305925
 30
0.0
  0
VERTEX
  5
787
  8
0
  6
CONTINUOUS
 62
     7
 10
3693.6465061413
 20
1563.5634666947
 30
0.0
  0
VERTEX
  5
788
  8
0
  6
CONTINUOUS
 62
     7
 10
3692.4103390745
 20
1561.6311957841
 30
0.0
  0
VERTEX
  5
789
  8
0
  6
CONTINUOUS
 62
     7
 10
3691.0407267437
 20
1559.8298700933
 30
0.0
  0
VERTEX
  5
78A
  8
0
  6
CONTINUOUS
 62
     7
 10
3689.5637233649
 20
1558.1937751819
 30
0.0
  0
VERTEX
  5
78B
  8
0
  6
CONTINUOUS
 62
     7
 10
3688.0074202515
 20
1556.7540328928
 30
0.0
  0
VERTEX
  5
78C
  8
0
  6
CONTINUOUS
 62
     7
 10
3686.4014211745
 20
1555.5380145774
 30
0.0
  0
VERTEX
  5
78D
  8
0
  6
CONTINUOUS
 62
     7
 10
3684.7762760134
 20
1554.5688519176
 30
0.0
  0
VERTEX
  5
78E
  8
0
  6
CONTINUOUS
 62
     7
 10
3683.1628924573
 20
1553.8649756338
 30
0.0
  0
VERTEX
  5
78F
  8
0
  6
CONTINUOUS
 62
     7
 10
3681.5919630704
 20
1553.439784737
 30
0.0
  0
VERTEX
  5
790
  8
0
  6
CONTINUOUS
 62
     7
 10
3680.0933682123
 20
1553.3013829579
 30
0.0
  0
VERTEX
  5
791
  8
0
  6
CONTINUOUS
 62
     7
 10
3678.6956096892
 20
1553.4523531959
 30
0.0
  0
VERTEX
  5
792
  8
0
  6
CONTINUOUS
 62
     7
 10
3677.5468490398
 20
1553.8329687348
 30
0.0
  0
SEQEND
  5
B46
  8
0
  6
CONTINUOUS
 62
     7
  0
POLYLINE
  5
3BC
  8
0
  6
CONTINUOUS
 62
     7
 66
     1
 10
0.0
 20
0.0
 30
0.0
 70
   128
  0
VERTEX
  5
793
  8
0
  6
CONTINUOUS
 62
     7
 10
3804.9655439011
 20
1733.342326395
 30
0.0
  0
VERTEX
  5
794
  8
0
  6
CONTINUOUS
 62
     7
 10
3805.263047968
 20
1733.1139872403
 30
0.0
  0
VERTEX
  5
795
  8
0
  6
CONTINUOUS
 62
     7
 10
3806.2089198351
 20
1732.1336668892
 30
0.0
  0
VERTEX
  5
796
  8
0
  6
CONTINUOUS
 62
     7
 10
3806.9639367232
 20
1730.9074003291
 30
0.0
  0
VERTEX
  5
797
  8
0
  6
CONTINUOUS
 62
     7
 10
3807.5137335815
 20
1729.4585300488
 30
0.0
  0
VERTEX
  5
798
  8
0
  6
CONTINUOUS
 62
     7
 10
3807.847852723
 20
1727.8145807167
 30
0.0
  0
VERTEX
  5
799
  8
0
  6
CONTINUOUS
 62
     7
 10
3807.9599369983
 20
1726.0068231633
 30
0.0
  0
SEQEND
  5
B47
  8
0
  6
CONTINUOUS
 62
     7
  0
LINE
  5
3BD
  8
0
  6
CONTINUOUS
 62
     7
 10
3807.9599369983
 20
1726.0068231633
 30
0.0
 11
3807.9599369983
 21
1519.3310170953
 31
0.0
  0
LINE
  5
3BE
  8
0
  6
CONTINUOUS
 62
     7
 10
3801.4781292628
 20
1733.8196267524
 30
0.0
 11
3801.4781292628
 21
1503.43590082
 31
0.0
  0
LINE
  5
3BF
  8
0
  6
CONTINUOUS
 62
     7
 10
3802.4209367028
 20
1733.8739164524
 30
0.0
 11
3802.4209367028
 21
1504.5929985955
 31
0.0
  0
POLYLINE
  5
3C0
  8
0
  6
CONTINUOUS
 62
     7
 66
     1
 10
0.0
 20
0.0
 30
0.0
 70
   128
  0
VERTEX
  5
79A
  8
0
  6
CONTINUOUS
 62
     7
 10
3693.9161537755
 20
1439.8859266389
 30
0.0
  0
VERTEX
  5
79B
  8
0
  6
CONTINUOUS
 62
     7
 10
3692.2794928662
 20
1439.072976812
 30
0.0
  0
VERTEX
  5
79C
  8
0
  6
CONTINUOUS
 62
     7
 10
3690.6745496555
 20
1438.5395258073
 30
0.0
  0
VERTEX
  5
79D
  8
0
  6
CONTINUOUS
 62
     7
 10
3689.1324315908
 20
1438.2959168036
 30
0.0
  0
VERTEX
  5
79E
  8
0
  6
CONTINUOUS
 62
     7
 10
3687.6830212269
 20
1438.3468631344
 30
0.0
  0
VERTEX
  5
79F
  8
0
  6
CONTINUOUS
 62
     7
 10
3686.3544120723
 20
1438.6913913058
 30
0.0
  0
VERTEX
  5
7A0
  8
0
  6
CONTINUOUS
 62
     7
 10
3686.0682437515
 20
1438.8117639453
 30
0.0
  0
SEQEND
  5
B48
  8
0
  6
CONTINUOUS
 62
     7
  0
ARC
  5
3C1
  8
0
  6
CONTINUOUS
 62
     7
 10
3643.9211549516
 20
1367.259308094
 30
0.0
 40
5.58853292359723
 50
317.6790963514
 51
342.3263676658
  0
LINE
  5
3C2
  8
0
  6
CONTINUOUS
 62
     7
 10
3796.1748176565
 20
1498.9185967517
 30
0.0
 11
3693.9161537755
 21
1439.8859266389
 31
0.0
  0
ARC
  5
3C3
  8
0
  6
CONTINUOUS
 62
     7
 10
3782.4721858283
 20
1520.4380988533
 30
0.0
 40
25.51178335045453
 50
302.4871142196
 51
357.512873311
  0
ARC
  5
3C4
  8
0
  6
CONTINUOUS
 62
     7
 10
3829.5366810214
 20
1474.4128692881
 30
0.0
 40
5.58853457716873
 50
317.6791839767
 51
342.3264018148
  0
LINE
  5
3C5
  8
0
  6
CONTINUOUS
 62
     7
 10
3144.6937878217
 20
1671.1718567099
 30
0.0
 11
3319.1134627622
 21
1771.862191799
 31
0.0
  0
POLYLINE
  5
3C6
  8
0
  6
CONTINUOUS
 62
     7
 66
     1
 10
0.0
 20
0.0
 30
0.0
 70
   128
  0
VERTEX
  5
7A1
  8
0
  6
CONTINUOUS
 62
     7
 10
3308.2711508604
 20
1772.6117011048
 30
0.0
  0
VERTEX
  5
7A2
  8
0
  6
CONTINUOUS
 62
     7
 10
3308.3758682177
 20
1773.4744174173
 30
0.0
  0
VERTEX
  5
7A3
  8
0
  6
CONTINUOUS
 62
     7
 10
3308.6807128608
 20
1774.3813814962
 30
0.0
  0
VERTEX
  5
7A4
  8
0
  6
CONTINUOUS
 62
     7
 10
3309.1585966587
 20
1775.2520032934
 30
0.0
  0
VERTEX
  5
7A5
  8
0
  6
CONTINUOUS
 62
     7
 10
3309.7670566617
 20
1776.008923636
 30
0.0
  0
VERTEX
  5
7A6
  8
0
  6
CONTINUOUS
 62
     7
 10
3310.4520395366
 20
1776.5848922578
 30
0.0
  0
VERTEX
  5
7A7
  8
0
  6
CONTINUOUS
 62
     7
 10
3311.1526606483
 20
1776.9287217776
 30
0.0
  0
VERTEX
  5
7A8
  8
0
  6
CONTINUOUS
 62
     7
 10
3311.8066919313
 20
1777.0098753097
 30
0.0
  0
VERTEX
  5
7A9
  8
0
  6
CONTINUOUS
 62
     7
 10
3312.3559970763
 20
1776.8211275746
 30
0.0
  0
VERTEX
  5
7AA
  8
0
  6
CONTINUOUS
 62
     7
 10
3312.7517823256
 20
1776.3792602296
 30
0.0
  0
VERTEX
  5
7AB
  8
0
  6
CONTINUOUS
 62
     7
 10
3312.9588726218
 20
1775.7235278675
 30
0.0
  0
VERTEX
  5
7AC
  8
0
  6
CONTINUOUS
 62
     7
 10
3312.9588726218
 20
1774.9122014158
 30
0.0
  0
VERTEX
  5
7AD
  8
0
  6
CONTINUOUS
 62
     7
 10
3312.7517823256
 20
1774.0173683206
 30
0.0
  0
VERTEX
  5
7AE
  8
0
  6
CONTINUOUS
 62
     7
 10
3312.3559970763
 20
1773.1185357861
 30
0.0
  0
VERTEX
  5
7AF
  8
0
  6
CONTINUOUS
 62
     7
 10
3311.8066919313
 20
1772.295574464
 30
0.0
  0
VERTEX
  5
7B0
  8
0
  6
CONTINUOUS
 62
     7
 10
3311.1526606483
 20
1771.6215995501
 30
0.0
  0
VERTEX
  5
7B1
  8
0
  6
CONTINUOUS
 62
     7
 10
3310.4520395366
 20
1771.1565085189
 30
0.0
  0
VERTEX
  5
7B2
  8
0
  6
CONTINUOUS
 62
     7
 10
3309.7670566617
 20
1770.941614015
 30
0.0
  0
VERTEX
  5
7B3
  8
0
  6
CONTINUOUS
 62
     7
 10
3309.1585966587
 20
1770.9960207578
 30
0.0
  0
VERTEX
  5
7B4
  8
0
  6
CONTINUOUS
 62
     7
 10
3308.6807128608
 20
1771.3148896662
 30
0.0
  0
VERTEX
  5
7B5
  8
0
  6
CONTINUOUS
 62
     7
 10
3308.3758682177
 20
1771.8698876121
 30
0.0
  0
VERTEX
  5
7B6
  8
0
  6
CONTINUOUS
 62
     7
 10
3308.2711508604
 20
1772.6117011048
 30
0.0
  0
SEQEND
  5
B49
  8
0
  6
CONTINUOUS
 62
     7
  0
LINE
  5
3C7
  8
0
  6
CONTINUOUS
 62
     7
 10
3263.3856045235
 20
2302.2746004503
 30
0.0
 11
3196.4516686653
 21
2431.8475554355
 31
0.0
  0
POLYLINE
  5
3C8
  8
0
  6
CONTINUOUS
 62
     7
 66
     1
 10
0.0
 20
0.0
 30
0.0
 70
   128
  0
VERTEX
  5
7B7
  8
0
  6
CONTINUOUS
 62
     7
 10
3285.8794434282
 20
2320.9421554127
 30
0.0
  0
VERTEX
  5
7B8
  8
0
  6
CONTINUOUS
 62
     7
 10
3285.7713455424
 20
2319.0407700495
 30
0.0
  0
VERTEX
  5
7B9
  8
0
  6
CONTINUOUS
 62
     7
 10
3285.4490538602
 20
2317.049477513
 30
0.0
  0
VERTEX
  5
7BA
  8
0
  6
CONTINUOUS
 62
     7
 10
3284.9184689404
 20
2315.0047794683
 30
0.0
  0
VERTEX
  5
7BB
  8
0
  6
CONTINUOUS
 62
     7
 10
3284.1893196806
 20
2312.9442114508
 30
0.0
  0
VERTEX
  5
7BC
  8
0
  6
CONTINUOUS
 62
     7
 10
3283.2749964857
 20
2310.9055570703
 30
0.0
  0
VERTEX
  5
7BD
  8
0
  6
CONTINUOUS
 62
     7
 10
3282.1922615086
 20
2308.9261940399
 30
0.0
  0
VERTEX
  5
7BE
  8
0
  6
CONTINUOUS
 62
     7
 10
3280.9609764518
 20
2307.0424503431
 30
0.0
  0
VERTEX
  5
7BF
  8
0
  6
CONTINUOUS
 62
     7
 10
3279.603733782
 20
2305.2889046425
 30
0.0
  0
VERTEX
  5
7C0
  8
0
  6
CONTINUOUS
 62
     7
 10
3278.1454264817
 20
2303.6976917642
 30
0.0
  0
VERTEX
  5
7C1
  8
0
  6
CONTINUOUS
 62
     7
 10
3276.6128002386
 20
2302.2980008339
 30
0.0
  0
VERTEX
  5
7C2
  8
0
  6
CONTINUOUS
 62
     7
 10
3275.0339792934
 20
2301.1155176492
 30
0.0
  0
VERTEX
  5
7C3
  8
0
  6
CONTINUOUS
 62
     7
 10
3273.4379220433
 20
2300.1719076155
 30
0.0
  0
VERTEX
  5
7C4
  8
0
  6
CONTINUOUS
 62
     7
 10
3271.8539029867
 20
2299.4845572373
 30
0.0
  0
VERTEX
  5
7C5
  8
0
  6
CONTINUOUS
 62
     7
 10
3270.3109858881
 20
2299.0659860763
 30
0.0
  0
VERTEX
  5
7C6
  8
0
  6
CONTINUOUS
 62
     7
 10
3268.8374618194
 20
2298.9238873625
 30
0.0
  0
VERTEX
  5
7C7
  8
0
  6
CONTINUOUS
 62
     7
 10
3267.460383789
 20
2299.0609404565
 30
0.0
  0
VERTEX
  5
7C8
  8
0
  6
CONTINUOUS
 62
     7
 10
3266.2049872226
 20
2299.4745574164
 30
0.0
  0
VERTEX
  5
7C9
  8
0
  6
CONTINUOUS
 62
     7
 10
3265.0943167875
 20
2300.1571542651
 30
0.0
  0
VERTEX
  5
7CA
  8
0
  6
CONTINUOUS
 62
     7
 10
3264.1487390703
 20
2301.096275244
 30
0.0
  0
VERTEX
  5
7CB
  8
0
  6
CONTINUOUS
 62
     7
 10
3263.3856045235
 20
2302.2746004503
 30
0.0
  0
SEQEND
  5
B4A
  8
0
  6
CONTINUOUS
 62
     7
  0
LINE
  5
3C9
  8
0
  6
CONTINUOUS
 62
     7
 10
3285.8794434282
 20
2380.222042614
 30
0.0
 11
3285.8794434282
 21
2320.9421554127
 31
0.0
  0
POLYLINE
  5
3CA
  8
0
  6
CONTINUOUS
 62
     7
 66
     1
 10
0.0
 20
0.0
 30
0.0
 70
   128
  0
VERTEX
  5
7CC
  8
0
  6
CONTINUOUS
 62
     7
 10
3263.8616443969
 20
2021.4381601459
 30
0.0
  0
VERTEX
  5
7CD
  8
0
  6
CONTINUOUS
 62
     7
 10
3264.7633674402
 20
2023.5202989768
 30
0.0
  0
VERTEX
  5
7CE
  8
0
  6
CONTINUOUS
 62
     7
 10
3265.8425813993
 20
2025.5467654091
 30
0.0
  0
VERTEX
  5
7CF
  8
0
  6
CONTINUOUS
 62
     7
 10
3267.0787440758
 20
2027.4790540643
 30
0.0
  0
VERTEX
  5
7D0
  8
0
  6
CONTINUOUS
 62
     7
 10
3268.4483586017
 20
2029.2803607433
 30
0.0
  0
VERTEX
  5
7D1
  8
0
  6
CONTINUOUS
 62
     7
 10
3269.9253597854
 20
2030.9164543874
 30
0.0
  0
VERTEX
  5
7D2
  8
0
  6
CONTINUOUS
 62
     7
 10
3271.481667289
 20
2032.356199211
 30
0.0
  0
VERTEX
  5
7D3
  8
0
  6
CONTINUOUS
 62
     7
 10
3273.0876641709
 20
2033.5722162592
 30
0.0
  0
VERTEX
  5
7D4
  8
0
  6
CONTINUOUS
 62
     7
 10
3274.7128115272
 20
2034.5413801862
 30
0.0
  0
VERTEX
  5
7D5
  8
0
  6
CONTINUOUS
 62
     7
 10
3276.3261928881
 20
2035.2452552028
 30
0.0
  0
VERTEX
  5
7D6
  8
0
  6
CONTINUOUS
 62
     7
 10
3277.8971200799
 20
2035.6704448323
 30
0.0
  0
VERTEX
  5
7D7
  8
0
  6
CONTINUOUS
 62
     7
 10
3279.3957215234
 20
2035.8088706922
 30
0.0
  0
VERTEX
  5
7D8
  8
0
  6
CONTINUOUS
 62
     7
 10
3280.7934778513
 20
2035.657878908
 30
0.0
  0
VERTEX
  5
7D9
  8
0
  6
CONTINUOUS
 62
     7
 10
3282.0638102072
 20
2035.220356663
 30
0.0
  0
VERTEX
  5
7DA
  8
0
  6
CONTINUOUS
 62
     7
 10
3283.182554398
 20
2034.5046408978
 30
0.0
  0
VERTEX
  5
7DB
  8
0
  6
CONTINUOUS
 62
     7
 10
3284.1284262651
 20
2033.5243205467
 30
0.0
  0
VERTEX
  5
7DC
  8
0
  6
CONTINUOUS
 62
     7
 10
3284.8834431532
 20
2032.2980539866
 30
0.0
  0
VERTEX
  5
7DD
  8
0
  6
CONTINUOUS
 62
     7
 10
3285.4332400114
 20
2030.8491837064
 30
0.0
  0
VERTEX
  5
7DE
  8
0
  6
CONTINUOUS
 62
     7
 10
3285.767359153
 20
2029.2052343743
 30
0.0
  0
VERTEX
  5
7DF
  8
0
  6
CONTINUOUS
 62
     7
 10
3285.8794434282
 20
2027.3974768208
 30
0.0
  0
SEQEND
  5
B4B
  8
0
  6
CONTINUOUS
 62
     7
  0
LINE
  5
3CB
  8
0
  6
CONTINUOUS
 62
     7
 10
3161.6029761256
 20
1755.7296662214
 30
0.0
 11
3263.8616443969
 21
2021.4381601459
 31
0.0
  0
POLYLINE
  5
3CC
  8
0
  6
CONTINUOUS
 62
     7
 66
     1
 10
0.0
 20
0.0
 30
0.0
 70
   128
  0
VERTEX
  5
7E0
  8
0
  6
CONTINUOUS
 62
     7
 10
3171.8356602055
 20
1741.2765802965
 30
0.0
  0
VERTEX
  5
7E1
  8
0
  6
CONTINUOUS
 62
     7
 10
3170.1989992961
 20
1740.4636304695
 30
0.0
  0
VERTEX
  5
7E2
  8
0
  6
CONTINUOUS
 62
     7
 10
3168.5940560854
 20
1739.9301794648
 30
0.0
  0
VERTEX
  5
7E3
  8
0
  6
CONTINUOUS
 62
     7
 10
3167.0519380208
 20
1739.6865704612
 30
0.0
  0
VERTEX
  5
7E4
  8
0
  6
CONTINUOUS
 62
     7
 10
3165.6025276568
 20
1739.7375167919
 30
0.0
  0
VERTEX
  5
7E5
  8
0
  6
CONTINUOUS
 62
     7
 10
3164.2739185023
 20
1740.0820449634
 30
0.0
  0
VERTEX
  5
7E6
  8
0
  6
CONTINUOUS
 62
     7
 10
3163.0918574522
 20
1740.7134617536
 30
0.0
  0
VERTEX
  5
7E7
  8
0
  6
CONTINUOUS
 62
     7
 10
3162.079253075
 20
1741.6195418395
 30
0.0
  0
VERTEX
  5
7E8
  8
0
  6
CONTINUOUS
 62
     7
 10
3161.2557299969
 20
1742.7827217566
 30
0.0
  0
VERTEX
  5
7E9
  8
0
  6
CONTINUOUS
 62
     7
 10
3160.6372491416
 20
1744.1804586196
 30
0.0
  0
VERTEX
  5
7EA
  8
0
  6
CONTINUOUS
 62
     7
 10
3160.2357960192
 20
1745.7856636159
 30
0.0
  0
VERTEX
  5
7EB
  8
0
  6
CONTINUOUS
 62
     7
 10
3160.0591502356
 20
1747.5672229435
 30
0.0
  0
VERTEX
  5
7EC
  8
0
  6
CONTINUOUS
 62
     7
 10
3160.1107384172
 20
1749.4906176029
 30
0.0
  0
VERTEX
  5
7ED
  8
0
  6
CONTINUOUS
 62
     7
 10
3160.3895573812
 20
1751.51856853
 30
0.0
  0
VERTEX
  5
7EE
  8
0
  6
CONTINUOUS
 62
     7
 10
3160.8902048677
 20
1753.6117742419
 30
0.0
  0
VERTEX
  5
7EF
  8
0
  6
CONTINUOUS
 62
     7
 10
3161.6029761256
 20
1755.7296662214
 30
0.0
  0
SEQEND
  5
B4C
  8
0
  6
CONTINUOUS
 62
     7
  0
LINE
  5
3CD
  8
0
  6
CONTINUOUS
 62
     7
 10
3274.0943240864
 20
1800.3092504092
 30
0.0
 11
3171.8356602055
 21
1741.2765802965
 31
0.0
  0
ARC
  5
3CE
  8
0
  6
CONTINUOUS
 62
     7
 10
3260.3916922583
 20
1821.8287525109
 30
0.0
 40
25.51178335045363
 50
302.4871142196
 51
357.512873311
  0
LINE
  5
3CF
  8
0
  6
CONTINUOUS
 62
     7
 10
3285.8794434282
 20
2027.3974768208
 30
0.0
 11
3285.8794434282
 21
1820.7216707529
 31
0.0
  0
POLYLINE
  5
3D0
  8
0
  6
CONTINUOUS
 62
     7
 66
     1
 10
0.0
 20
0.0
 30
0.0
 70
   128
  0
VERTEX
  5
7F0
  8
0
  6
CONTINUOUS
 62
     7
 10
3283.3495173822
 20
2165.8445108445
 30
0.0
  0
VERTEX
  5
7F1
  8
0
  6
CONTINUOUS
 62
     7
 10
3283.8569566577
 20
2164.6327467288
 30
0.0
  0
VERTEX
  5
7F2
  8
0
  6
CONTINUOUS
 62
     7
 10
3284.2064857408
 20
2163.2709733111
 30
0.0
  0
VERTEX
  5
7F3
  8
0
  6
CONTINUOUS
 62
     7
 10
3284.3931787185
 20
2161.7784104858
 30
0.0
  0
VERTEX
  5
7F4
  8
0
  6
CONTINUOUS
 62
     7
 10
3284.4144014128
 20
2160.1760472759
 30
0.0
  0
VERTEX
  5
7F5
  8
0
  6
CONTINUOUS
 62
     7
 10
3284.2698640642
 20
2158.4864694563
 30
0.0
  0
VERTEX
  5
7F6
  8
0
  6
CONTINUOUS
 62
     7
 10
3283.9615949897
 20
2156.7334387673
 30
0.0
  0
VERTEX
  5
7F7
  8
0
  6
CONTINUOUS
 62
     7
 10
3283.4939405831
 20
2154.941649566
 30
0.0
  0
VERTEX
  5
7F8
  8
0
  6
CONTINUOUS
 62
     7
 10
3282.8734775089
 20
2153.136313115
 30
0.0
  0
SEQEND
  5
B4D
  8
0
  6
CONTINUOUS
 62
     7
  0
LINE
  5
3D1
  8
0
  6
CONTINUOUS
 62
     7
 10
3174.0229850567
 20
2377.4824688958
 30
0.0
 11
3283.3495173822
 21
2165.8445108445
 31
0.0
  0
POLYLINE
  5
3D2
  8
0
  6
CONTINUOUS
 62
     7
 66
     1
 10
0.0
 20
0.0
 30
0.0
 70
   128
  0
VERTEX
  5
7F9
  8
0
  6
CONTINUOUS
 62
     7
 10
3151.5291505423
 20
2358.8149570259
 30
0.0
  0
VERTEX
  5
7FA
  8
0
  6
CONTINUOUS
 62
     7
 10
3151.6372440378
 20
2360.7163398546
 30
0.0
  0
VERTEX
  5
7FB
  8
0
  6
CONTINUOUS
 62
     7
 10
3151.9595401103
 20
2362.7076349256
 30
0.0
  0
VERTEX
  5
7FC
  8
0
  6
CONTINUOUS
 62
     7
 10
3152.4901250301
 20
2364.7523329703
 30
0.0
  0
VERTEX
  5
7FD
  8
0
  6
CONTINUOUS
 62
     7
 10
3153.2192698996
 20
2366.8129390113
 30
0.0
  0
VERTEX
  5
7FE
  8
0
  6
CONTINUOUS
 62
     7
 10
3154.1335974848
 20
2368.8515553682
 30
0.0
  0
VERTEX
  5
7FF
  8
0
  6
CONTINUOUS
 62
     7
 10
3155.2163324619
 20
2370.8309183986
 30
0.0
  0
VERTEX
  5
800
  8
0
  6
CONTINUOUS
 62
     7
 10
3156.4476131284
 20
2372.714659561
 30
0.0
  0
VERTEX
  5
801
  8
0
  6
CONTINUOUS
 62
     7
 10
3157.8048601885
 20
2374.468248354
 30
0.0
  0
VERTEX
  5
802
  8
0
  6
CONTINUOUS
 62
     7
 10
3159.2631696839
 20
2376.0594624996
 30
0.0
  0
VERTEX
  5
803
  8
0
  6
CONTINUOUS
 62
     7
 10
3160.7957937319
 20
2377.4591521627
 30
0.0
  0
VERTEX
  5
804
  8
0
  6
CONTINUOUS
 62
     7
 10
3162.3746146771
 20
2378.6415947893
 30
0.0
  0
VERTEX
  5
805
  8
0
  6
CONTINUOUS
 62
     7
 10
3163.9706719272
 20
2379.5852048231
 30
0.0
  0
VERTEX
  5
806
  8
0
  6
CONTINUOUS
 62
     7
 10
3165.5546887886
 20
2380.2725944921
 30
0.0
  0
VERTEX
  5
807
  8
0
  6
CONTINUOUS
 62
     7
 10
3167.0976080824
 20
2380.6911263622
 30
0.0
  0
VERTEX
  5
808
  8
0
  6
CONTINUOUS
 62
     7
 10
3168.5711255657
 20
2380.8332212744
 30
0.0
  0
VERTEX
  5
809
  8
0
  6
CONTINUOUS
 62
     7
 10
3169.9482123766
 20
2380.6961732493
 30
0.0
  0
VERTEX
  5
80A
  8
0
  6
CONTINUOUS
 62
     7
 10
3171.2036045528
 20
2380.2825943129
 30
0.0
  0
VERTEX
  5
80B
  8
0
  6
CONTINUOUS
 62
     7
 10
3172.314277183
 20
2379.5999581735
 30
0.0
  0
VERTEX
  5
80C
  8
0
  6
CONTINUOUS
 62
     7
 10
3173.2598527051
 20
2378.6608359273
 30
0.0
  0
VERTEX
  5
80D
  8
0
  6
CONTINUOUS
 62
     7
 10
3174.0229850567
 20
2377.4824688958
 30
0.0
  0
SEQEND
  5
B4E
  8
0
  6
CONTINUOUS
 62
     7
  0
LINE
  5
3D3
  8
0
  6
CONTINUOUS
 62
     7
 10
3151.5291505423
 20
1863.1034089405
 30
0.0
 11
3151.5291505423
 21
2358.8149570259
 31
0.0
  0
POLYLINE
  5
3D4
  8
0
  6
CONTINUOUS
 62
     7
 66
     1
 10
0.0
 20
0.0
 30
0.0
 70
   128
  0
VERTEX
  5
80E
  8
0
  6
CONTINUOUS
 62
     7
 10
3173.5469473785
 20
1869.0627243482
 30
0.0
  0
VERTEX
  5
80F
  8
0
  6
CONTINUOUS
 62
     7
 10
3172.64522214
 20
1866.9805842501
 30
0.0
  0
VERTEX
  5
810
  8
0
  6
CONTINUOUS
 62
     7
 10
3171.5660125713
 20
1864.9541203523
 30
0.0
  0
VERTEX
  5
811
  8
0
  6
CONTINUOUS
 62
     7
 10
3170.3298455044
 20
1863.0218494416
 30
0.0
  0
VERTEX
  5
812
  8
0
  6
CONTINUOUS
 62
     7
 10
3168.9602331737
 20
1861.2205237508
 30
0.0
  0
VERTEX
  5
813
  8
0
  6
CONTINUOUS
 62
     7
 10
3167.4832297948
 20
1859.5844288395
 30
0.0
  0
VERTEX
  5
814
  8
0
  6
CONTINUOUS
 62
     7
 10
3165.9269266815
 20
1858.1446865504
 30
0.0
  0
VERTEX
  5
815
  8
0
  6
CONTINUOUS
 62
     7
 10
3164.3209276044
 20
1856.928668235
 30
0.0
  0
VERTEX
  5
816
  8
0
  6
CONTINUOUS
 62
     7
 10
3162.6957824434
 20
1855.9595055752
 30
0.0
  0
VERTEX
  5
817
  8
0
  6
CONTINUOUS
 62
     7
 10
3161.0823988872
 20
1855.2556292914
 30
0.0
  0
VERTEX
  5
818
  8
0
  6
CONTINUOUS
 62
     7
 10
3159.5114695003
 20
1854.8304383946
 30
0.0
  0
VERTEX
  5
819
  8
0
  6
CONTINUOUS
 62
     7
 10
3158.0128746422
 20
1854.6920366155
 30
0.0
  0
VERTEX
  5
81A
  8
0
  6
CONTINUOUS
 62
     7
 10
3156.6151161192
 20
1854.8430068534
 30
0.0
  0
VERTEX
  5
81B
  8
0
  6
CONTINUOUS
 62
     7
 10
3155.3447837633
 20
1855.2805290984
 30
0.0
  0
VERTEX
  5
81C
  8
0
  6
CONTINUOUS
 62
     7
 10
3154.2260395725
 20
1855.9962448635
 30
0.0
  0
VERTEX
  5
81D
  8
0
  6
CONTINUOUS
 62
     7
 10
3153.2801633151
 20
1856.9765626802
 30
0.0
  0
VERTEX
  5
81E
  8
0
  6
CONTINUOUS
 62
     7
 10
3152.525146427
 20
1858.2028292403
 30
0.0
  0
VERTEX
  5
81F
  8
0
  6
CONTINUOUS
 62
     7
 10
3151.9753495688
 20
1859.6517197995
 30
0.0
  0
VERTEX
  5
820
  8
0
  6
CONTINUOUS
 62
     7
 10
3151.6412348175
 20
1861.2956513871
 30
0.0
  0
VERTEX
  5
821
  8
0
  6
CONTINUOUS
 62
     7
 10
3151.5291505423
 20
1863.1034089405
 30
0.0
  0
SEQEND
  5
B4F
  8
0
  6
CONTINUOUS
 62
     7
  0
LINE
  5
3D5
  8
0
  6
CONTINUOUS
 62
     7
 10
3282.8734775089
 20
2153.136313115
 30
0.0
 11
3173.5469473785
 21
1869.0627243482
 31
0.0
  0
ARC
  5
3D6
  8
0
  6
CONTINUOUS
 62
     7
 10
3132.9086586969
 20
1650.3655270239
 30
0.0
 40
4.611044454821728
 50
242.609784083
 51
297.3904897364
  0
LINE
  5
3D7
  8
0
  6
CONTINUOUS
 62
     7
 10
3141.7474948153
 20
1650.1493569302
 30
0.0
 11
3144.6937702605
 21
1655.2524588479
 31
0.0
  0
LINE
  5
3D8
  8
0
  6
CONTINUOUS
 62
     7
 10
3141.7474948153
 20
1650.1493569302
 30
0.0
 11
3135.0299808296
 21
1646.2714186505
 31
0.0
  0
LINE
  5
3D9
  8
0
  6
CONTINUOUS
 62
     7
 10
3144.6937702605
 20
2461.7267447331
 30
0.0
 11
3144.6937702605
 21
1655.2524588479
 31
0.0
  0
LINE
  5
3DA
  8
0
  6
CONTINUOUS
 62
     7
 10
3130.7873561301
 20
1646.2714085126
 30
0.0
 11
3117.3523105974
 21
1654.0272952099
 31
0.0
  0
ARC
  5
3DB
  8
0
  6
CONTINUOUS
 62
     7
 10
3117.975001345
 20
1655.4016201776
 30
0.0
 40
1.508811745635641
 50
185.6949502672
 51
245.6252695909
  0
LINE
  5
3DC
  8
0
  6
CONTINUOUS
 62
     7
 10
3347.6334185543
 20
2072.4877557583
 30
0.0
 11
3347.6334185543
 21
2072.8621468489
 31
0.0
  0
LINE
  5
3DD
  8
0
  6
CONTINUOUS
 62
     7
 10
3321.470463801
 20
1771.8621968679
 30
0.0
 11
3324.181050557
 21
1770.2974084411
 31
0.0
  0
ARC
  5
3DE
  8
0
  6
CONTINUOUS
 62
     7
 10
3320.291968173
 20
1769.5877419992
 30
0.0
 40
2.561639493550844
 50
62.6093290121
 51
117.3909174266
  0
LINE
  5
3DF
  8
0
  6
CONTINUOUS
 62
     7
 10
3284.9366359882
 20
2380.766313764
 30
0.0
 11
3284.9366359882
 21
2321.4864265627
 31
0.0
  0
ARC
  5
3E0
  8
0
  6
CONTINUOUS
 62
     7
 10
3167.5098631801
 20
2375.2761375698
 30
0.0
 40
6.21242439814012
 50
26.2800045147
 51
53.9915283313
  0
LINE
  5
3E1
  8
0
  6
CONTINUOUS
 62
     7
 10
3173.0801776167
 20
2378.0267400457
 30
0.0
 11
3282.4067099422
 21
2166.3887819944
 31
0.0
  0
ARC
  5
3E2
  8
0
  6
CONTINUOUS
 62
     7
 10
3331.2521151376
 20
2192.4643758719
 30
0.0
 40
4.611053360277065
 50
242.6095816276
 51
297.3904183724
  0
LINE
  5
3E3
  8
0
  6
CONTINUOUS
 62
     7
 10
3348.5762347749
 20
2197.1466457165
 30
0.0
 11
3333.3734362679
 21
2188.3702569491
 31
0.0
  0
LINE
  5
3E4
  8
0
  6
CONTINUOUS
 62
     7
 10
3329.1307940073
 20
2188.3702569491
 30
0.0
 11
3327.1273260022
 21
2189.5268344101
 31
0.0
  0
LINE
  5
3E5
  8
0
  6
CONTINUOUS
 62
     7
 10
3324.181050557
 20
2194.6299331592
 30
0.0
 11
3327.1273260022
 21
2189.5268344101
 31
0.0
  0
LINE
  5
3E6
  8
0
  6
CONTINUOUS
 62
     7
 10
3324.181050557
 20
2358.1110008686
 30
0.0
 11
3324.181050557
 21
2194.6299331592
 31
0.0
  0
ARC
  5
3E7
  8
0
  6
CONTINUOUS
 62
     7
 10
3347.9535180634
 20
2198.5209994592
 30
0.0
 40
1.508848671250099
 50
294.3751775118
 51
354.3042849038
  0
POLYLINE
  5
3E8
  8
0
  6
CONTINUOUS
 62
     7
 66
     1
 10
0.0
 20
0.0
 30
0.0
 70
   128
  0
VERTEX
  5
822
  8
0
  6
CONTINUOUS
 62
     7
 10
3265.3036110127
 20
2299.9998359204
 30
0.0
  0
VERTEX
  5
823
  8
0
  6
CONTINUOUS
 62
     7
 10
3266.517576349
 20
2299.6052116064
 30
0.0
  0
VERTEX
  5
824
  8
0
  6
CONTINUOUS
 62
     7
 10
3267.8946543794
 20
2299.4681585125
 30
0.0
  0
VERTEX
  5
825
  8
0
  6
CONTINUOUS
 62
     7
 10
3269.3681784481
 20
2299.6102572263
 30
0.0
  0
VERTEX
  5
826
  8
0
  6
CONTINUOUS
 62
     7
 10
3270.9110955467
 20
2300.0288283872
 30
0.0
  0
VERTEX
  5
827
  8
0
  6
CONTINUOUS
 62
     7
 10
3272.4951146033
 20
2300.7161787655
 30
0.0
  0
VERTEX
  5
828
  8
0
  6
CONTINUOUS
 62
     7
 10
3274.0911718534
 20
2301.6597887992
 30
0.0
  0
VERTEX
  5
829
  8
0
  6
CONTINUOUS
 62
     7
 10
3275.6699927986
 20
2302.8422719839
 30
0.0
  0
VERTEX
  5
82A
  8
0
  6
CONTINUOUS
 62
     7
 10
3277.2026190417
 20
2304.2419629141
 30
0.0
  0
VERTEX
  5
82B
  8
0
  6
CONTINUOUS
 62
     7
 10
3278.660926342
 20
2305.8331757925
 30
0.0
  0
VERTEX
  5
82C
  8
0
  6
CONTINUOUS
 62
     7
 10
3280.0181690118
 20
2307.5867214931
 30
0.0
  0
VERTEX
  5
82D
  8
0
  6
CONTINUOUS
 62
     7
 10
3281.2494540686
 20
2309.4704651899
 30
0.0
  0
VERTEX
  5
82E
  8
0
  6
CONTINUOUS
 62
     7
 10
3282.3321890457
 20
2311.4498282203
 30
0.0
  0
VERTEX
  5
82F
  8
0
  6
CONTINUOUS
 62
     7
 10
3283.2465122406
 20
2313.4884826008
 30
0.0
  0
VERTEX
  5
830
  8
0
  6
CONTINUOUS
 62
     7
 10
3283.9756615004
 20
2315.5490506183
 30
0.0
  0
VERTEX
  5
831
  8
0
  6
CONTINUOUS
 62
     7
 10
3284.5062464202
 20
2317.5937486629
 30
0.0
  0
VERTEX
  5
832
  8
0
  6
CONTINUOUS
 62
     7
 10
3284.8285381024
 20
2319.5850411995
 30
0.0
  0
VERTEX
  5
833
  8
0
  6
CONTINUOUS
 62
     7
 10
3284.9366359882
 20
2321.4864265627
 30
0.0
  0
SEQEND
  5
B50
  8
0
  6
CONTINUOUS
 62
     7
  0
LINE
  5
3E9
  8
0
  6
CONTINUOUS
 62
     7
 10
3281.9306700689
 20
2153.680584265
 30
0.0
 11
3172.6041399385
 21
1869.6069954982
 31
0.0
  0
LINE
  5
3EA
  8
0
  6
CONTINUOUS
 62
     7
 10
3347.6334185543
 20
2072.4877557583
 30
0.0
 11
3347.9576770894
 21
2072.6749462262
 31
0.0
  0
POLYLINE
  5
3EB
  8
0
  6
CONTINUOUS
 62
     7
 66
     1
 10
0.0
 20
0.0
 30
0.0
 70
   128
  0
VERTEX
  5
834
  8
0
  6
CONTINUOUS
 62
     7
 10
3281.9306700689
 20
2153.680584265
 30
0.0
  0
VERTEX
  5
835
  8
0
  6
CONTINUOUS
 62
     7
 10
3282.5511331431
 20
2155.485920716
 30
0.0
  0
VERTEX
  5
836
  8
0
  6
CONTINUOUS
 62
     7
 10
3283.0187875497
 20
2157.2777099173
 30
0.0
  0
VERTEX
  5
837
  8
0
  6
CONTINUOUS
 62
     7
 10
3283.3270566242
 20
2159.0307406063
 30
0.0
  0
VERTEX
  5
838
  8
0
  6
CONTINUOUS
 62
     7
 10
3283.4715939728
 20
2160.7203184258
 30
0.0
  0
VERTEX
  5
839
  8
0
  6
CONTINUOUS
 62
     7
 10
3283.4503712785
 20
2162.3226816358
 30
0.0
  0
VERTEX
  5
83A
  8
0
  6
CONTINUOUS
 62
     7
 10
3283.2636783008
 20
2163.8152444611
 30
0.0
  0
VERTEX
  5
83B
  8
0
  6
CONTINUOUS
 62
     7
 10
3282.9141492177
 20
2165.1770178787
 30
0.0
  0
VERTEX
  5
83C
  8
0
  6
CONTINUOUS
 62
     7
 10
3282.4067099422
 20
2166.3887819944
 30
0.0
  0
SEQEND
  5
B51
  8
0
  6
CONTINUOUS
 62
     7
  0
POLYLINE
  5
3EC
  8
0
  6
CONTINUOUS
 62
     7
 66
     1
 10
0.0
 20
0.0
 30
0.0
 70
   128
  0
VERTEX
  5
83D
  8
0
  6
CONTINUOUS
 62
     7
 10
3154.5235480298
 20
1855.7678935423
 30
0.0
  0
VERTEX
  5
83E
  8
0
  6
CONTINUOUS
 62
     7
 10
3155.6723086792
 20
1855.3872780034
 30
0.0
  0
VERTEX
  5
83F
  8
0
  6
CONTINUOUS
 62
     7
 10
3157.0700672022
 20
1855.2363077654
 30
0.0
  0
VERTEX
  5
840
  8
0
  6
CONTINUOUS
 62
     7
 10
3158.5686620603
 20
1855.3747095446
 30
0.0
  0
VERTEX
  5
841
  8
0
  6
CONTINUOUS
 62
     7
 10
3160.1395914472
 20
1855.7999004414
 30
0.0
  0
VERTEX
  5
842
  8
0
  6
CONTINUOUS
 62
     7
 10
3161.7529750033
 20
1856.5037767252
 30
0.0
  0
VERTEX
  5
843
  8
0
  6
CONTINUOUS
 62
     7
 10
3163.3781201644
 20
1857.4729393849
 30
0.0
  0
VERTEX
  5
844
  8
0
  6
CONTINUOUS
 62
     7
 10
3164.9841192415
 20
1858.6889577004
 30
0.0
  0
VERTEX
  5
845
  8
0
  6
CONTINUOUS
 62
     7
 10
3166.5404223548
 20
1860.1286999894
 30
0.0
  0
VERTEX
  5
846
  8
0
  6
CONTINUOUS
 62
     7
 10
3168.0174257337
 20
1861.7647949008
 30
0.0
  0
VERTEX
  5
847
  8
0
  6
CONTINUOUS
 62
     7
 10
3169.3870380644
 20
1863.5661205916
 30
0.0
  0
VERTEX
  5
848
  8
0
  6
CONTINUOUS
 62
     7
 10
3170.6232051312
 20
1865.4983915022
 30
0.0
  0
VERTEX
  5
849
  8
0
  6
CONTINUOUS
 62
     7
 10
3171.7024147
 20
1867.5248554001
 30
0.0
  0
VERTEX
  5
84A
  8
0
  6
CONTINUOUS
 62
     7
 10
3172.6041399385
 20
1869.6069954982
 30
0.0
  0
SEQEND
  5
B52
  8
0
  6
CONTINUOUS
 62
     7
  0
ARC
  5
3ED
  8
0
  6
CONTINUOUS
 62
     7
 10
3331.2521151376
 20
2065.9005368888
 30
0.0
 40
4.611053360276452
 50
242.6095816276
 51
297.3904183724
  0
ARC
  5
3EE
  8
0
  6
CONTINUOUS
 62
     7
 10
3331.2521151376
 20
2064.6252019696
 30
0.0
 40
2.561699287424624
 50
242.6095669653
 51
297.3904330346
  0
LINE
  5
3EF
  8
0
  6
CONTINUOUS
 62
     7
 10
3333.3734362679
 20
2061.806417966
 30
0.0
 11
3348.5762347749
 21
2070.5828067334
 31
0.0
  0
LINE
  5
3F0
  8
0
  6
CONTINUOUS
 62
     7
 10
3332.4306288279
 20
2062.350689116
 30
0.0
 11
3347.6334273349
 21
2071.1270778834
 31
0.0
  0
LINE
  5
3F1
  8
0
  6
CONTINUOUS
 62
     7
 10
3324.181050557
 20
1752.3369861633
 30
0.0
 11
3326.7439477314
 21
1747.8979199569
 31
0.0
  0
LINE
  5
3F2
  8
0
  6
CONTINUOUS
 62
     7
 10
3324.181050557
 20
2061.2615938997
 30
0.0
 11
3324.181050557
 21
1752.3369861633
 31
0.0
  0
LINE
  5
3F3
  8
0
  6
CONTINUOUS
 62
     7
 10
3327.1273260022
 20
2062.962995427
 30
0.0
 11
3324.181050557
 21
2061.2615938997
 31
0.0
  0
LINE
  5
3F4
  8
0
  6
CONTINUOUS
 62
     7
 10
3327.1273260022
 20
2062.962995427
 30
0.0
 11
3329.1307940073
 21
2061.806417966
 31
0.0
  0
LINE
  5
3F5
  8
0
  6
CONTINUOUS
 62
     7
 10
3328.0701334422
 20
2063.507266577
 30
0.0
 11
3327.1273260022
 21
2062.962995427
 31
0.0
  0
LINE
  5
3F6
  8
0
  6
CONTINUOUS
 62
     7
 10
3328.0701334422
 20
2063.507266577
 30
0.0
 11
3330.0736014473
 21
2062.350689116
 31
0.0
  0
POLYLINE
  5
3F7
  8
0
  6
CONTINUOUS
 62
     7
 66
     1
 10
0.0
 20
0.0
 30
0.0
 70
   128
  0
VERTEX
  5
84B
  8
0
  6
CONTINUOUS
 62
     7
 10
3284.9366359882
 20
2027.9417479708
 30
0.0
  0
VERTEX
  5
84C
  8
0
  6
CONTINUOUS
 62
     7
 10
3284.824551713
 20
2029.7495055242
 30
0.0
  0
VERTEX
  5
84D
  8
0
  6
CONTINUOUS
 62
     7
 10
3284.4904325714
 20
2031.3934548564
 30
0.0
  0
VERTEX
  5
84E
  8
0
  6
CONTINUOUS
 62
     7
 10
3283.9406357132
 20
2032.8423251366
 30
0.0
  0
VERTEX
  5
84F
  8
0
  6
CONTINUOUS
 62
     7
 10
3283.1856188251
 20
2034.0685916967
 30
0.0
  0
VERTEX
  5
850
  8
0
  6
CONTINUOUS
 62
     7
 10
3282.239746958
 20
2035.0489120478
 30
0.0
  0
VERTEX
  5
851
  8
0
  6
CONTINUOUS
 62
     7
 10
3281.942242891
 20
2035.2772512025
 30
0.0
  0
SEQEND
  5
B53
  8
0
  6
CONTINUOUS
 62
     7
  0
ARC
  5
3F8
  8
0
  6
CONTINUOUS
 62
     7
 10
3347.9535180634
 20
2071.9571604761
 30
0.0
 40
1.508848671251874
 50
294.3751775118
 51
354.3042849038
  0
ARC
  5
3F9
  8
0
  6
CONTINUOUS
 62
     7
 10
3347.3752216252
 20
2071.8074151547
 30
0.0
 40
0.7276874268402385
 50
290.7830578378
 51
69.2176816332
  0
LINE
  5
3FA
  8
0
  6
CONTINUOUS
 62
     7
 10
3284.9366359882
 20
2027.9417479708
 30
0.0
 11
3284.9366359882
 21
1821.2659419028
 31
0.0
  0
POLYLINE
  5
3FB
  8
0
  6
CONTINUOUS
 62
     7
 66
     1
 10
0.0
 20
0.0
 30
0.0
 70
   128
  0
VERTEX
  5
852
  8
0
  6
CONTINUOUS
 62
     7
 10
3163.0449427415
 20
1740.7466887528
 30
0.0
  0
VERTEX
  5
853
  8
0
  6
CONTINUOUS
 62
     7
 10
3163.3311110623
 20
1740.6263161134
 30
0.0
  0
VERTEX
  5
854
  8
0
  6
CONTINUOUS
 62
     7
 10
3164.6597202168
 20
1740.2817879419
 30
0.0
  0
VERTEX
  5
855
  8
0
  6
CONTINUOUS
 62
     7
 10
3166.1091305808
 20
1740.2308416111
 30
0.0
  0
VERTEX
  5
856
  8
0
  6
CONTINUOUS
 62
     7
 10
3167.6512486454
 20
1740.4744506148
 30
0.0
  0
VERTEX
  5
857
  8
0
  6
CONTINUOUS
 62
     7
 10
3169.2561918561
 20
1741.0079016195
 30
0.0
  0
VERTEX
  5
858
  8
0
  6
CONTINUOUS
 62
     7
 10
3170.8928527655
 20
1741.8208514465
 30
0.0
  0
SEQEND
  5
B54
  8
0
  6
CONTINUOUS
 62
     7
  0
LINE
  5
3FC
  8
0
  6
CONTINUOUS
 62
     7
 10
3273.1515166464
 20
1800.8535215592
 30
0.0
 11
3170.8928527655
 21
1741.8208514465
 31
0.0
  0
ARC
  5
3FD
  8
0
  6
CONTINUOUS
 62
     7
 10
3259.4486784662
 20
1822.3731427983
 30
0.0
 40
25.51199467833843
 50
302.4873614202
 51
357.5126261104
  0
ARC
  5
3FE
  8
0
  6
CONTINUOUS
 62
     7
 10
3336.3115171671
 20
1759.1457070824
 30
0.0
 40
5.211567736910388
 50
306.1304787143
 51
353.8749354137
  0
POLYLINE
  5
3FF
  8
0
  6
CONTINUOUS
 62
     7
 66
     1
 10
0.0
 20
0.0
 30
0.0
 70
   128
  0
VERTEX
  5
859
  8
0
  6
CONTINUOUS
 62
     7
 10
3311.7552639955
 20
1777.0134852377
 30
0.0
  0
VERTEX
  5
85A
  8
0
  6
CONTINUOUS
 62
     7
 10
3311.8089748856
 20
1776.9235313796
 30
0.0
  0
VERTEX
  5
85B
  8
0
  6
CONTINUOUS
 62
     7
 10
3312.0160651818
 20
1776.2677990174
 30
0.0
  0
VERTEX
  5
85C
  8
0
  6
CONTINUOUS
 62
     7
 10
3312.0160651818
 20
1775.4564725657
 30
0.0
  0
VERTEX
  5
85D
  8
0
  6
CONTINUOUS
 62
     7
 10
3311.8089748856
 20
1774.5616394706
 30
0.0
  0
VERTEX
  5
85E
  8
0
  6
CONTINUOUS
 62
     7
 10
3311.4131896363
 20
1773.6628069361
 30
0.0
  0
VERTEX
  5
85F
  8
0
  6
CONTINUOUS
 62
     7
 10
3310.8638844913
 20
1772.8398456139
 30
0.0
  0
VERTEX
  5
860
  8
0
  6
CONTINUOUS
 62
     7
 10
3310.2098532083
 20
1772.1658707001
 30
0.0
  0
VERTEX
  5
861
  8
0
  6
CONTINUOUS
 62
     7
 10
3309.5092320966
 20
1771.7007796689
 30
0.0
  0
VERTEX
  5
862
  8
0
  6
CONTINUOUS
 62
     7
 10
3308.8242492217
 20
1771.4858851649
 30
0.0
  0
VERTEX
  5
863
  8
0
  6
CONTINUOUS
 62
     7
 10
3308.5582850464
 20
1771.4755500817
 30
0.0
  0
SEQEND
  5
B55
  8
0
  6
CONTINUOUS
 62
     7
  0
LINE
  5
400
  8
0
  6
CONTINUOUS
 62
     7
 10
3185.6874480689
 20
2597.3804460114
 30
0.0
 11
3185.9985598605
 21
2597.1340728991
 31
0.0
  0
ARC
  5
401
  8
0
  6
CONTINUOUS
 62
     7
 10
3184.5553417829
 20
2595.4169771602
 30
0.0
 40
2.266467421419653
 50
60.0329047127
 51
149.5622614109
  0
LINE
  5
402
  8
0
  6
CONTINUOUS
 62
     7
 10
3350.6790222676
 20
2502.1328376288
 30
0.0
 11
3350.9901494252
 21
2501.8864531114
 31
0.0
  0
ARC
  5
403
  8
0
  6
CONTINUOUS
 62
     7
 10
3349.5469393782
 20
2500.1692802101
 30
0.0
 40
2.266532462842258
 50
60.0345354243
 51
149.5606306994
  0
ARC
  5
404
  8
0
  6
CONTINUOUS
 62
     7
 10
3679.5057808465
 20
2309.7265079953
 30
0.0
 40
2.219219559318581
 50
48.6024254397
 51
150.4101027681
  0
ARC
  5
405
  8
0
  6
CONTINUOUS
 62
     7
 10
3514.5142042522
 20
2404.9740437676
 30
0.0
 40
2.219273608038065
 50
48.6038752738
 51
150.4084383807
  0
ARC
  5
406
  8
0
  6
CONTINUOUS
 62
     7
 10
3679.7421183862
 20
2308.3148571164
 30
0.0
 40
2.602235990055569
 50
73.3194415339
 51
125.6903521109
  0
ARC
  5
407
  8
0
  6
CONTINUOUS
 62
     7
 10
3388.9869941332
 20
2531.0143908062
 30
0.0
 40
2.23358862757502
 50
49.0533284488
 51
149.9587706535
  0
ARC
  5
408
  8
0
  6
CONTINUOUS
 62
     7
 10
3223.9954128003
 20
2626.2620266709
 30
0.0
 40
2.23356869368383
 50
49.0532388989
 51
149.9592893088
  0
ARC
  5
409
  8
0
  6
CONTINUOUS
 62
     7
 10
3553.9748877576
 20
2435.7888019651
 30
0.0
 40
2.219435648741898
 50
48.609022782
 51
150.4032908725
  0
ARC
  5
40A
  8
0
  6
CONTINUOUS
 62
     7
 10
3718.966464341
 20
2340.5412662615
 30
0.0
 40
2.219381550759008
 50
48.6075717941
 51
150.4049564136
  0
ARC
  5
40B
  8
0
  6
CONTINUOUS
 62
     7
 10
3719.2028717458
 20
2339.1296421053
 30
0.0
 40
2.602419918315102
 50
73.3232608594
 51
125.6905466796
  0
ARC
  5
40C
  8
0
  6
CONTINUOUS
 62
     7
 10
3514.7505320859
 20
2403.562490403
 30
0.0
 40
2.602217942837778
 50
73.3192461314
 51
125.6905475134
  0
ARC
  5
40D
  8
0
  6
CONTINUOUS
 62
     7
 10
3554.2112854434
 20
2434.3772754003
 30
0.0
 40
2.602401863092742
 50
73.3230653997
 51
125.6907421394
  0
ARC
  5
40E
  8
0
  6
CONTINUOUS
 62
     7
 10
3349.7589491066
 20
2498.8101038545
 30
0.0
 40
2.602217942838168
 50
73.3192461314
 51
125.6905475134
  0
ARC
  5
40F
  8
0
  6
CONTINUOUS
 62
     7
 10
3389.2197024641
 20
2529.6248888518
 30
0.0
 40
2.602401863092529
 50
73.3230653996
 51
125.6907421393
  0
ARC
  5
410
  8
0
  6
CONTINUOUS
 62
     7
 10
3184.7673694483
 20
2594.0576974709
 30
0.0
 40
2.602235990058601
 50
73.319441534
 51
125.6903521109
  0
ARC
  5
411
  8
0
  6
CONTINUOUS
 62
     7
 10
3224.2281228079
 20
2624.8724824598
 30
0.0
 40
2.602419918316873
 50
73.3232608594
 51
125.6905466796
  0
ARC
  5
412
  8
0
  6
CONTINUOUS
 62
     7
 10
3618.8627424871
 20
2223.9854274189
 30
0.0
 40
28.11167721431858
 50
182.5792683871
 51
188.2662785269
  0
LINE
  5
413
  8
0
  6
CONTINUOUS
 62
     7
 10
3590.6158217531
 20
2223.6980357323
 30
0.0
 11
3590.7795446983
 21
2222.7203591373
 31
0.0
  0
ARC
  5
414
  8
0
  6
CONTINUOUS
 62
     7
 10
3572.4868261332
 20
2215.5520368752
 30
0.0
 40
19.87505420281375
 50
11.1617361412
 51
24.1960694164
  0
LINE
  5
415
  8
0
  6
CONTINUOUS
 62
     7
 10
3591.9859367728
 20
2219.3994338953
 30
0.0
 11
3591.0431293328
 21
2219.9437050453
 31
0.0
  0
ARC
  5
416
  8
0
  6
CONTINUOUS
 62
     7
 10
3841.6914234181
 20
2415.8839813941
 30
0.0
 40
3.942973623501687
 50
20.6752824617
 51
88.8407870397
  0
ARC
  5
417
  8
0
  6
CONTINUOUS
 62
     7
 10
3610.4895344164
 20
2222.6024556427
 30
0.0
 40
19.7103423593241
 50
179.657265572
 51
187.7757512579
  0
LINE
  5
418
  8
0
  6
CONTINUOUS
 62
     7
 10
3590.0319386311
 20
2219.2106349042
 30
0.0
 11
3590.9604249232
 21
2219.9357201248
 31
0.0
  0
ARC
  5
419
  8
0
  6
CONTINUOUS
 62
     7
 10
3599.2896882411
 20
2220.2877392875
 30
0.0
 40
9.32019751372862
 50
158.5367803103
 51
186.6363119694
  0
POLYLINE
  5
41A
  8
0
  6
CONTINUOUS
 62
     7
 66
     1
 10
0.0
 20
0.0
 30
0.0
 70
   128
  0
VERTEX
  5
864
  8
0
  6
CONTINUOUS
 62
     7
 10
3068.0639156824
 20
2525.3608300338
 30
0.0
  0
VERTEX
  5
865
  8
0
  6
CONTINUOUS
 62
     7
 10
3066.8103981629
 20
2524.8027021097
 30
0.0
  0
VERTEX
  5
866
  8
0
  6
CONTINUOUS
 62
     7
 10
3066.0592622971
 20
2524.2294661357
 30
0.0
  0
VERTEX
  5
867
  8
0
  6
CONTINUOUS
 62
     7
 10
3065.6672439224
 20
2523.7716655732
 30
0.0
  0
VERTEX
  5
868
  8
0
  6
CONTINUOUS
 62
     7
 10
3065.3804170571
 20
2523.2588247773
 30
0.0
  0
VERTEX
  5
869
  8
0
  6
CONTINUOUS
 62
     7
 10
3065.2202853746
 20
2522.7185465299
 30
0.0
  0
VERTEX
  5
86A
  8
0
  6
CONTINUOUS
 62
     7
 10
3065.2063505728
 20
2522.1859978784
 30
0.0
  0
SEQEND
  5
B56
  8
0
  6
CONTINUOUS
 62
     7
  0
LINE
  5
41B
  8
0
  6
CONTINUOUS
 62
     7
 10
3591.9859367728
 20
2219.3994338953
 30
0.0
 11
3594.6872687834
 21
2203.2678765505
 31
0.0
  0
LINE
  5
41C
  8
0
  6
CONTINUOUS
 62
     7
 10
3845.3804554784
 20
2417.2761320519
 30
0.0
 11
3848.0817787083
 21
2401.1445696382
 31
0.0
  0
LINE
  5
41D
  8
0
  6
CONTINUOUS
 62
     7
 10
3848.0817787083
 20
2401.1445696382
 30
0.0
 11
3594.6872687834
 21
2203.2678765505
 31
0.0
  0
POLYLINE
  5
41E
  8
0
  6
CONTINUOUS
 62
     7
 66
     1
 10
0.0
 20
0.0
 30
0.0
 70
   128
  0
VERTEX
  5
86B
  8
0
  6
CONTINUOUS
 62
     7
 10
3648.3700214428
 20
2256.2440430778
 30
0.0
  0
VERTEX
  5
86C
  8
0
  6
CONTINUOUS
 62
     7
 10
3647.7040134303
 20
2255.6012102432
 30
0.0
  0
VERTEX
  5
86D
  8
0
  6
CONTINUOUS
 62
     7
 10
3647.1335514455
 20
2254.7982529815
 30
0.0
  0
VERTEX
  5
86E
  8
0
  6
CONTINUOUS
 62
     7
 10
3646.709325854
 20
2253.9066145597
 30
0.0
  0
VERTEX
  5
86F
  8
0
  6
CONTINUOUS
 62
     7
 10
3646.469022963
 20
2253.0054809773
 30
0.0
  0
VERTEX
  5
870
  8
0
  6
CONTINUOUS
 62
     7
 10
3646.4340015661
 20
2252.1749954144
 30
0.0
  0
VERTEX
  5
871
  8
0
  6
CONTINUOUS
 62
     7
 10
3646.6073699933
 20
2251.4888210846
 30
0.0
  0
VERTEX
  5
872
  8
0
  6
CONTINUOUS
 62
     7
 10
3646.9737270837
 20
2251.0079891149
 30
0.0
  0
VERTEX
  5
873
  8
0
  6
CONTINUOUS
 62
     7
 10
3647.5005187871
 20
2250.775273528
 30
0.0
  0
VERTEX
  5
874
  8
0
  6
CONTINUOUS
 62
     7
 10
3648.1409357599
 20
2250.8112669814
 30
0.0
  0
VERTEX
  5
875
  8
0
  6
CONTINUOUS
 62
     7
 10
3648.8380753664
 20
2251.1128898699
 30
0.0
  0
VERTEX
  5
876
  8
0
  6
CONTINUOUS
 62
     7
 10
3649.5299905197
 20
2251.6532225502
 30
0.0
  0
VERTEX
  5
877
  8
0
  6
CONTINUOUS
 62
     7
 10
3650.1552082853
 20
2252.3842855821
 30
0.0
  0
VERTEX
  5
878
  8
0
  6
CONTINUOUS
 62
     7
 10
3650.6581694581
 20
2253.2410722062
 30
0.0
  0
VERTEX
  5
879
  8
0
  6
CONTINUOUS
 62
     7
 10
3650.9941895982
 20
2254.1475758146
 30
0.0
  0
VERTEX
  5
87A
  8
0
  6
CONTINUOUS
 62
     7
 10
3651.1334059071
 20
2255.0232053522
 30
0.0
  0
VERTEX
  5
87B
  8
0
  6
CONTINUOUS
 62
     7
 10
3651.0634509192
 20
2255.7901691606
 30
0.0
  0
VERTEX
  5
87C
  8
0
  6
CONTINUOUS
 62
     7
 10
3650.7905369042
 20
2256.3801846938
 30
0.0
  0
VERTEX
  5
87D
  8
0
  6
CONTINUOUS
 62
     7
 10
3650.3389202515
 20
2256.7409830614
 30
0.0
  0
VERTEX
  5
87E
  8
0
  6
CONTINUOUS
 62
     7
 10
3649.7487238829
 20
2256.8404867085
 30
0.0
  0
VERTEX
  5
87F
  8
0
  6
CONTINUOUS
 62
     7
 10
3649.0723942829
 20
2256.6697932982
 30
0.0
  0
VERTEX
  5
880
  8
0
  6
CONTINUOUS
 62
     7
 10
3648.3700214428
 20
2256.2440430778
 30
0.0
  0
SEQEND
  5
B57
  8
0
  6
CONTINUOUS
 62
     7
  0
POLYLINE
  5
41F
  8
0
  6
CONTINUOUS
 62
     7
 66
     1
 10
0.0
 20
0.0
 30
0.0
 70
   128
  0
VERTEX
  5
881
  8
0
  6
CONTINUOUS
 62
     7
 10
3834.0671525445
 20
2401.2556600274
 30
0.0
  0
VERTEX
  5
882
  8
0
  6
CONTINUOUS
 62
     7
 10
3833.4011445321
 20
2400.6127460768
 30
0.0
  0
VERTEX
  5
883
  8
0
  6
CONTINUOUS
 62
     7
 10
3832.8306869375
 20
2399.8098724655
 30
0.0
  0
VERTEX
  5
884
  8
0
  6
CONTINUOUS
 62
     7
 10
3832.4064525654
 20
2398.9182289748
 30
0.0
  0
VERTEX
  5
885
  8
0
  6
CONTINUOUS
 62
     7
 10
3832.1661540647
 20
2398.0170979269
 30
0.0
  0
VERTEX
  5
886
  8
0
  6
CONTINUOUS
 62
     7
 10
3832.1311370581
 20
2397.1865337824
 30
0.0
  0
VERTEX
  5
887
  8
0
  6
CONTINUOUS
 62
     7
 10
3832.304501095
 20
2396.5003569181
 30
0.0
  0
VERTEX
  5
888
  8
0
  6
CONTINUOUS
 62
     7
 10
3832.6708625757
 20
2396.019608599
 30
0.0
  0
VERTEX
  5
889
  8
0
  6
CONTINUOUS
 62
     7
 10
3833.1976454985
 20
2395.7868068271
 30
0.0
  0
VERTEX
  5
88A
  8
0
  6
CONTINUOUS
 62
     7
 10
3833.8380668616
 20
2395.8228839309
 30
0.0
  0
VERTEX
  5
88B
  8
0
  6
CONTINUOUS
 62
     7
 10
3834.5352020778
 20
2396.124423169
 30
0.0
  0
VERTEX
  5
88C
  8
0
  6
CONTINUOUS
 62
     7
 10
3835.2271216214
 20
2396.6647583838
 30
0.0
  0
VERTEX
  5
88D
  8
0
  6
CONTINUOUS
 62
     7
 10
3835.8523437773
 20
2397.3958239501
 30
0.0
  0
VERTEX
  5
88E
  8
0
  6
CONTINUOUS
 62
     7
 10
3836.3553049501
 20
2398.2526916902
 30
0.0
  0
VERTEX
  5
88F
  8
0
  6
CONTINUOUS
 62
     7
 10
3836.6913206999
 20
2399.1591927642
 30
0.0
  0
VERTEX
  5
890
  8
0
  6
CONTINUOUS
 62
     7
 10
3836.8305370089
 20
2400.0348223018
 30
0.0
  0
VERTEX
  5
891
  8
0
  6
CONTINUOUS
 62
     7
 10
3836.7605820209
 20
2400.8017049941
 30
0.0
  0
VERTEX
  5
892
  8
0
  6
CONTINUOUS
 62
     7
 10
3836.4876723962
 20
2401.3918041779
 30
0.0
  0
VERTEX
  5
893
  8
0
  6
CONTINUOUS
 62
     7
 10
3836.0360513532
 20
2401.752600011
 30
0.0
  0
VERTEX
  5
894
  8
0
  6
CONTINUOUS
 62
     7
 10
3835.4458549846
 20
2401.8520225421
 30
0.0
  0
VERTEX
  5
895
  8
0
  6
CONTINUOUS
 62
     7
 10
3834.7695209943
 20
2401.6813265973
 30
0.0
  0
VERTEX
  5
896
  8
0
  6
CONTINUOUS
 62
     7
 10
3834.0671525445
 20
2401.2556600274
 30
0.0
  0
SEQEND
  5
B58
  8
0
  6
CONTINUOUS
 62
     7
  0
LINE
  5
420
  8
0
  6
CONTINUOUS
 62
     7
 10
3594.6872687834
 20
2203.2678765505
 30
0.0
 11
3593.7444613434
 21
2203.8121477005
 31
0.0
  0
LINE
  5
421
  8
0
  6
CONTINUOUS
 62
     7
 10
3591.0431293328
 20
2219.9437050453
 30
0.0
 11
3593.7444613434
 21
2203.8121477005
 31
0.0
  0
LINE
  5
422
  8
0
  6
CONTINUOUS
 62
     7
 10
3592.7332706416
 20
2203.0790775594
 30
0.0
 11
3593.6617569337
 21
2203.80416278
 31
0.0
  0
LINE
  5
423
  8
0
  6
CONTINUOUS
 62
     7
 10
3590.0319386311
 20
2219.2106349042
 30
0.0
 11
3592.7332706416
 21
2203.0790775594
 31
0.0
  0
LINE
  5
424
  8
0
  6
CONTINUOUS
 62
     7
 10
3590.9604249232
 20
2219.9357201248
 30
0.0
 11
3593.6617569337
 21
2203.80416278
 31
0.0
  0
LINE
  5
425
  8
0
  6
CONTINUOUS
 62
     7
 10
3592.7332706416
 20
2203.0790775594
 30
0.0
 11
3067.9076825833
 21
2506.0544405336
 31
0.0
  0
LINE
  5
426
  8
0
  6
CONTINUOUS
 62
     7
 10
3065.2063505728
 20
2522.1859978784
 30
0.0
 11
3067.9076825833
 21
2506.0544405336
 31
0.0
  0
POLYLINE
  5
427
  8
0
  6
CONTINUOUS
 62
     7
 66
     1
 10
0.0
 20
0.0
 30
0.0
 70
   128
  0
VERTEX
  5
897
  8
0
  6
CONTINUOUS
 62
     7
 10
3222.3730056338
 20
2627.133831072
 30
0.0
  0
VERTEX
  5
898
  8
0
  6
CONTINUOUS
 62
     7
 10
3221.9650175548
 20
2627.5043084134
 30
0.0
  0
VERTEX
  5
899
  8
0
  6
CONTINUOUS
 62
     7
 10
3221.8179272486
 20
2627.9736815751
 30
0.0
  0
VERTEX
  5
89A
  8
0
  6
CONTINUOUS
 62
     7
 10
3221.9541153505
 20
2628.4703599935
 30
0.0
  0
VERTEX
  5
89B
  8
0
  6
CONTINUOUS
 62
     7
 10
3222.3528541719
 20
2628.9187910646
 30
0.0
  0
VERTEX
  5
89C
  8
0
  6
CONTINUOUS
 62
     7
 10
3222.9534412753
 20
2629.2507787189
 30
0.0
  0
VERTEX
  5
89D
  8
0
  6
CONTINUOUS
 62
     7
 10
3223.6644421461
 20
2629.415624789
 30
0.0
  0
VERTEX
  5
89E
  8
0
  6
CONTINUOUS
 62
     7
 10
3224.377605238
 20
2629.3883043859
 30
0.0
  0
VERTEX
  5
89F
  8
0
  6
CONTINUOUS
 62
     7
 10
3224.984371684
 20
2629.173056258
 30
0.0
  0
VERTEX
  5
8A0
  8
0
  6
CONTINUOUS
 62
     7
 10
3225.3923432994
 20
2628.8025085721
 30
0.0
  0
VERTEX
  5
8A1
  8
0
  6
CONTINUOUS
 62
     7
 10
3225.539432508
 20
2628.3332158928
 30
0.0
  0
VERTEX
  5
8A2
  8
0
  6
CONTINUOUS
 62
     7
 10
3225.4032444062
 20
2627.8365374744
 30
0.0
  0
VERTEX
  5
8A3
  8
0
  6
CONTINUOUS
 62
     7
 10
3225.0045055848
 20
2627.3880252872
 30
0.0
  0
VERTEX
  5
8A4
  8
0
  6
CONTINUOUS
 62
     7
 10
3224.4039184814
 20
2627.056118749
 30
0.0
  0
VERTEX
  5
8A5
  8
0
  6
CONTINUOUS
 62
     7
 10
3223.6929176106
 20
2626.8912726789
 30
0.0
  0
VERTEX
  5
8A6
  8
0
  6
CONTINUOUS
 62
     7
 10
3222.9797556163
 20
2626.9185125995
 30
0.0
  0
VERTEX
  5
8A7
  8
0
  6
CONTINUOUS
 62
     7
 10
3222.3730056338
 20
2627.133831072
 30
0.0
  0
SEQEND
  5
B59
  8
0
  6
CONTINUOUS
 62
     7
  0
POLYLINE
  5
428
  8
0
  6
CONTINUOUS
 62
     7
 66
     1
 10
0.0
 20
0.0
 30
0.0
 70
   128
  0
VERTEX
  5
8A8
  8
0
  6
CONTINUOUS
 62
     7
 10
3387.3645798325
 20
2531.8862226894
 30
0.0
  0
VERTEX
  5
8A9
  8
0
  6
CONTINUOUS
 62
     7
 10
3386.9566005341
 20
2532.2566949619
 30
0.0
  0
VERTEX
  5
8AA
  8
0
  6
CONTINUOUS
 62
     7
 10
3386.8095014474
 20
2532.7260731926
 30
0.0
  0
VERTEX
  5
8AB
  8
0
  6
CONTINUOUS
 62
     7
 10
3386.9456983298
 20
2533.222746542
 30
0.0
  0
VERTEX
  5
8AC
  8
0
  6
CONTINUOUS
 62
     7
 10
3387.3444371512
 20
2533.6711776131
 30
0.0
  0
VERTEX
  5
8AD
  8
0
  6
CONTINUOUS
 62
     7
 10
3387.9450242546
 20
2534.0031652674
 30
0.0
  0
VERTEX
  5
8AE
  8
0
  6
CONTINUOUS
 62
     7
 10
3388.6560163448
 20
2534.1680164064
 30
0.0
  0
VERTEX
  5
8AF
  8
0
  6
CONTINUOUS
 62
     7
 10
3389.3691882173
 20
2534.1406909344
 30
0.0
  0
VERTEX
  5
8B0
  8
0
  6
CONTINUOUS
 62
     7
 10
3389.9759458827
 20
2533.9254478755
 30
0.0
  0
VERTEX
  5
8B1
  8
0
  6
CONTINUOUS
 62
     7
 10
3390.3839262787
 20
2533.5548951206
 30
0.0
  0
VERTEX
  5
8B2
  8
0
  6
CONTINUOUS
 62
     7
 10
3390.5310242679
 20
2533.0855973723
 30
0.0
  0
VERTEX
  5
8B3
  8
0
  6
CONTINUOUS
 62
     7
 10
3390.3948273855
 20
2532.5889240229
 30
0.0
  0
VERTEX
  5
8B4
  8
0
  6
CONTINUOUS
 62
     7
 10
3389.9960885641
 20
2532.1404118357
 30
0.0
  0
VERTEX
  5
8B5
  8
0
  6
CONTINUOUS
 62
     7
 10
3389.3955014607
 20
2531.8085052975
 30
0.0
  0
VERTEX
  5
8B6
  8
0
  6
CONTINUOUS
 62
     7
 10
3388.6845093705
 20
2531.6436541585
 30
0.0
  0
VERTEX
  5
8B7
  8
0
  6
CONTINUOUS
 62
     7
 10
3387.9713385956
 20
2531.670899148
 30
0.0
  0
VERTEX
  5
8B8
  8
0
  6
CONTINUOUS
 62
     7
 10
3387.3645798325
 20
2531.8862226894
 30
0.0
  0
SEQEND
  5
B5A
  8
0
  6
CONTINUOUS
 62
     7
  0
POLYLINE
  5
429
  8
0
  6
CONTINUOUS
 62
     7
 66
     1
 10
0.0
 20
0.0
 30
0.0
 70
   128
  0
VERTEX
  5
8B9
  8
0
  6
CONTINUOUS
 62
     7
 10
3347.9039398576
 20
2501.0712928395
 30
0.0
  0
VERTEX
  5
8BA
  8
0
  6
CONTINUOUS
 62
     7
 10
3347.4959605591
 20
2501.441765112
 30
0.0
  0
VERTEX
  5
8BB
  8
0
  6
CONTINUOUS
 62
     7
 10
3347.3488614724
 20
2501.9111433427
 30
0.0
  0
VERTEX
  5
8BC
  8
0
  6
CONTINUOUS
 62
     7
 10
3347.4850572572
 20
2502.4078160584
 30
0.0
  0
VERTEX
  5
8BD
  8
0
  6
CONTINUOUS
 62
     7
 10
3347.8837971762
 20
2502.8562477632
 30
0.0
  0
VERTEX
  5
8BE
  8
0
  6
CONTINUOUS
 62
     7
 10
3348.4843853772
 20
2503.1881549351
 30
0.0
  0
VERTEX
  5
8BF
  8
0
  6
CONTINUOUS
 62
     7
 10
3349.1953763698
 20
2503.3530865565
 30
0.0
  0
VERTEX
  5
8C0
  8
0
  6
CONTINUOUS
 62
     7
 10
3349.9085471447
 20
2503.3257604509
 30
0.0
  0
VERTEX
  5
8C1
  8
0
  6
CONTINUOUS
 62
     7
 10
3350.5153059078
 20
2503.1105180256
 30
0.0
  0
VERTEX
  5
8C2
  8
0
  6
CONTINUOUS
 62
     7
 10
3350.9232852062
 20
2502.739964637
 30
0.0
  0
VERTEX
  5
8C3
  8
0
  6
CONTINUOUS
 62
     7
 10
3351.0703842929
 20
2502.2706675224
 30
0.0
  0
VERTEX
  5
8C4
  8
0
  6
CONTINUOUS
 62
     7
 10
3350.9341885081
 20
2501.7739136906
 30
0.0
  0
VERTEX
  5
8C5
  8
0
  6
CONTINUOUS
 62
     7
 10
3350.5354485891
 20
2501.3254819858
 30
0.0
  0
VERTEX
  5
8C6
  8
0
  6
CONTINUOUS
 62
     7
 10
3349.9348603881
 20
2500.993574814
 30
0.0
  0
VERTEX
  5
8C7
  8
0
  6
CONTINUOUS
 62
     7
 10
3349.2238693955
 20
2500.8287243086
 30
0.0
  0
VERTEX
  5
8C8
  8
0
  6
CONTINUOUS
 62
     7
 10
3348.5106986206
 20
2500.8559692981
 30
0.0
  0
VERTEX
  5
8C9
  8
0
  6
CONTINUOUS
 62
     7
 10
3347.9039398576
 20
2501.0712928395
 30
0.0
  0
SEQEND
  5
B5B
  8
0
  6
CONTINUOUS
 62
     7
  0
POLYLINE
  5
42A
  8
0
  6
CONTINUOUS
 62
     7
 66
     1
 10
0.0
 20
0.0
 30
0.0
 70
   128
  0
VERTEX
  5
8CA
  8
0
  6
CONTINUOUS
 62
     7
 10
3182.9123656589
 20
2596.3189012221
 30
0.0
  0
VERTEX
  5
8CB
  8
0
  6
CONTINUOUS
 62
     7
 10
3182.5043775798
 20
2596.6893785635
 30
0.0
  0
VERTEX
  5
8CC
  8
0
  6
CONTINUOUS
 62
     7
 10
3182.3572872737
 20
2597.1587517252
 30
0.0
  0
VERTEX
  5
8CD
  8
0
  6
CONTINUOUS
 62
     7
 10
3182.4934742779
 20
2597.6554295099
 30
0.0
  0
VERTEX
  5
8CE
  8
0
  6
CONTINUOUS
 62
     7
 10
3182.8922141969
 20
2598.1038612147
 30
0.0
  0
VERTEX
  5
8CF
  8
0
  6
CONTINUOUS
 62
     7
 10
3183.4928023979
 20
2598.4357683866
 30
0.0
  0
VERTEX
  5
8D0
  8
0
  6
CONTINUOUS
 62
     7
 10
3184.2038021711
 20
2598.6006949391
 30
0.0
  0
VERTEX
  5
8D1
  8
0
  6
CONTINUOUS
 62
     7
 10
3184.9169641654
 20
2598.5733739024
 30
0.0
  0
VERTEX
  5
8D2
  8
0
  6
CONTINUOUS
 62
     7
 10
3185.523731709
 20
2598.3581264081
 30
0.0
  0
VERTEX
  5
8D3
  8
0
  6
CONTINUOUS
 62
     7
 10
3185.9317022269
 20
2597.9875780885
 30
0.0
  0
VERTEX
  5
8D4
  8
0
  6
CONTINUOUS
 62
     7
 10
3186.078792533
 20
2597.5182860429
 30
0.0
  0
VERTEX
  5
8D5
  8
0
  6
CONTINUOUS
 62
     7
 10
3185.9426055288
 20
2597.0215271421
 30
0.0
  0
VERTEX
  5
8D6
  8
0
  6
CONTINUOUS
 62
     7
 10
3185.5438656098
 20
2596.5730954373
 30
0.0
  0
VERTEX
  5
8D7
  8
0
  6
CONTINUOUS
 62
     7
 10
3184.9432774088
 20
2596.2411882655
 30
0.0
  0
VERTEX
  5
8D8
  8
0
  6
CONTINUOUS
 62
     7
 10
3184.2322776356
 20
2596.076342829
 30
0.0
  0
VERTEX
  5
8D9
  8
0
  6
CONTINUOUS
 62
     7
 10
3183.5191156413
 20
2596.1035827496
 30
0.0
  0
VERTEX
  5
8DA
  8
0
  6
CONTINUOUS
 62
     7
 10
3182.9123656589
 20
2596.3189012221
 30
0.0
  0
SEQEND
  5
B5C
  8
0
  6
CONTINUOUS
 62
     7
  0
POLYLINE
  5
42B
  8
0
  6
CONTINUOUS
 62
     7
 66
     1
 10
0.0
 20
0.0
 30
0.0
 70
   128
  0
VERTEX
  5
8DB
  8
0
  6
CONTINUOUS
 62
     7
 10
3717.3477370106
 20
2341.3910008554
 30
0.0
  0
VERTEX
  5
8DC
  8
0
  6
CONTINUOUS
 62
     7
 10
3717.9545045542
 20
2341.175672245
 30
0.0
  0
VERTEX
  5
8DD
  8
0
  6
CONTINUOUS
 62
     7
 10
3718.6676665485
 20
2341.1484323244
 30
0.0
  0
VERTEX
  5
8DE
  8
0
  6
CONTINUOUS
 62
     7
 10
3719.3786674193
 20
2341.3132783945
 30
0.0
  0
VERTEX
  5
8DF
  8
0
  6
CONTINUOUS
 62
     7
 10
3719.9792545227
 20
2341.6451849327
 30
0.0
  0
VERTEX
  5
8E0
  8
0
  6
CONTINUOUS
 62
     7
 10
3720.3779933441
 20
2342.0936971199
 30
0.0
  0
VERTEX
  5
8E1
  8
0
  6
CONTINUOUS
 62
     7
 10
3720.5141814459
 20
2342.5903755383
 30
0.0
  0
VERTEX
  5
8E2
  8
0
  6
CONTINUOUS
 62
     7
 10
3720.3670922373
 20
2343.0596682176
 30
0.0
  0
VERTEX
  5
8E3
  8
0
  6
CONTINUOUS
 62
     7
 10
3719.9591030607
 20
2343.4302260414
 30
0.0
  0
VERTEX
  5
8E4
  8
0
  6
CONTINUOUS
 62
     7
 10
3719.3523541759
 20
2343.6454640314
 30
0.0
  0
VERTEX
  5
8E5
  8
0
  6
CONTINUOUS
 62
     7
 10
3718.639191084
 20
2343.6727844345
 30
0.0
  0
VERTEX
  5
8E6
  8
0
  6
CONTINUOUS
 62
     7
 10
3717.9281902132
 20
2343.5079383644
 30
0.0
  0
VERTEX
  5
8E7
  8
0
  6
CONTINUOUS
 62
     7
 10
3717.3276031098
 20
2343.1759507101
 30
0.0
  0
VERTEX
  5
8E8
  8
0
  6
CONTINUOUS
 62
     7
 10
3716.9288642884
 20
2342.727519639
 30
0.0
  0
VERTEX
  5
8E9
  8
0
  6
CONTINUOUS
 62
     7
 10
3716.7926761866
 20
2342.2308412206
 30
0.0
  0
VERTEX
  5
8EA
  8
0
  6
CONTINUOUS
 62
     7
 10
3716.9397664927
 20
2341.7614680589
 30
0.0
  0
VERTEX
  5
8EB
  8
0
  6
CONTINUOUS
 62
     7
 10
3717.3477370106
 20
2341.3910008554
 30
0.0
  0
SEQEND
  5
B5D
  8
0
  6
CONTINUOUS
 62
     7
  0
POLYLINE
  5
42C
  8
0
  6
CONTINUOUS
 62
     7
 66
     1
 10
0.0
 20
0.0
 30
0.0
 70
   128
  0
VERTEX
  5
8EC
  8
0
  6
CONTINUOUS
 62
     7
 10
3552.3561628119
 20
2436.6386092379
 30
0.0
  0
VERTEX
  5
8ED
  8
0
  6
CONTINUOUS
 62
     7
 10
3552.9629215749
 20
2436.4232856965
 30
0.0
  0
VERTEX
  5
8EE
  8
0
  6
CONTINUOUS
 62
     7
 10
3553.6760923498
 20
2436.396040707
 30
0.0
  0
VERTEX
  5
8EF
  8
0
  6
CONTINUOUS
 62
     7
 10
3554.38708444
 20
2436.560891846
 30
0.0
  0
VERTEX
  5
8F0
  8
0
  6
CONTINUOUS
 62
     7
 10
3554.9876715434
 20
2436.8927983842
 30
0.0
  0
VERTEX
  5
8F1
  8
0
  6
CONTINUOUS
 62
     7
 10
3555.3864103648
 20
2437.3413105714
 30
0.0
  0
VERTEX
  5
8F2
  8
0
  6
CONTINUOUS
 62
     7
 10
3555.5226072472
 20
2437.8379839208
 30
0.0
  0
VERTEX
  5
8F3
  8
0
  6
CONTINUOUS
 62
     7
 10
3555.375509258
 20
2438.3072816691
 30
0.0
  0
VERTEX
  5
8F4
  8
0
  6
CONTINUOUS
 62
     7
 10
3554.967528862
 20
2438.677834424
 30
0.0
  0
VERTEX
  5
8F5
  8
0
  6
CONTINUOUS
 62
     7
 10
3554.3607711966
 20
2438.8930774829
 30
0.0
  0
VERTEX
  5
8F6
  8
0
  6
CONTINUOUS
 62
     7
 10
3553.6475993241
 20
2438.9204029549
 30
0.0
  0
VERTEX
  5
8F7
  8
0
  6
CONTINUOUS
 62
     7
 10
3552.9366072339
 20
2438.7555518159
 30
0.0
  0
VERTEX
  5
8F8
  8
0
  6
CONTINUOUS
 62
     7
 10
3552.3360201305
 20
2438.4235641616
 30
0.0
  0
VERTEX
  5
8F9
  8
0
  6
CONTINUOUS
 62
     7
 10
3551.9372813091
 20
2437.9751330905
 30
0.0
  0
VERTEX
  5
8FA
  8
0
  6
CONTINUOUS
 62
     7
 10
3551.8010844267
 20
2437.4784597411
 30
0.0
  0
VERTEX
  5
8FB
  8
0
  6
CONTINUOUS
 62
     7
 10
3551.9481835134
 20
2437.0090815104
 30
0.0
  0
VERTEX
  5
8FC
  8
0
  6
CONTINUOUS
 62
     7
 10
3552.3561628119
 20
2436.6386092379
 30
0.0
  0
SEQEND
  5
B5E
  8
0
  6
CONTINUOUS
 62
     7
  0
POLYLINE
  5
42D
  8
0
  6
CONTINUOUS
 62
     7
 66
     1
 10
0.0
 20
0.0
 30
0.0
 70
   128
  0
VERTEX
  5
8FD
  8
0
  6
CONTINUOUS
 62
     7
 10
3512.8955228369
 20
2405.823679388
 30
0.0
  0
VERTEX
  5
8FE
  8
0
  6
CONTINUOUS
 62
     7
 10
3513.5022815999
 20
2405.6083558466
 30
0.0
  0
VERTEX
  5
8FF
  8
0
  6
CONTINUOUS
 62
     7
 10
3514.2154523748
 20
2405.5811108571
 30
0.0
  0
VERTEX
  5
900
  8
0
  6
CONTINUOUS
 62
     7
 10
3514.9264433674
 20
2405.7459613625
 30
0.0
  0
VERTEX
  5
901
  8
0
  6
CONTINUOUS
 62
     7
 10
3515.5270315684
 20
2406.0778685343
 30
0.0
  0
VERTEX
  5
902
  8
0
  6
CONTINUOUS
 62
     7
 10
3515.9257714874
 20
2406.5263002391
 30
0.0
  0
VERTEX
  5
903
  8
0
  6
CONTINUOUS
 62
     7
 10
3516.0619672723
 20
2407.0230540709
 30
0.0
  0
VERTEX
  5
904
  8
0
  6
CONTINUOUS
 62
     7
 10
3515.9148681855
 20
2407.4923511856
 30
0.0
  0
VERTEX
  5
905
  8
0
  6
CONTINUOUS
 62
     7
 10
3515.5068888871
 20
2407.8629045741
 30
0.0
  0
VERTEX
  5
906
  8
0
  6
CONTINUOUS
 62
     7
 10
3514.900130124
 20
2408.0781469994
 30
0.0
  0
VERTEX
  5
907
  8
0
  6
CONTINUOUS
 62
     7
 10
3514.1869593491
 20
2408.105473105
 30
0.0
  0
VERTEX
  5
908
  8
0
  6
CONTINUOUS
 62
     7
 10
3513.4759683565
 20
2407.9405414836
 30
0.0
  0
VERTEX
  5
909
  8
0
  6
CONTINUOUS
 62
     7
 10
3512.8753801555
 20
2407.6086343117
 30
0.0
  0
VERTEX
  5
90A
  8
0
  6
CONTINUOUS
 62
     7
 10
3512.4766402366
 20
2407.1602026069
 30
0.0
  0
VERTEX
  5
90B
  8
0
  6
CONTINUOUS
 62
     7
 10
3512.3404444517
 20
2406.6635298912
 30
0.0
  0
VERTEX
  5
90C
  8
0
  6
CONTINUOUS
 62
     7
 10
3512.4875435385
 20
2406.1941516605
 30
0.0
  0
VERTEX
  5
90D
  8
0
  6
CONTINUOUS
 62
     7
 10
3512.8955228369
 20
2405.823679388
 30
0.0
  0
SEQEND
  5
B5F
  8
0
  6
CONTINUOUS
 62
     7
  0
POLYLINE
  5
42E
  8
0
  6
CONTINUOUS
 62
     7
 66
     1
 10
0.0
 20
0.0
 30
0.0
 70
   128
  0
VERTEX
  5
90E
  8
0
  6
CONTINUOUS
 62
     7
 10
3677.8870970356
 20
2310.5760710055
 30
0.0
  0
VERTEX
  5
90F
  8
0
  6
CONTINUOUS
 62
     7
 10
3678.4938645792
 20
2310.3607423951
 30
0.0
  0
VERTEX
  5
910
  8
0
  6
CONTINUOUS
 62
     7
 10
3679.2070265736
 20
2310.3335024745
 30
0.0
  0
VERTEX
  5
911
  8
0
  6
CONTINUOUS
 62
     7
 10
3679.9180263467
 20
2310.498347911
 30
0.0
  0
VERTEX
  5
912
  8
0
  6
CONTINUOUS
 62
     7
 10
3680.5186145477
 20
2310.8302550828
 30
0.0
  0
VERTEX
  5
913
  8
0
  6
CONTINUOUS
 62
     7
 10
3680.9173544667
 20
2311.2786867876
 30
0.0
  0
VERTEX
  5
914
  8
0
  6
CONTINUOUS
 62
     7
 10
3681.053541471
 20
2311.7754456884
 30
0.0
  0
VERTEX
  5
915
  8
0
  6
CONTINUOUS
 62
     7
 10
3680.9064511648
 20
2312.2447377341
 30
0.0
  0
VERTEX
  5
916
  8
0
  6
CONTINUOUS
 62
     7
 10
3680.4984630858
 20
2312.6152961915
 30
0.0
  0
VERTEX
  5
917
  8
0
  6
CONTINUOUS
 62
     7
 10
3679.8917131034
 20
2312.8305335479
 30
0.0
  0
VERTEX
  5
918
  8
0
  6
CONTINUOUS
 62
     7
 10
3679.178551109
 20
2312.8578545846
 30
0.0
  0
VERTEX
  5
919
  8
0
  6
CONTINUOUS
 62
     7
 10
3678.4675513358
 20
2312.6929280321
 30
0.0
  0
VERTEX
  5
91A
  8
0
  6
CONTINUOUS
 62
     7
 10
3677.8669631348
 20
2312.3610208602
 30
0.0
  0
VERTEX
  5
91B
  8
0
  6
CONTINUOUS
 62
     7
 10
3677.4682232159
 20
2311.9125891554
 30
0.0
  0
VERTEX
  5
91C
  8
0
  6
CONTINUOUS
 62
     7
 10
3677.3320362116
 20
2311.4159113707
 30
0.0
  0
VERTEX
  5
91D
  8
0
  6
CONTINUOUS
 62
     7
 10
3677.4791265178
 20
2310.946538209
 30
0.0
  0
VERTEX
  5
91E
  8
0
  6
CONTINUOUS
 62
     7
 10
3677.8870970356
 20
2310.5760710055
 30
0.0
  0
SEQEND
  5
B60
  8
0
  6
CONTINUOUS
 62
     7
  0
POLYLINE
  5
42F
  8
0
  6
CONTINUOUS
 62
     7
 66
     1
 10
0.0
 20
0.0
 30
0.0
 70
   128
  0
VERTEX
  5
91F
  8
0
  6
CONTINUOUS
 62
     7
 10
3646.7094180502
 20
2251.303051212
 30
0.0
  0
VERTEX
  5
920
  8
0
  6
CONTINUOUS
 62
     7
 10
3647.1981283199
 20
2251.3555381313
 30
0.0
  0
VERTEX
  5
921
  8
0
  6
CONTINUOUS
 62
     7
 10
3647.8952679264
 20
2251.6571610199
 30
0.0
  0
VERTEX
  5
922
  8
0
  6
CONTINUOUS
 62
     7
 10
3648.5871830797
 20
2252.1974937002
 30
0.0
  0
VERTEX
  5
923
  8
0
  6
CONTINUOUS
 62
     7
 10
3649.2124008453
 20
2252.928556732
 30
0.0
  0
VERTEX
  5
924
  8
0
  6
CONTINUOUS
 62
     7
 10
3649.7153620181
 20
2253.7853433562
 30
0.0
  0
VERTEX
  5
925
  8
0
  6
CONTINUOUS
 62
     7
 10
3650.0513821582
 20
2254.6918469646
 30
0.0
  0
VERTEX
  5
926
  8
0
  6
CONTINUOUS
 62
     7
 10
3650.1905984671
 20
2255.5674765022
 30
0.0
  0
VERTEX
  5
927
  8
0
  6
CONTINUOUS
 62
     7
 10
3650.1206434792
 20
2256.3344403106
 30
0.0
  0
VERTEX
  5
928
  8
0
  6
CONTINUOUS
 62
     7
 10
3649.9064013896
 20
2256.841032629
 30
0.0
  0
SEQEND
  5
B61
  8
0
  6
CONTINUOUS
 62
     7
  0
POLYLINE
  5
430
  8
0
  6
CONTINUOUS
 62
     7
 66
     1
 10
0.0
 20
0.0
 30
0.0
 70
   128
  0
VERTEX
  5
929
  8
0
  6
CONTINUOUS
 62
     7
 10
3832.4065491519
 20
2396.3146681616
 30
0.0
  0
VERTEX
  5
92A
  8
0
  6
CONTINUOUS
 62
     7
 10
3832.8952594216
 20
2396.3671550809
 30
0.0
  0
VERTEX
  5
92B
  8
0
  6
CONTINUOUS
 62
     7
 10
3833.5923946378
 20
2396.668694319
 30
0.0
  0
VERTEX
  5
92C
  8
0
  6
CONTINUOUS
 62
     7
 10
3834.2843141814
 20
2397.2090295337
 30
0.0
  0
VERTEX
  5
92D
  8
0
  6
CONTINUOUS
 62
     7
 10
3834.9095363373
 20
2397.9400951001
 30
0.0
  0
VERTEX
  5
92E
  8
0
  6
CONTINUOUS
 62
     7
 10
3835.4124975101
 20
2398.7969628402
 30
0.0
  0
VERTEX
  5
92F
  8
0
  6
CONTINUOUS
 62
     7
 10
3835.7485132599
 20
2399.7034639142
 30
0.0
  0
VERTEX
  5
930
  8
0
  6
CONTINUOUS
 62
     7
 10
3835.8877295689
 20
2400.5790934518
 30
0.0
  0
VERTEX
  5
931
  8
0
  6
CONTINUOUS
 62
     7
 10
3835.8177745809
 20
2401.3459761441
 30
0.0
  0
VERTEX
  5
932
  8
0
  6
CONTINUOUS
 62
     7
 10
3835.603528101
 20
2401.8525659281
 30
0.0
  0
SEQEND
  5
B62
  8
0
  6
CONTINUOUS
 62
     7
  0
POLYLINE
  5
431
  8
0
  6
CONTINUOUS
 62
     7
 66
     1
 10
0.0
 20
0.0
 30
0.0
 70
   128
  0
VERTEX
  5
933
  8
0
  6
CONTINUOUS
 62
     7
 10
3845.3654933471
 20
2418.6015064981
 30
0.0
  0
VERTEX
  5
934
  8
0
  6
CONTINUOUS
 62
     7
 10
3845.0744254552
 20
2419.2517624621
 30
0.0
  0
VERTEX
  5
935
  8
0
  6
CONTINUOUS
 62
     7
 10
3844.5225651575
 20
2419.7135904419
 30
0.0
  0
VERTEX
  5
936
  8
0
  6
CONTINUOUS
 62
     7
 10
3843.7508124583
 20
2419.9702844749
 30
0.0
  0
VERTEX
  5
937
  8
0
  6
CONTINUOUS
 62
     7
 10
3842.8068811024
 20
2420.0163767495
 30
0.0
  0
VERTEX
  5
938
  8
0
  6
CONTINUOUS
 62
     7
 10
3841.771192545
 20
2419.8261480423
 30
0.0
  0
SEQEND
  5
B63
  8
0
  6
CONTINUOUS
 62
     7
  0
LINE
  5
432
  8
0
  6
CONTINUOUS
 62
     7
 10
3845.3654933471
 20
2418.6015064981
 30
0.0
 11
3844.8842378013
 21
2418.2256954067
 31
0.0
  0
POLYLINE
  5
433
  8
0
  6
CONTINUOUS
 62
     7
 66
     1
 10
0.0
 20
0.0
 30
0.0
 70
   128
  0
VERTEX
  5
939
  8
0
  6
CONTINUOUS
 62
     7
 10
3320.1474391039
 20
2722.4173826282
 30
0.0
  0
VERTEX
  5
93A
  8
0
  6
CONTINUOUS
 62
     7
 10
3320.1266290974
 20
2722.440920597
 30
0.0
  0
VERTEX
  5
93B
  8
0
  6
CONTINUOUS
 62
     7
 10
3319.8317679891
 20
2722.4223109746
 30
0.0
  0
VERTEX
  5
93C
  8
0
  6
CONTINUOUS
 62
     7
 10
3319.5280121396
 20
2722.0988377957
 30
0.0
  0
VERTEX
  5
93D
  8
0
  6
CONTINUOUS
 62
     7
 10
3319.2192864743
 20
2721.4889423437
 30
0.0
  0
SEQEND
  5
B64
  8
0
  6
CONTINUOUS
 62
     7
  0
LINE
  5
434
  8
0
  6
CONTINUOUS
 62
     7
 10
3845.3654933471
 20
2418.6015064981
 30
0.0
 11
3848.0668253577
 21
2402.4699491533
 31
0.0
  0
LINE
  5
435
  8
0
  6
CONTINUOUS
 62
     7
 10
3848.0668253577
 20
2402.4699491533
 30
0.0
 11
3847.8837675457
 21
2402.3270398646
 31
0.0
  0
ARC
  5
436
  8
0
  6
CONTINUOUS
 62
     7
 10
3349.5263118973
 20
2500.1996250299
 30
0.0
 40
2.233429937345765
 50
49.0483979755
 51
149.9637011268
  0
POLYLINE
  5
437
  8
0
  6
CONTINUOUS
 62
     7
 66
     1
 10
0.0
 20
0.0
 30
0.0
 70
   128
  0
VERTEX
  5
93E
  8
0
  6
CONTINUOUS
 62
     7
 10
3065.1913884415
 20
2523.5114534406
 30
0.0
  0
VERTEX
  5
93F
  8
0
  6
CONTINUOUS
 62
     7
 10
3065.250490616
 20
2524.1955350445
 30
0.0
  0
VERTEX
  5
940
  8
0
  6
CONTINUOUS
 62
     7
 10
3065.5994313993
 20
2524.7443910451
 30
0.0
  0
VERTEX
  5
941
  8
0
  6
CONTINUOUS
 62
     7
 10
3066.2159695483
 20
2525.1351962417
 30
0.0
  0
VERTEX
  5
942
  8
0
  6
CONTINUOUS
 62
     7
 10
3067.0606626372
 20
2525.3540365502
 30
0.0
  0
VERTEX
  5
943
  8
0
  6
CONTINUOUS
 62
     7
 10
3068.0639156824
 20
2525.3608300338
 30
0.0
  0
SEQEND
  5
B65
  8
0
  6
CONTINUOUS
 62
     7
  0
POLYLINE
  5
438
  8
0
  6
CONTINUOUS
 62
     7
 66
     1
 10
0.0
 20
0.0
 30
0.0
 70
   128
  0
VERTEX
  5
944
  8
0
  6
CONTINUOUS
 62
     7
 10
3319.2192864743
 20
2721.4889423437
 30
0.0
  0
VERTEX
  5
945
  8
0
  6
CONTINUOUS
 62
     7
 10
3318.8541981797
 20
2722.1528374236
 30
0.0
  0
VERTEX
  5
946
  8
0
  6
CONTINUOUS
 62
     7
 10
3318.6797365686
 20
2722.3358936253
 30
0.0
  0
VERTEX
  5
947
  8
0
  6
CONTINUOUS
 62
     7
 10
3318.5962243444
 20
2722.3181771413
 30
0.0
  0
SEQEND
  5
B66
  8
0
  6
CONTINUOUS
 62
     7
  0
LINE
  5
439
  8
0
  6
CONTINUOUS
 62
     7
 10
3065.1913884415
 20
2523.5114534406
 30
0.0
 11
3065.2866578804
 21
2522.942506724
 31
0.0
  0
ARC
  5
43A
  8
0
  6
CONTINUOUS
 62
     7
 10
3184.5347305628
 20
2595.4472608988
 30
0.0
 40
2.233410001646213
 50
49.048308272
 51
149.9642199357
  0
ARC
  5
43B
  8
0
  6
CONTINUOUS
 62
     7
 10
3793.5298049548
 20
1813.7222648658
 30
0.0
 40
12.80672321203971
 50
122.605498102
 51
177.3944524571
  0
ARC
  5
43C
  8
0
  6
CONTINUOUS
 62
     7
 10
3795.415437396
 20
1812.633712428
 30
0.0
 40
12.8067232120425
 50
122.605498102
 51
177.3944524571
  0
ARC
  5
43D
  8
0
  6
CONTINUOUS
 62
     7
 10
3793.329379697
 20
1824.9572662617
 30
0.0
 40
1.09177406119187
 50
350.7853117362
 51
129.2029507116
  0
LINE
  5
43E
  8
0
  6
CONTINUOUS
 62
     7
 10
3794.4070646822
 20
1824.3405967693
 30
0.0
 11
3794.4070646822
 21
1824.7824358486
 31
0.0
  0
LINE
  5
43F
  8
0
  6
CONTINUOUS
 62
     7
 10
3792.6393029274
 20
1820.3596785714
 30
0.0
 11
3792.9589779927
 21
1820.5778862159
 31
0.0
  0
LINE
  5
440
  8
0
  6
CONTINUOUS
 62
     7
 10
3791.4607892371
 20
1819.6793370995
 30
0.0
 11
3792.6393029274
 21
1820.3596785714
 31
0.0
  0
ARC
  5
441
  8
0
  6
CONTINUOUS
 62
     7
 10
3793.5310420279
 20
1816.4428287688
 30
0.0
 40
3.841995938679265
 50
122.6052686524
 51
177.3942382461
  0
LINE
  5
442
  8
0
  6
CONTINUOUS
 62
     7
 10
3789.6930187016
 20
1816.6174991435
 30
0.0
 11
3789.6930187016
 21
1812.2625816532
 31
0.0
  0
LINE
  5
443
  8
0
  6
CONTINUOUS
 62
     7
 10
3782.621954121
 20
1808.1805429594
 30
0.0
 11
3782.621954121
 21
1813.2159023658
 31
0.0
  0
LINE
  5
444
  8
0
  6
CONTINUOUS
 62
     7
 10
3788.5145137919
 20
1823.422104933
 30
0.0
 11
3792.6393029274
 21
1825.8032950158
 31
0.0
  0
POLYLINE
  5
445
  8
0
  6
CONTINUOUS
 62
     7
 66
     1
 10
0.0
 20
0.0
 30
0.0
 70
   128
  0
VERTEX
  5
948
  8
0
  6
CONTINUOUS
 62
     7
 10
3789.6930187016
 20
1814.8956671339
 30
0.0
  0
VERTEX
  5
949
  8
0
  6
CONTINUOUS
 62
     7
 10
3790.3237726314
 20
1815.0693843893
 30
0.0
  0
VERTEX
  5
94A
  8
0
  6
CONTINUOUS
 62
     7
 10
3790.8841676659
 20
1815.1867300887
 30
0.0
  0
SEQEND
  5
B67
  8
0
  6
CONTINUOUS
 62
     7
  0
LINE
  5
446
  8
0
  6
CONTINUOUS
 62
     7
 10
3778.1436056101
 20
1807.771885983
 30
0.0
 11
3773.4295508489
 21
1810.4932518708
 31
0.0
  0
ARC
  5
447
  8
0
  6
CONTINUOUS
 62
     7
 10
3774.4624020962
 20
1813.2146084889
 30
0.0
 40
2.910766830552628
 50
110.7833431679
 51
249.2164719645
  0
LINE
  5
448
  8
0
  6
CONTINUOUS
 62
     7
 10
3783.6186568436
 20
1821.8180090584
 30
0.0
 11
3773.4295596295
 21
1815.9359684395
 31
0.0
  0
LINE
  5
449
  8
0
  6
CONTINUOUS
 62
     7
 10
3780.7363216798
 20
1809.2690953973
 30
0.0
 11
3780.7363216798
 21
1814.3044548036
 31
0.0
  0
LINE
  5
44A
  8
0
  6
CONTINUOUS
 62
     7
 10
3786.6288813507
 20
1824.5106573708
 30
0.0
 11
3790.7536704862
 21
1826.8918474536
 31
0.0
  0
LINE
  5
44B
  8
0
  6
CONTINUOUS
 62
     7
 10
3790.9893767365
 20
1844.989539361
 30
0.0
 11
3790.9893767365
 21
1829.066987624
 31
0.0
  0
ARC
  5
44C
  8
0
  6
CONTINUOUS
 62
     7
 10
3792.0670673044
 20
1845.1643601068
 30
0.0
 40
1.091778023861353
 50
50.7975969894
 51
189.2141405628
  0
LINE
  5
44D
  8
0
  6
CONTINUOUS
 62
     7
 10
3800.9307997514
 20
1841.29184432
 30
0.0
 11
3792.7571384913
 21
1846.0103985282
 31
0.0
  0
ARC
  5
44E
  8
0
  6
CONTINUOUS
 62
     7
 10
3797.0439310716
 20
1830.1162235556
 30
0.0
 40
2.578699946138451
 50
181.3831384937
 51
240.331212944
  0
POLYLINE
  5
44F
  8
0
  6
CONTINUOUS
 62
     7
 66
     1
 10
0.0
 20
0.0
 30
0.0
 70
   128
  0
VERTEX
  5
94B
  8
0
  6
CONTINUOUS
 62
     7
 10
3796.5463157843
 20
1829.8992222432
 30
0.0
  0
VERTEX
  5
94C
  8
0
  6
CONTINUOUS
 62
     7
 10
3796.1769689019
 20
1830.3864110909
 30
0.0
  0
VERTEX
  5
94D
  8
0
  6
CONTINUOUS
 62
     7
 10
3795.7034139365
 20
1830.7685651654
 30
0.0
  0
VERTEX
  5
94E
  8
0
  6
CONTINUOUS
 62
     7
 10
3795.2298765323
 20
1830.9331558781
 30
0.0
  0
VERTEX
  5
94F
  8
0
  6
CONTINUOUS
 62
     7
 10
3794.8284278002
 20
1830.8551656928
 30
0.0
  0
VERTEX
  5
950
  8
0
  6
CONTINUOUS
 62
     7
 10
3794.5601806706
 20
1830.546443286
 30
0.0
  0
VERTEX
  5
951
  8
0
  6
CONTINUOUS
 62
     7
 10
3794.4659824642
 20
1830.0539789578
 30
0.0
  0
SEQEND
  5
B68
  8
0
  6
CONTINUOUS
 62
     7
  0
POLYLINE
  5
450
  8
0
  6
CONTINUOUS
 62
     7
 66
     1
 10
0.0
 20
0.0
 30
0.0
 70
   128
  0
VERTEX
  5
952
  8
0
  6
CONTINUOUS
 62
     7
 10
3798.7086247248
 20
1837.1310622126
 30
0.0
  0
VERTEX
  5
953
  8
0
  6
CONTINUOUS
 62
     7
 10
3798.6144265184
 20
1837.7322854749
 30
0.0
  0
VERTEX
  5
954
  8
0
  6
CONTINUOUS
 62
     7
 10
3798.34619695
 20
1838.3507092873
 30
0.0
  0
VERTEX
  5
955
  8
0
  6
CONTINUOUS
 62
     7
 10
3797.9447306567
 20
1838.8922124505
 30
0.0
  0
VERTEX
  5
956
  8
0
  6
CONTINUOUS
 62
     7
 10
3797.4711932525
 20
1839.2743563872
 30
0.0
  0
VERTEX
  5
957
  8
0
  6
CONTINUOUS
 62
     7
 10
3796.9976382871
 20
1839.4389572377
 30
0.0
  0
VERTEX
  5
958
  8
0
  6
CONTINUOUS
 62
     7
 10
3796.5961895551
 20
1839.3609670524
 30
0.0
  0
VERTEX
  5
959
  8
0
  6
CONTINUOUS
 62
     7
 10
3796.3279424255
 20
1839.0522446457
 30
0.0
  0
VERTEX
  5
95A
  8
0
  6
CONTINUOUS
 62
     7
 10
3796.2337442191
 20
1838.5597803174
 30
0.0
  0
VERTEX
  5
95B
  8
0
  6
CONTINUOUS
 62
     7
 10
3796.3279424255
 20
1837.958557055
 30
0.0
  0
VERTEX
  5
95C
  8
0
  6
CONTINUOUS
 62
     7
 10
3796.5961895551
 20
1837.3401231048
 30
0.0
  0
VERTEX
  5
95D
  8
0
  6
CONTINUOUS
 62
     7
 10
3796.9976382871
 20
1836.7986300795
 30
0.0
  0
VERTEX
  5
95E
  8
0
  6
CONTINUOUS
 62
     7
 10
3797.4711932525
 20
1836.416476005
 30
0.0
  0
VERTEX
  5
95F
  8
0
  6
CONTINUOUS
 62
     7
 10
3797.9447306567
 20
1836.2518852923
 30
0.0
  0
VERTEX
  5
960
  8
0
  6
CONTINUOUS
 62
     7
 10
3798.34619695
 20
1836.3298653397
 30
0.0
  0
VERTEX
  5
961
  8
0
  6
CONTINUOUS
 62
     7
 10
3798.6144265184
 20
1836.6385978843
 30
0.0
  0
VERTEX
  5
962
  8
0
  6
CONTINUOUS
 62
     7
 10
3798.7086247248
 20
1837.1310622126
 30
0.0
  0
SEQEND
  5
B69
  8
0
  6
CONTINUOUS
 62
     7
  0
ARC
  5
451
  8
0
  6
CONTINUOUS
 62
     7
 10
3791.4859589319
 20
1825.8697413082
 30
0.0
 40
1.257357284225669
 50
65.6904553613
 51
125.6197232553
  0
ARC
  5
452
  8
0
  6
CONTINUOUS
 62
     7
 10
3779.8918303551
 20
1807.7376738406
 30
0.0
 40
2.765810700952136
 50
230.7959543765
 51
9.2140191134
  0
LINE
  5
453
  8
0
  6
CONTINUOUS
 62
     7
 10
3789.6930187016
 20
1812.2625816532
 30
0.0
 11
3789.6903142789
 21
1812.0846330829
 31
0.0
  0
LINE
  5
454
  8
0
  6
CONTINUOUS
 62
     7
 10
3788.7448199773
 20
1809.6278639244
 30
0.0
 11
3788.3810751134
 21
1809.3629149403
 31
0.0
  0
ARC
  5
455
  8
0
  6
CONTINUOUS
 62
     7
 10
3779.1557297684
 20
1809.0126982146
 30
0.0
 40
1.601252730127233
 50
230.7960515125
 51
9.2140281017
  0
LINE
  5
456
  8
0
  6
CONTINUOUS
 62
     7
 10
3801.6163358036
 20
1843.0731773808
 30
0.0
 11
3794.6427533713
 21
1847.0989408281
 31
0.0
  0
LINE
  5
457
  8
0
  6
CONTINUOUS
 62
     7
 10
3778.1436056101
 20
1805.5944475169
 30
0.0
 11
3773.4295508489
 21
1808.3158134046
 31
0.0
  0
ARC
  5
458
  8
0
  6
CONTINUOUS
 62
     7
 10
3774.8133248039
 20
1811.3698812247
 30
0.0
 40
3.352933135034108
 50
185.6948410371
 51
245.6250960594
  0
ARC
  5
459
  8
0
  6
CONTINUOUS
 62
     7
 10
3785.740192517
 20
1829.2419242511
 30
0.0
 40
5.252098418142461
 50
330.1412655945
 51
358.0912420418
  0
LINE
  5
45A
  8
0
  6
CONTINUOUS
 62
     7
 10
3789.9652258789
 20
1812.798971633
 30
0.0
 11
3789.6930187016
 21
1812.7182286678
 31
0.0
  0
ARC
  5
45B
  8
0
  6
CONTINUOUS
 62
     7
 10
3793.9104500788
 20
1846.0766847474
 30
0.0
 40
1.257487815779628
 50
54.3837055824
 51
114.306115801
  0
ARC
  5
45C
  8
0
  6
CONTINUOUS
 62
     7
 10
3322.1252947005
 20
2085.8582960573
 30
0.0
 40
12.80672321203876
 50
122.605498102
 51
177.3944524571
  0
ARC
  5
45D
  8
0
  6
CONTINUOUS
 62
     7
 10
3324.0109095805
 20
2084.7697537574
 30
0.0
 40
12.80672321203831
 50
122.605498102
 51
177.3944524571
  0
ARC
  5
45E
  8
0
  6
CONTINUOUS
 62
     7
 10
3321.9248518815
 20
2097.0933075911
 30
0.0
 40
1.091774061192553
 50
350.7853117363
 51
129.2029507115
  0
LINE
  5
45F
  8
0
  6
CONTINUOUS
 62
     7
 10
3323.0025368667
 20
2095.5575933459
 30
0.0
 11
3323.0025368667
 21
2096.918477178
 31
0.0
  0
ARC
  5
460
  8
0
  6
CONTINUOUS
 62
     7
 10
3319.1644039099
 20
2095.7322835651
 30
0.0
 40
3.842106358119851
 50
302.6063115425
 51
357.3940169466
  0
LINE
  5
461
  8
0
  6
CONTINUOUS
 62
     7
 10
3320.0562614216
 20
2091.8153784289
 30
0.0
 11
3321.2347751119
 21
2092.4957199008
 31
0.0
  0
ARC
  5
462
  8
0
  6
CONTINUOUS
 62
     7
 10
3322.1265142124
 20
2088.5788700982
 30
0.0
 40
3.841995938680326
 50
122.6052686524
 51
177.3942382461
  0
LINE
  5
463
  8
0
  6
CONTINUOUS
 62
     7
 10
3318.2884908861
 20
2088.7535404729
 30
0.0
 11
3318.2884908861
 21
2084.3986229826
 31
0.0
  0
LINE
  5
464
  8
0
  6
CONTINUOUS
 62
     7
 10
3311.2174263055
 20
2080.3165842888
 30
0.0
 11
3311.2174263055
 21
2085.3519436952
 31
0.0
  0
LINE
  5
465
  8
0
  6
CONTINUOUS
 62
     7
 10
3317.1099859764
 20
2095.5581462623
 30
0.0
 11
3321.2347751119
 21
2097.9393363452
 31
0.0
  0
LINE
  5
466
  8
0
  6
CONTINUOUS
 62
     7
 10
3338.2053353737
 20
2084.4662019952
 30
0.0
 11
3335.6126105234
 21
2082.9694537983
 31
0.0
  0
ARC
  5
467
  8
0
  6
CONTINUOUS
 62
     7
 10
3333.8448394866
 20
2086.3813142378
 30
0.0
 40
3.842630101528411
 50
242.6103499375
 51
297.3898143536
  0
LINE
  5
468
  8
0
  6
CONTINUOUS
 62
     7
 10
3332.0770782331
 20
2082.9694487293
 30
0.0
 11
3326.1845097816
 21
2086.371156089
 31
0.0
  0
ARC
  5
469
  8
0
  6
CONTINUOUS
 62
     7
 10
3321.4406318239
 20
2077.18789022
 30
0.0
 40
10.33618643889798
 50
62.6800948243
 51
107.7558594103
  0
LINE
  5
46A
  8
0
  6
CONTINUOUS
 62
     7
 10
3306.7390777946
 20
2079.9079273124
 30
0.0
 11
3302.0250405946
 21
2082.6292830623
 31
0.0
  0
ARC
  5
46B
  8
0
  6
CONTINUOUS
 62
     7
 10
3303.0578909176
 20
2085.3506480819
 30
0.0
 40
2.910774357329843
 50
110.7836372107
 51
249.2165476565
  0
LINE
  5
46C
  8
0
  6
CONTINUOUS
 62
     7
 10
3312.2141290281
 20
2093.9540503878
 30
0.0
 11
3302.025031814
 21
2088.0720097689
 31
0.0
  0
LINE
  5
46D
  8
0
  6
CONTINUOUS
 62
     7
 10
3309.3318114255
 20
2081.4051265888
 30
0.0
 11
3309.3318114255
 21
2086.4404859951
 31
0.0
  0
LINE
  5
46E
  8
0
  6
CONTINUOUS
 62
     7
 10
3315.2243710964
 20
2096.6466885623
 30
0.0
 11
3319.3491602319
 21
2099.0278786451
 31
0.0
  0
LINE
  5
46F
  8
0
  6
CONTINUOUS
 62
     7
 10
3319.584848921
 20
2117.1255806904
 30
0.0
 11
3319.584848921
 21
2101.2030289533
 31
0.0
  0
ARC
  5
470
  8
0
  6
CONTINUOUS
 62
     7
 10
3320.6625458663
 20
2117.300393862
 30
0.0
 40
1.091783106158129
 50
50.7970571412
 51
189.2136946135
  0
LINE
  5
471
  8
0
  6
CONTINUOUS
 62
     7
 10
3339.0302984691
 20
2107.9413279164
 30
0.0
 11
3321.352628237
 21
2118.1464297197
 31
0.0
  0
ARC
  5
472
  8
0
  6
CONTINUOUS
 62
     7
 10
3336.9599887356
 20
2104.7047997407
 30
0.0
 40
3.842043339753925
 50
2.6054960431
 51
57.3941754678
  0
LINE
  5
473
  8
0
  6
CONTINUOUS
 62
     7
 10
3340.798060224
 20
2104.8794544713
 30
0.0
 11
3340.798060224
 21
2088.9569027342
 31
0.0
  0
POLYLINE
  5
474
  8
0
  6
CONTINUOUS
 62
     7
 66
     1
 10
0.0
 20
0.0
 30
0.0
 70
   128
  0
VERTEX
  5
963
  8
0
  6
CONTINUOUS
 62
     7
 10
3337.3214544963
 20
2093.9578976008
 30
0.0
  0
VERTEX
  5
964
  8
0
  6
CONTINUOUS
 62
     7
 10
3337.2272562898
 20
2094.5591208632
 30
0.0
  0
VERTEX
  5
965
  8
0
  6
CONTINUOUS
 62
     7
 10
3336.9590091603
 20
2095.1775548134
 30
0.0
  0
VERTEX
  5
966
  8
0
  6
CONTINUOUS
 62
     7
 10
3336.5575604282
 20
2095.7190478388
 30
0.0
  0
VERTEX
  5
967
  8
0
  6
CONTINUOUS
 62
     7
 10
3336.084023024
 20
2096.1011917754
 30
0.0
  0
VERTEX
  5
968
  8
0
  6
CONTINUOUS
 62
     7
 10
3335.6104680586
 20
2096.265792626
 30
0.0
  0
VERTEX
  5
969
  8
0
  6
CONTINUOUS
 62
     7
 10
3335.2090193265
 20
2096.1878024407
 30
0.0
  0
VERTEX
  5
96A
  8
0
  6
CONTINUOUS
 62
     7
 10
3334.9407721969
 20
2095.8790800339
 30
0.0
  0
VERTEX
  5
96B
  8
0
  6
CONTINUOUS
 62
     7
 10
3334.8465739905
 20
2095.3866157057
 30
0.0
  0
VERTEX
  5
96C
  8
0
  6
CONTINUOUS
 62
     7
 10
3334.9407721969
 20
2094.7853924433
 30
0.0
  0
VERTEX
  5
96D
  8
0
  6
CONTINUOUS
 62
     7
 10
3335.2090193265
 20
2094.1669584931
 30
0.0
  0
VERTEX
  5
96E
  8
0
  6
CONTINUOUS
 62
     7
 10
3335.6104680586
 20
2093.6254654677
 30
0.0
  0
VERTEX
  5
96F
  8
0
  6
CONTINUOUS
 62
     7
 10
3336.084023024
 20
2093.2433113932
 30
0.0
  0
VERTEX
  5
970
  8
0
  6
CONTINUOUS
 62
     7
 10
3336.5575604282
 20
2093.0787206805
 30
0.0
  0
VERTEX
  5
971
  8
0
  6
CONTINUOUS
 62
     7
 10
3336.9590091603
 20
2093.1567108658
 30
0.0
  0
VERTEX
  5
972
  8
0
  6
CONTINUOUS
 62
     7
 10
3337.2272562898
 20
2093.4654332726
 30
0.0
  0
VERTEX
  5
973
  8
0
  6
CONTINUOUS
 62
     7
 10
3337.3214544963
 20
2093.9578976008
 30
0.0
  0
SEQEND
  5
B6A
  8
0
  6
CONTINUOUS
 62
     7
  0
POLYLINE
  5
475
  8
0
  6
CONTINUOUS
 62
     7
 66
     1
 10
0.0
 20
0.0
 30
0.0
 70
   128
  0
VERTEX
  5
974
  8
0
  6
CONTINUOUS
 62
     7
 10
3323.0614722099
 20
2102.1900101493
 30
0.0
  0
VERTEX
  5
975
  8
0
  6
CONTINUOUS
 62
     7
 10
3323.1556528551
 20
2101.5887970248
 30
0.0
  0
VERTEX
  5
976
  8
0
  6
CONTINUOUS
 62
     7
 10
3323.4238999847
 20
2100.9703630746
 30
0.0
  0
VERTEX
  5
977
  8
0
  6
CONTINUOUS
 62
     7
 10
3323.8253487168
 20
2100.4288700492
 30
0.0
  0
VERTEX
  5
978
  8
0
  6
CONTINUOUS
 62
     7
 10
3324.2989036822
 20
2100.0467159747
 30
0.0
  0
VERTEX
  5
979
  8
0
  6
CONTINUOUS
 62
     7
 10
3324.7724410864
 20
2099.882125262
 30
0.0
  0
VERTEX
  5
97A
  8
0
  6
CONTINUOUS
 62
     7
 10
3325.1739073796
 20
2099.9601053094
 30
0.0
  0
VERTEX
  5
97B
  8
0
  6
CONTINUOUS
 62
     7
 10
3325.442136948
 20
2100.2688378541
 30
0.0
  0
VERTEX
  5
97C
  8
0
  6
CONTINUOUS
 62
     7
 10
3325.5363351545
 20
2100.7613021823
 30
0.0
  0
VERTEX
  5
97D
  8
0
  6
CONTINUOUS
 62
     7
 10
3325.442136948
 20
2101.3625254447
 30
0.0
  0
VERTEX
  5
97E
  8
0
  6
CONTINUOUS
 62
     7
 10
3325.1739073796
 20
2101.980949257
 30
0.0
  0
VERTEX
  5
97F
  8
0
  6
CONTINUOUS
 62
     7
 10
3324.7724410864
 20
2102.5224524203
 30
0.0
  0
VERTEX
  5
980
  8
0
  6
CONTINUOUS
 62
     7
 10
3324.2989036822
 20
2102.9045963569
 30
0.0
  0
VERTEX
  5
981
  8
0
  6
CONTINUOUS
 62
     7
 10
3323.8253487168
 20
2103.0691972075
 30
0.0
  0
VERTEX
  5
982
  8
0
  6
CONTINUOUS
 62
     7
 10
3323.4238999847
 20
2102.9912070222
 30
0.0
  0
VERTEX
  5
983
  8
0
  6
CONTINUOUS
 62
     7
 10
3323.1556528551
 20
2102.6824846154
 30
0.0
  0
VERTEX
  5
984
  8
0
  6
CONTINUOUS
 62
     7
 10
3323.0614722099
 20
2102.1900101493
 30
0.0
  0
SEQEND
  5
B6B
  8
0
  6
CONTINUOUS
 62
     7
  0
POLYLINE
  5
476
  8
0
  6
CONTINUOUS
 62
     7
 66
     1
 10
0.0
 20
0.0
 30
0.0
 70
   128
  0
VERTEX
  5
985
  8
0
  6
CONTINUOUS
 62
     7
 10
3327.3040969093
 20
2109.2671035419
 30
0.0
  0
VERTEX
  5
986
  8
0
  6
CONTINUOUS
 62
     7
 10
3327.2099162641
 20
2109.8683166665
 30
0.0
  0
VERTEX
  5
987
  8
0
  6
CONTINUOUS
 62
     7
 10
3326.9416691345
 20
2110.4867506167
 30
0.0
  0
VERTEX
  5
988
  8
0
  6
CONTINUOUS
 62
     7
 10
3326.5402204024
 20
2111.0282436421
 30
0.0
  0
VERTEX
  5
989
  8
0
  6
CONTINUOUS
 62
     7
 10
3326.066665437
 20
2111.4103977165
 30
0.0
  0
VERTEX
  5
98A
  8
0
  6
CONTINUOUS
 62
     7
 10
3325.5931280328
 20
2111.5749884292
 30
0.0
  0
VERTEX
  5
98B
  8
0
  6
CONTINUOUS
 62
     7
 10
3325.1916617396
 20
2111.4970083818
 30
0.0
  0
VERTEX
  5
98C
  8
0
  6
CONTINUOUS
 62
     7
 10
3324.9234321712
 20
2111.1882758372
 30
0.0
  0
VERTEX
  5
98D
  8
0
  6
CONTINUOUS
 62
     7
 10
3324.8292339648
 20
2110.6958115089
 30
0.0
  0
VERTEX
  5
98E
  8
0
  6
CONTINUOUS
 62
     7
 10
3324.9234321712
 20
2110.0945882466
 30
0.0
  0
VERTEX
  5
98F
  8
0
  6
CONTINUOUS
 62
     7
 10
3325.1916617396
 20
2109.4761644342
 30
0.0
  0
VERTEX
  5
990
  8
0
  6
CONTINUOUS
 62
     7
 10
3325.5931280328
 20
2108.934661271
 30
0.0
  0
VERTEX
  5
991
  8
0
  6
CONTINUOUS
 62
     7
 10
3326.066665437
 20
2108.5525173344
 30
0.0
  0
VERTEX
  5
992
  8
0
  6
CONTINUOUS
 62
     7
 10
3326.5402204024
 20
2108.3879164838
 30
0.0
  0
VERTEX
  5
993
  8
0
  6
CONTINUOUS
 62
     7
 10
3326.9416691345
 20
2108.4659066691
 30
0.0
  0
VERTEX
  5
994
  8
0
  6
CONTINUOUS
 62
     7
 10
3327.2099162641
 20
2108.7746290758
 30
0.0
  0
VERTEX
  5
995
  8
0
  6
CONTINUOUS
 62
     7
 10
3327.3040969093
 20
2109.2671035419
 30
0.0
  0
SEQEND
  5
B6C
  8
0
  6
CONTINUOUS
 62
     7
  0
ARC
  5
477
  8
0
  6
CONTINUOUS
 62
     7
 10
3338.8456036156
 20
2105.7933420406
 30
0.0
 40
3.842043339753946
 50
2.6054960431
 51
57.3941754678
  0
ARC
  5
478
  8
0
  6
CONTINUOUS
 62
     7
 10
3320.0814486776
 20
2098.0057724997
 30
0.0
 40
1.257357284225482
 50
65.6904553613
 51
125.6197232553
  0
ARC
  5
479
  8
0
  6
CONTINUOUS
 62
     7
 10
3308.4873059514
 20
2079.8737092618
 30
0.0
 40
2.765808279248871
 50
230.7958222468
 51
9.2141512431
  0
ARC
  5
47A
  8
0
  6
CONTINUOUS
 62
     7
 10
3315.2756870615
 20
2084.0151105518
 30
0.0
 40
3.03711518887707
 50
304.0579220725
 51
7.254404887
  0
ARC
  5
47B
  8
0
  6
CONTINUOUS
 62
     7
 10
3307.7512053834
 20
2081.1487504067
 30
0.0
 40
1.601263315999506
 50
230.7962020759
 51
9.2132054023
  0
LINE
  5
47C
  8
0
  6
CONTINUOUS
 62
     7
 10
3342.683675104
 20
2105.9679967712
 30
0.0
 11
3342.683675104
 21
2090.0454450342
 31
0.0
  0
LINE
  5
47D
  8
0
  6
CONTINUOUS
 62
     7
 10
3340.9159133491
 20
2109.0298702163
 30
0.0
 11
3323.238243117
 21
2119.2349720196
 31
0.0
  0
LINE
  5
47E
  8
0
  6
CONTINUOUS
 62
     7
 10
3306.7390777946
 20
2077.7304888463
 30
0.0
 11
3302.0250405946
 21
2080.4518445962
 31
0.0
  0
ARC
  5
47F
  8
0
  6
CONTINUOUS
 62
     7
 10
3333.8448394866
 20
2084.2038757717
 30
0.0
 40
3.842630101528411
 50
242.6103499375
 51
297.3898143536
  0
ARC
  5
480
  8
0
  6
CONTINUOUS
 62
     7
 10
3303.4088173453
 20
2083.5059347128
 30
0.0
 40
3.352954597990693
 50
185.6950132629
 51
245.6252097877
  0
LINE
  5
481
  8
0
  6
CONTINUOUS
 62
     7
 10
3338.2053353737
 20
2082.288763529
 30
0.0
 11
3335.6126105234
 21
2080.7920153321
 31
0.0
  0
LINE
  5
482
  8
0
  6
CONTINUOUS
 62
     7
 10
3332.0770782331
 20
2080.7920102632
 30
0.0
 11
3326.1845097816
 21
2084.1937176229
 31
0.0
  0
ARC
  5
483
  8
0
  6
CONTINUOUS
 62
     7
 10
3335.1689641382
 20
2089.2130742617
 30
0.0
 40
5.634922057512062
 50
302.6053089891
 51
357.3943547592
  0
ARC
  5
484
  8
0
  6
CONTINUOUS
 62
     7
 10
3314.3356647015
 20
2101.3779655805
 30
0.0
 40
5.252098418145763
 50
330.1412655945
 51
358.0912420418
  0
ARC
  5
485
  8
0
  6
CONTINUOUS
 62
     7
 10
3332.9607955849
 20
2090.4878430216
 30
0.0
 40
9.732939027915462
 50
302.6050074322
 51
357.3947978347
  0
ARC
  5
486
  8
0
  6
CONTINUOUS
 62
     7
 10
3321.4264126754
 20
2074.8404808786
 30
0.0
 40
10.49392803796917
 50
63.0370457363
 51
107.3989084983
  0
ARC
  5
487
  8
0
  6
CONTINUOUS
 62
     7
 10
3322.5059456715
 20
2118.2127749868
 30
0.0
 40
1.257436409000084
 50
54.3823553145
 51
114.3074660688
  0
LINE
  5
488
  8
0
  6
CONTINUOUS
 62
     7
 10
3795.649711827
 20
2253.4587310425
 30
0.0
 11
3752.959327021
 21
2278.1033656152
 31
0.0
  0
LINE
  5
489
  8
0
  6
CONTINUOUS
 62
     7
 10
3795.6496942658
 20
2254.2751428364
 30
0.0
 11
3753.5604288867
 21
2278.5727585504
 31
0.0
  0
POLYLINE
  5
48A
  8
0
  6
CONTINUOUS
 62
     7
 66
     1
 10
0.0
 20
0.0
 30
0.0
 70
   128
  0
VERTEX
  5
996
  8
0
  6
CONTINUOUS
 62
     7
 10
3807.9599282177
 20
2149.9516166646
 30
0.0
  0
VERTEX
  5
997
  8
0
  6
CONTINUOUS
 62
     7
 10
3807.9446324239
 20
2149.9679499723
 30
0.0
  0
VERTEX
  5
998
  8
0
  6
CONTINUOUS
 62
     7
 10
3807.6063864034
 20
2150.2409244115
 30
0.0
  0
VERTEX
  5
999
  8
0
  6
CONTINUOUS
 62
     7
 10
3807.268140383
 20
2150.3584805148
 30
0.0
  0
VERTEX
  5
99A
  8
0
  6
CONTINUOUS
 62
     7
 10
3806.9813837624
 20
2150.3027775844
 30
0.0
  0
VERTEX
  5
99B
  8
0
  6
CONTINUOUS
 62
     7
 10
3806.7897736524
 20
2150.0822760641
 30
0.0
  0
VERTEX
  5
99C
  8
0
  6
CONTINUOUS
 62
     7
 10
3806.7224967454
 20
2149.7304998969
 30
0.0
  0
VERTEX
  5
99D
  8
0
  6
CONTINUOUS
 62
     7
 10
3806.7897736524
 20
2149.3010880243
 30
0.0
  0
VERTEX
  5
99E
  8
0
  6
CONTINUOUS
 62
     7
 10
3806.9813837624
 20
2148.8593176219
 30
0.0
  0
VERTEX
  5
99F
  8
0
  6
CONTINUOUS
 62
     7
 10
3807.268140383
 20
2148.4725325446
 30
0.0
  0
VERTEX
  5
9A0
  8
0
  6
CONTINUOUS
 62
     7
 10
3807.6063864034
 20
2148.1995581054
 30
0.0
  0
VERTEX
  5
9A1
  8
0
  6
CONTINUOUS
 62
     7
 10
3807.9446324239
 20
2148.0820020021
 30
0.0
  0
VERTEX
  5
9A2
  8
0
  6
CONTINUOUS
 62
     7
 10
3807.9599282177
 20
2148.0806751621
 30
0.0
  0
SEQEND
  5
B6D
  8
0
  6
CONTINUOUS
 62
     7
  0
POLYLINE
  5
48B
  8
0
  6
CONTINUOUS
 62
     7
 66
     1
 10
0.0
 20
0.0
 30
0.0
 70
   128
  0
VERTEX
  5
9A3
  8
0
  6
CONTINUOUS
 62
     7
 10
3798.4729184745
 20
2154.4928800626
 30
0.0
  0
VERTEX
  5
9A4
  8
0
  6
CONTINUOUS
 62
     7
 10
3798.5401953815
 20
2154.0634681899
 30
0.0
  0
VERTEX
  5
9A5
  8
0
  6
CONTINUOUS
 62
     7
 10
3798.7318054915
 20
2153.6216977876
 30
0.0
  0
VERTEX
  5
9A6
  8
0
  6
CONTINUOUS
 62
     7
 10
3799.0185621121
 20
2153.2349127103
 30
0.0
  0
VERTEX
  5
9A7
  8
0
  6
CONTINUOUS
 62
     7
 10
3799.3568081325
 20
2152.9619382711
 30
0.0
  0
VERTEX
  5
9A8
  8
0
  6
CONTINUOUS
 62
     7
 10
3799.695054153
 20
2152.8443821678
 30
0.0
  0
VERTEX
  5
9A9
  8
0
  6
CONTINUOUS
 62
     7
 10
3799.9818107736
 20
2152.9000850982
 30
0.0
  0
VERTEX
  5
9AA
  8
0
  6
CONTINUOUS
 62
     7
 10
3800.1734033224
 20
2153.1206373143
 30
0.0
  0
VERTEX
  5
9AB
  8
0
  6
CONTINUOUS
 62
     7
 10
3800.2406802294
 20
2153.4723729236
 30
0.0
  0
VERTEX
  5
9AC
  8
0
  6
CONTINUOUS
 62
     7
 10
3800.1734033224
 20
2153.9018253542
 30
0.0
  0
VERTEX
  5
9AD
  8
0
  6
CONTINUOUS
 62
     7
 10
3799.9818107736
 20
2154.3435450607
 30
0.0
  0
VERTEX
  5
9AE
  8
0
  6
CONTINUOUS
 62
     7
 10
3799.695054153
 20
2154.7303301379
 30
0.0
  0
VERTEX
  5
9AF
  8
0
  6
CONTINUOUS
 62
     7
 10
3799.3568081325
 20
2155.0033045772
 30
0.0
  0
VERTEX
  5
9B0
  8
0
  6
CONTINUOUS
 62
     7
 10
3799.0185621121
 20
2155.1208606805
 30
0.0
  0
VERTEX
  5
9B1
  8
0
  6
CONTINUOUS
 62
     7
 10
3798.7318054915
 20
2155.0651577501
 30
0.0
  0
VERTEX
  5
9B2
  8
0
  6
CONTINUOUS
 62
     7
 10
3798.5401953815
 20
2154.8446562298
 30
0.0
  0
VERTEX
  5
9B3
  8
0
  6
CONTINUOUS
 62
     7
 10
3798.4729184745
 20
2154.4928800626
 30
0.0
  0
SEQEND
  5
B6E
  8
0
  6
CONTINUOUS
 62
     7
  0
POLYLINE
  5
48C
  8
0
  6
CONTINUOUS
 62
     7
 66
     1
 10
0.0
 20
0.0
 30
0.0
 70
   128
  0
VERTEX
  5
9B4
  8
0
  6
CONTINUOUS
 62
     7
 10
3796.7051567197
 20
2145.9870787029
 30
0.0
  0
VERTEX
  5
9B5
  8
0
  6
CONTINUOUS
 62
     7
 10
3796.7724336266
 20
2145.5576668303
 30
0.0
  0
VERTEX
  5
9B6
  8
0
  6
CONTINUOUS
 62
     7
 10
3796.9640437366
 20
2145.1158964279
 30
0.0
  0
VERTEX
  5
9B7
  8
0
  6
CONTINUOUS
 62
     7
 10
3797.250782796
 20
2144.7291214886
 30
0.0
  0
VERTEX
  5
9B8
  8
0
  6
CONTINUOUS
 62
     7
 10
3797.5890288165
 20
2144.4561470493
 30
0.0
  0
VERTEX
  5
9B9
  8
0
  6
CONTINUOUS
 62
     7
 10
3797.9272923982
 20
2144.3385808081
 30
0.0
  0
VERTEX
  5
9BA
  8
0
  6
CONTINUOUS
 62
     7
 10
3798.2140314575
 20
2144.3942938764
 30
0.0
  0
VERTEX
  5
9BB
  8
0
  6
CONTINUOUS
 62
     7
 10
3798.4056415676
 20
2144.6148359547
 30
0.0
  0
VERTEX
  5
9BC
  8
0
  6
CONTINUOUS
 62
     7
 10
3798.4729184745
 20
2144.9665715639
 30
0.0
  0
VERTEX
  5
9BD
  8
0
  6
CONTINUOUS
 62
     7
 10
3798.4056415676
 20
2145.3960239946
 30
0.0
  0
VERTEX
  5
9BE
  8
0
  6
CONTINUOUS
 62
     7
 10
3798.2140314575
 20
2145.8377538389
 30
0.0
  0
VERTEX
  5
9BF
  8
0
  6
CONTINUOUS
 62
     7
 10
3797.9272923982
 20
2146.2245287783
 30
0.0
  0
VERTEX
  5
9C0
  8
0
  6
CONTINUOUS
 62
     7
 10
3797.5890288165
 20
2146.4975133554
 30
0.0
  0
VERTEX
  5
9C1
  8
0
  6
CONTINUOUS
 62
     7
 10
3797.250782796
 20
2146.6150694587
 30
0.0
  0
VERTEX
  5
9C2
  8
0
  6
CONTINUOUS
 62
     7
 10
3796.9640437366
 20
2146.5593563905
 30
0.0
  0
VERTEX
  5
9C3
  8
0
  6
CONTINUOUS
 62
     7
 10
3796.7724336266
 20
2146.3388548702
 30
0.0
  0
VERTEX
  5
9C4
  8
0
  6
CONTINUOUS
 62
     7
 10
3796.7051567197
 20
2145.9870787029
 30
0.0
  0
SEQEND
  5
B6F
  8
0
  6
CONTINUOUS
 62
     7
  0
POLYLINE
  5
48D
  8
0
  6
CONTINUOUS
 62
     7
 66
     1
 10
0.0
 20
0.0
 30
0.0
 70
   128
  0
VERTEX
  5
9C5
  8
0
  6
CONTINUOUS
 62
     7
 10
3807.9599282177
 20
2207.7899501303
 30
0.0
  0
VERTEX
  5
9C6
  8
0
  6
CONTINUOUS
 62
     7
 10
3807.9446324239
 20
2207.8062428799
 30
0.0
  0
VERTEX
  5
9C7
  8
0
  6
CONTINUOUS
 62
     7
 10
3807.6063864034
 20
2208.0792173192
 30
0.0
  0
VERTEX
  5
9C8
  8
0
  6
CONTINUOUS
 62
     7
 10
3807.268140383
 20
2208.1967734225
 30
0.0
  0
VERTEX
  5
9C9
  8
0
  6
CONTINUOUS
 62
     7
 10
3806.9813837624
 20
2208.1411110501
 30
0.0
  0
VERTEX
  5
9CA
  8
0
  6
CONTINUOUS
 62
     7
 10
3806.7897736524
 20
2207.9206095298
 30
0.0
  0
VERTEX
  5
9CB
  8
0
  6
CONTINUOUS
 62
     7
 10
3806.7224967454
 20
2207.5687928046
 30
0.0
  0
VERTEX
  5
9CC
  8
0
  6
CONTINUOUS
 62
     7
 10
3806.7897736524
 20
2207.139380932
 30
0.0
  0
VERTEX
  5
9CD
  8
0
  6
CONTINUOUS
 62
     7
 10
3806.9813837624
 20
2206.6976510876
 30
0.0
  0
VERTEX
  5
9CE
  8
0
  6
CONTINUOUS
 62
     7
 10
3807.268140383
 20
2206.3108254523
 30
0.0
  0
VERTEX
  5
9CF
  8
0
  6
CONTINUOUS
 62
     7
 10
3807.6063864034
 20
2206.0378510131
 30
0.0
  0
VERTEX
  5
9D0
  8
0
  6
CONTINUOUS
 62
     7
 10
3807.9446324239
 20
2205.9202949098
 30
0.0
  0
VERTEX
  5
9D1
  8
0
  6
CONTINUOUS
 62
     7
 10
3807.9599282177
 20
2205.9190086278
 30
0.0
  0
SEQEND
  5
B70
  8
0
  6
CONTINUOUS
 62
     7
  0
POLYLINE
  5
48E
  8
0
  6
CONTINUOUS
 62
     7
 66
     1
 10
0.0
 20
0.0
 30
0.0
 70
   128
  0
VERTEX
  5
9D2
  8
0
  6
CONTINUOUS
 62
     7
 10
3798.4729184745
 20
2212.3311729702
 30
0.0
  0
VERTEX
  5
9D3
  8
0
  6
CONTINUOUS
 62
     7
 10
3798.5401953815
 20
2211.9017610976
 30
0.0
  0
VERTEX
  5
9D4
  8
0
  6
CONTINUOUS
 62
     7
 10
3798.7318054915
 20
2211.4600312533
 30
0.0
  0
VERTEX
  5
9D5
  8
0
  6
CONTINUOUS
 62
     7
 10
3799.0185621121
 20
2211.073205618
 30
0.0
  0
VERTEX
  5
9D6
  8
0
  6
CONTINUOUS
 62
     7
 10
3799.3568081325
 20
2210.8002311788
 30
0.0
  0
VERTEX
  5
9D7
  8
0
  6
CONTINUOUS
 62
     7
 10
3799.695054153
 20
2210.6826750754
 30
0.0
  0
VERTEX
  5
9D8
  8
0
  6
CONTINUOUS
 62
     7
 10
3799.9818107736
 20
2210.7384185639
 30
0.0
  0
VERTEX
  5
9D9
  8
0
  6
CONTINUOUS
 62
     7
 10
3800.1734033224
 20
2210.958930222
 30
0.0
  0
VERTEX
  5
9DA
  8
0
  6
CONTINUOUS
 62
     7
 10
3800.2406802294
 20
2211.3106658313
 30
0.0
  0
VERTEX
  5
9DB
  8
0
  6
CONTINUOUS
 62
     7
 10
3800.1734033224
 20
2211.7401588199
 30
0.0
  0
VERTEX
  5
9DC
  8
0
  6
CONTINUOUS
 62
     7
 10
3799.9818107736
 20
2212.1818785264
 30
0.0
  0
VERTEX
  5
9DD
  8
0
  6
CONTINUOUS
 62
     7
 10
3799.695054153
 20
2212.5686230456
 30
0.0
  0
VERTEX
  5
9DE
  8
0
  6
CONTINUOUS
 62
     7
 10
3799.3568081325
 20
2212.8415974849
 30
0.0
  0
VERTEX
  5
9DF
  8
0
  6
CONTINUOUS
 62
     7
 10
3799.0185621121
 20
2212.9591535882
 30
0.0
  0
VERTEX
  5
9E0
  8
0
  6
CONTINUOUS
 62
     7
 10
3798.7318054915
 20
2212.9034912158
 30
0.0
  0
VERTEX
  5
9E1
  8
0
  6
CONTINUOUS
 62
     7
 10
3798.5401953815
 20
2212.6829896955
 30
0.0
  0
VERTEX
  5
9E2
  8
0
  6
CONTINUOUS
 62
     7
 10
3798.4729184745
 20
2212.3311729702
 30
0.0
  0
SEQEND
  5
B71
  8
0
  6
CONTINUOUS
 62
     7
  0
POLYLINE
  5
48F
  8
0
  6
CONTINUOUS
 62
     7
 66
     1
 10
0.0
 20
0.0
 30
0.0
 70
   128
  0
VERTEX
  5
9E3
  8
0
  6
CONTINUOUS
 62
     7
 10
3796.7051567197
 20
2203.8254121686
 30
0.0
  0
VERTEX
  5
9E4
  8
0
  6
CONTINUOUS
 62
     7
 10
3796.7724336266
 20
2203.39591918
 30
0.0
  0
VERTEX
  5
9E5
  8
0
  6
CONTINUOUS
 62
     7
 10
3796.9640437366
 20
2202.9541893356
 30
0.0
  0
VERTEX
  5
9E6
  8
0
  6
CONTINUOUS
 62
     7
 10
3797.250782796
 20
2202.5674549543
 30
0.0
  0
VERTEX
  5
9E7
  8
0
  6
CONTINUOUS
 62
     7
 10
3797.5890288165
 20
2202.294480515
 30
0.0
  0
VERTEX
  5
9E8
  8
0
  6
CONTINUOUS
 62
     7
 10
3797.9272923982
 20
2202.1769142738
 30
0.0
  0
VERTEX
  5
9E9
  8
0
  6
CONTINUOUS
 62
     7
 10
3798.2140314575
 20
2202.2325867841
 30
0.0
  0
VERTEX
  5
9EA
  8
0
  6
CONTINUOUS
 62
     7
 10
3798.4056415676
 20
2202.4530883044
 30
0.0
  0
VERTEX
  5
9EB
  8
0
  6
CONTINUOUS
 62
     7
 10
3798.4729184745
 20
2202.8049050297
 30
0.0
  0
VERTEX
  5
9EC
  8
0
  6
CONTINUOUS
 62
     7
 10
3798.4056415676
 20
2203.2343169023
 30
0.0
  0
VERTEX
  5
9ED
  8
0
  6
CONTINUOUS
 62
     7
 10
3798.2140314575
 20
2203.6760467466
 30
0.0
  0
VERTEX
  5
9EE
  8
0
  6
CONTINUOUS
 62
     7
 10
3797.9272923982
 20
2204.062862244
 30
0.0
  0
VERTEX
  5
9EF
  8
0
  6
CONTINUOUS
 62
     7
 10
3797.5890288165
 20
2204.3358468211
 30
0.0
  0
VERTEX
  5
9F0
  8
0
  6
CONTINUOUS
 62
     7
 10
3797.250782796
 20
2204.4534029244
 30
0.0
  0
VERTEX
  5
9F1
  8
0
  6
CONTINUOUS
 62
     7
 10
3796.9640437366
 20
2204.3976492982
 30
0.0
  0
VERTEX
  5
9F2
  8
0
  6
CONTINUOUS
 62
     7
 10
3796.7724336266
 20
2204.1771477779
 30
0.0
  0
VERTEX
  5
9F3
  8
0
  6
CONTINUOUS
 62
     7
 10
3796.7051567197
 20
2203.8254121686
 30
0.0
  0
SEQEND
  5
B72
  8
0
  6
CONTINUOUS
 62
     7
  0
ARC
  5
490
  8
0
  6
CONTINUOUS
 62
     7
 10
3809.2152577983
 20
2207.9945382001
 30
0.0
 40
1.777982186531588
 50
174.8086225984
 51
225.0866359027
  0
ARC
  5
491
  8
0
  6
CONTINUOUS
 62
     7
 10
3800.9202519148
 20
2212.7235026123
 30
0.0
 40
1.736167106303435
 50
173.5746382481
 51
246.4197261072
  0
ARC
  5
492
  8
0
  6
CONTINUOUS
 62
     7
 10
3799.152370547
 20
2204.2176639314
 30
0.0
 40
1.736047882470203
 50
173.5743026243
 51
246.4223159319
  0
ARC
  5
493
  8
0
  6
CONTINUOUS
 62
     7
 10
3809.2152867545
 20
2150.1562152436
 30
0.0
 40
1.778010073099698
 50
174.8090442955
 51
225.0862142056
  0
ARC
  5
494
  8
0
  6
CONTINUOUS
 62
     7
 10
3800.9201906407
 20
2154.8851699181
 30
0.0
 40
1.736106130728337
 50
173.5744372491
 51
246.4210541875
  0
ARC
  5
495
  8
0
  6
CONTINUOUS
 62
     7
 10
3799.1524318244
 20
2146.3793702549
 30
0.0
 40
1.736108860934771
 50
173.5745037356
 51
246.4209877009
  0
LINE
  5
496
  8
0
  6
CONTINUOUS
 62
     7
 10
3807.9599457789
 20
2122.1699730882
 30
0.0
 11
3687.5742691868
 21
2191.6671448959
 31
0.0
  0
LINE
  5
497
  8
0
  6
CONTINUOUS
 62
     7
 10
3755.1481884761
 20
1961.7911404236
 30
0.0
 11
3674.5524647232
 21
2008.3180613928
 31
0.0
  0
LINE
  5
498
  8
0
  6
CONTINUOUS
 62
     7
 10
3622.7620967814
 20
2038.21600441
 30
0.0
 11
3348.0162699895
 21
2196.8233941638
 31
0.0
  0
LINE
  5
499
  8
0
  6
CONTINUOUS
 62
     7
 10
3324.181050557
 20
2210.583173457
 30
0.0
 11
3321.352628237
 21
2212.2159869069
 31
0.0
  0
LINE
  5
49A
  8
0
  6
CONTINUOUS
 62
     7
 10
3321.352628237
 20
2212.2159869069
 30
0.0
 11
3322.0597294267
 21
2212.6241877349
 31
0.0
  0
LINE
  5
49B
  8
0
  6
CONTINUOUS
 62
     7
 10
3754.547244661
 20
1962.9544595597
 30
0.0
 11
3674.5524559426
 21
2009.1344681178
 31
0.0
  0
LINE
  5
49C
  8
0
  6
CONTINUOUS
 62
     7
 10
3622.7620923911
 20
2039.0324086005
 30
0.0
 11
3348.7182608738
 21
2197.2345451083
 31
0.0
  0
LINE
  5
49D
  8
0
  6
CONTINUOUS
 62
     7
 10
3324.181050557
 20
2211.399575113
 30
0.0
 11
3322.0597294267
 21
2212.6241877349
 31
0.0
  0
LINE
  5
49E
  8
0
  6
CONTINUOUS
 62
     7
 10
3321.352628237
 20
2199.1853437315
 30
0.0
 11
3321.352628237
 21
2212.2159869069
 31
0.0
  0
ARC
  5
49F
  8
0
  6
CONTINUOUS
 62
     7
 10
3315.2873053214
 20
2185.0648736403
 30
0.0
 40
6.787472217906417
 50
122.6051115995
 51
177.3947952448
  0
POLYLINE
  5
4A0
  8
0
  6
CONTINUOUS
 62
     7
 66
     1
 10
0.0
 20
0.0
 30
0.0
 70
   128
  0
VERTEX
  5
9F4
  8
0
  6
CONTINUOUS
 62
     7
 10
3325.3006289042
 20
2160.9127905699
 30
0.0
  0
VERTEX
  5
9F5
  8
0
  6
CONTINUOUS
 62
     7
 10
3325.3679233723
 20
2161.2645160413
 30
0.0
  0
VERTEX
  5
9F6
  8
0
  6
CONTINUOUS
 62
     7
 10
3325.5595159211
 20
2161.4850276994
 30
0.0
  0
VERTEX
  5
9F7
  8
0
  6
CONTINUOUS
 62
     7
 10
3325.8462725417
 20
2161.5407711878
 30
0.0
  0
VERTEX
  5
9F8
  8
0
  6
CONTINUOUS
 62
     7
 10
3326.1845185622
 20
2161.4231745265
 30
0.0
  0
VERTEX
  5
9F9
  8
0
  6
CONTINUOUS
 62
     7
 10
3326.5227645827
 20
2161.1502406453
 30
0.0
  0
VERTEX
  5
9FA
  8
0
  6
CONTINUOUS
 62
     7
 10
3326.8095212032
 20
2160.76341501
 30
0.0
  0
VERTEX
  5
9FB
  8
0
  6
CONTINUOUS
 62
     7
 10
3327.0011137521
 20
2160.3216953035
 30
0.0
  0
VERTEX
  5
9FC
  8
0
  6
CONTINUOUS
 62
     7
 10
3327.0684082202
 20
2159.8922732931
 30
0.0
  0
VERTEX
  5
9FD
  8
0
  6
CONTINUOUS
 62
     7
 10
3327.0011137521
 20
2159.5405072636
 30
0.0
  0
VERTEX
  5
9FE
  8
0
  6
CONTINUOUS
 62
     7
 10
3326.8095212032
 20
2159.3199956055
 30
0.0
  0
VERTEX
  5
9FF
  8
0
  6
CONTINUOUS
 62
     7
 10
3326.5227645827
 20
2159.2642521171
 30
0.0
  0
VERTEX
  5
A00
  8
0
  6
CONTINUOUS
 62
     7
 10
3326.1845185622
 20
2159.3818487784
 30
0.0
  0
VERTEX
  5
A01
  8
0
  6
CONTINUOUS
 62
     7
 10
3325.8462725417
 20
2159.6547826596
 30
0.0
  0
VERTEX
  5
A02
  8
0
  6
CONTINUOUS
 62
     7
 10
3325.5595159211
 20
2160.0416082949
 30
0.0
  0
VERTEX
  5
A03
  8
0
  6
CONTINUOUS
 62
     7
 10
3325.3679233723
 20
2160.4833280014
 30
0.0
  0
VERTEX
  5
A04
  8
0
  6
CONTINUOUS
 62
     7
 10
3325.3006289042
 20
2160.9127905699
 30
0.0
  0
SEQEND
  5
B73
  8
0
  6
CONTINUOUS
 62
     7
  0
POLYLINE
  5
4A1
  8
0
  6
CONTINUOUS
 62
     7
 66
     1
 10
0.0
 20
0.0
 30
0.0
 70
   128
  0
VERTEX
  5
A05
  8
0
  6
CONTINUOUS
 62
     7
 10
3327.0684082202
 20
2169.4185817917
 30
0.0
  0
VERTEX
  5
A06
  8
0
  6
CONTINUOUS
 62
     7
 10
3327.1356851271
 20
2169.7703174009
 30
0.0
  0
VERTEX
  5
A07
  8
0
  6
CONTINUOUS
 62
     7
 10
3327.327277676
 20
2169.9908290591
 30
0.0
  0
VERTEX
  5
A08
  8
0
  6
CONTINUOUS
 62
     7
 10
3327.6140342965
 20
2170.0465725475
 30
0.0
  0
VERTEX
  5
A09
  8
0
  6
CONTINUOUS
 62
     7
 10
3327.952280317
 20
2169.9289758861
 30
0.0
  0
VERTEX
  5
A0A
  8
0
  6
CONTINUOUS
 62
     7
 10
3328.2905263375
 20
2169.6560420049
 30
0.0
  0
VERTEX
  5
A0B
  8
0
  6
CONTINUOUS
 62
     7
 10
3328.5772829581
 20
2169.2692163697
 30
0.0
  0
VERTEX
  5
A0C
  8
0
  6
CONTINUOUS
 62
     7
 10
3328.7688930681
 20
2168.8274865253
 30
0.0
  0
VERTEX
  5
A0D
  8
0
  6
CONTINUOUS
 62
     7
 10
3328.8361699751
 20
2168.3980746527
 30
0.0
  0
VERTEX
  5
A0E
  8
0
  6
CONTINUOUS
 62
     7
 10
3328.7688930681
 20
2168.0462984854
 30
0.0
  0
VERTEX
  5
A0F
  8
0
  6
CONTINUOUS
 62
     7
 10
3328.5772829581
 20
2167.8257969651
 30
0.0
  0
VERTEX
  5
A10
  8
0
  6
CONTINUOUS
 62
     7
 10
3328.2905263375
 20
2167.7700534767
 30
0.0
  0
VERTEX
  5
A11
  8
0
  6
CONTINUOUS
 62
     7
 10
3327.952280317
 20
2167.887650138
 30
0.0
  0
VERTEX
  5
A12
  8
0
  6
CONTINUOUS
 62
     7
 10
3327.6140342965
 20
2168.1605840193
 30
0.0
  0
VERTEX
  5
A13
  8
0
  6
CONTINUOUS
 62
     7
 10
3327.327277676
 20
2168.5474096545
 30
0.0
  0
VERTEX
  5
A14
  8
0
  6
CONTINUOUS
 62
     7
 10
3327.1356851271
 20
2168.989129361
 30
0.0
  0
VERTEX
  5
A15
  8
0
  6
CONTINUOUS
 62
     7
 10
3327.0684082202
 20
2169.4185817917
 30
0.0
  0
SEQEND
  5
B74
  8
0
  6
CONTINUOUS
 62
     7
  0
POLYLINE
  5
4A2
  8
0
  6
CONTINUOUS
 62
     7
 66
     1
 10
0.0
 20
0.0
 30
0.0
 70
   128
  0
VERTEX
  5
A16
  8
0
  6
CONTINUOUS
 62
     7
 10
3337.085748246
 20
2163.635694487
 30
0.0
  0
VERTEX
  5
A17
  8
0
  6
CONTINUOUS
 62
     7
 10
3337.018471339
 20
2163.2839183197
 30
0.0
  0
VERTEX
  5
A18
  8
0
  6
CONTINUOUS
 62
     7
 10
3336.826861229
 20
2163.0634167994
 30
0.0
  0
VERTEX
  5
A19
  8
0
  6
CONTINUOUS
 62
     7
 10
3336.5401046084
 20
2163.007673311
 30
0.0
  0
VERTEX
  5
A1A
  8
0
  6
CONTINUOUS
 62
     7
 10
3336.2018585879
 20
2163.1252699724
 30
0.0
  0
VERTEX
  5
A1B
  8
0
  6
CONTINUOUS
 62
     7
 10
3335.8636125675
 20
2163.3982038536
 30
0.0
  0
VERTEX
  5
A1C
  8
0
  6
CONTINUOUS
 62
     7
 10
3335.5768559469
 20
2163.7850294888
 30
0.0
  0
VERTEX
  5
A1D
  8
0
  6
CONTINUOUS
 62
     7
 10
3335.385263398
 20
2164.2267491954
 30
0.0
  0
VERTEX
  5
A1E
  8
0
  6
CONTINUOUS
 62
     7
 10
3335.3179864911
 20
2164.656201626
 30
0.0
  0
VERTEX
  5
A1F
  8
0
  6
CONTINUOUS
 62
     7
 10
3335.385263398
 20
2165.0079372352
 30
0.0
  0
VERTEX
  5
A20
  8
0
  6
CONTINUOUS
 62
     7
 10
3335.5768559469
 20
2165.2284488934
 30
0.0
  0
VERTEX
  5
A21
  8
0
  6
CONTINUOUS
 62
     7
 10
3335.8636125675
 20
2165.2841923818
 30
0.0
  0
VERTEX
  5
A22
  8
0
  6
CONTINUOUS
 62
     7
 10
3336.2018585879
 20
2165.1665957205
 30
0.0
  0
VERTEX
  5
A23
  8
0
  6
CONTINUOUS
 62
     7
 10
3336.5401046084
 20
2164.8936618392
 30
0.0
  0
VERTEX
  5
A24
  8
0
  6
CONTINUOUS
 62
     7
 10
3336.826861229
 20
2164.506836204
 30
0.0
  0
VERTEX
  5
A25
  8
0
  6
CONTINUOUS
 62
     7
 10
3337.018471339
 20
2164.0651063596
 30
0.0
  0
VERTEX
  5
A26
  8
0
  6
CONTINUOUS
 62
     7
 10
3337.085748246
 20
2163.635694487
 30
0.0
  0
SEQEND
  5
B75
  8
0
  6
CONTINUOUS
 62
     7
  0
POLYLINE
  5
4A3
  8
0
  6
CONTINUOUS
 62
     7
 66
     1
 10
0.0
 20
0.0
 30
0.0
 70
   128
  0
VERTEX
  5
A27
  8
0
  6
CONTINUOUS
 62
     7
 10
3338.8535100008
 20
2153.0888788494
 30
0.0
  0
VERTEX
  5
A28
  8
0
  6
CONTINUOUS
 62
     7
 10
3338.7862330939
 20
2152.7371026822
 30
0.0
  0
VERTEX
  5
A29
  8
0
  6
CONTINUOUS
 62
     7
 10
3338.5946229838
 20
2152.5166011619
 30
0.0
  0
VERTEX
  5
A2A
  8
0
  6
CONTINUOUS
 62
     7
 10
3338.3078839245
 20
2152.4608475356
 30
0.0
  0
VERTEX
  5
A2B
  8
0
  6
CONTINUOUS
 62
     7
 10
3337.969637904
 20
2152.5784441969
 30
0.0
  0
VERTEX
  5
A2C
  8
0
  6
CONTINUOUS
 62
     7
 10
3337.6313743223
 20
2152.851388216
 30
0.0
  0
VERTEX
  5
A2D
  8
0
  6
CONTINUOUS
 62
     7
 10
3337.3446352629
 20
2153.2382037134
 30
0.0
  0
VERTEX
  5
A2E
  8
0
  6
CONTINUOUS
 62
     7
 10
3337.1530251529
 20
2153.6799335578
 30
0.0
  0
VERTEX
  5
A2F
  8
0
  6
CONTINUOUS
 62
     7
 10
3337.085748246
 20
2154.1093859884
 30
0.0
  0
VERTEX
  5
A30
  8
0
  6
CONTINUOUS
 62
     7
 10
3337.1530251529
 20
2154.4611215976
 30
0.0
  0
VERTEX
  5
A31
  8
0
  6
CONTINUOUS
 62
     7
 10
3337.3446352629
 20
2154.6816231179
 30
0.0
  0
VERTEX
  5
A32
  8
0
  6
CONTINUOUS
 62
     7
 10
3337.6313743223
 20
2154.7373767442
 30
0.0
  0
VERTEX
  5
A33
  8
0
  6
CONTINUOUS
 62
     7
 10
3337.969637904
 20
2154.619769945
 30
0.0
  0
VERTEX
  5
A34
  8
0
  6
CONTINUOUS
 62
     7
 10
3338.3078839245
 20
2154.3468360638
 30
0.0
  0
VERTEX
  5
A35
  8
0
  6
CONTINUOUS
 62
     7
 10
3338.5946229838
 20
2153.9600205664
 30
0.0
  0
VERTEX
  5
A36
  8
0
  6
CONTINUOUS
 62
     7
 10
3338.7862330939
 20
2153.518290722
 30
0.0
  0
VERTEX
  5
A37
  8
0
  6
CONTINUOUS
 62
     7
 10
3338.8535100008
 20
2153.0888788494
 30
0.0
  0
SEQEND
  5
B76
  8
0
  6
CONTINUOUS
 62
     7
  0
LINE
  5
4A4
  8
0
  6
CONTINUOUS
 62
     7
 10
3308.5068483301
 20
2100.0448701512
 30
0.0
 11
3308.5068483301
 21
2185.3733896007
 31
0.0
  0
POLYLINE
  5
4A5
  8
0
  6
CONTINUOUS
 62
     7
 66
     1
 10
0.0
 20
0.0
 30
0.0
 70
   128
  0
VERTEX
  5
A38
  8
0
  6
CONTINUOUS
 62
     7
 10
3430.3649162942
 20
2123.0548175024
 30
0.0
  0
VERTEX
  5
A39
  8
0
  6
CONTINUOUS
 62
     7
 10
3429.9133128125
 20
2123.4449932199
 30
0.0
  0
VERTEX
  5
A3A
  8
0
  6
CONTINUOUS
 62
     7
 10
3429.7547177337
 20
2123.9052418078
 30
0.0
  0
VERTEX
  5
A3B
  8
0
  6
CONTINUOUS
 62
     7
 10
3429.9133128125
 20
2124.3654903957
 30
0.0
  0
VERTEX
  5
A3C
  8
0
  6
CONTINUOUS
 62
     7
 10
3430.3649162942
 20
2124.7556661133
 30
0.0
  0
VERTEX
  5
A3D
  8
0
  6
CONTINUOUS
 62
     7
 10
3431.0408024743
 20
2125.016376323
 30
0.0
  0
VERTEX
  5
A3E
  8
0
  6
CONTINUOUS
 62
     7
 10
3431.8380540168
 20
2125.1079262442
 30
0.0
  0
VERTEX
  5
A3F
  8
0
  6
CONTINUOUS
 62
     7
 10
3432.63531434
 20
2125.016371254
 30
0.0
  0
VERTEX
  5
A40
  8
0
  6
CONTINUOUS
 62
     7
 10
3433.3111917394
 20
2124.7556661133
 30
0.0
  0
VERTEX
  5
A41
  8
0
  6
CONTINUOUS
 62
     7
 10
3433.7628040018
 20
2124.3654853268
 30
0.0
  0
VERTEX
  5
A42
  8
0
  6
CONTINUOUS
 62
     7
 10
3433.9213902999
 20
2123.9052418078
 30
0.0
  0
VERTEX
  5
A43
  8
0
  6
CONTINUOUS
 62
     7
 10
3433.7628127824
 20
2123.4449932199
 30
0.0
  0
VERTEX
  5
A44
  8
0
  6
CONTINUOUS
 62
     7
 10
3433.3111917394
 20
2123.0548175024
 30
0.0
  0
VERTEX
  5
A45
  8
0
  6
CONTINUOUS
 62
     7
 10
3432.6353231206
 20
2122.7941072927
 30
0.0
  0
VERTEX
  5
A46
  8
0
  6
CONTINUOUS
 62
     7
 10
3431.8380540168
 20
2122.7025573714
 30
0.0
  0
VERTEX
  5
A47
  8
0
  6
CONTINUOUS
 62
     7
 10
3431.0408024743
 20
2122.7941072927
 30
0.0
  0
VERTEX
  5
A48
  8
0
  6
CONTINUOUS
 62
     7
 10
3430.3649162942
 20
2123.0548175024
 30
0.0
  0
SEQEND
  5
B77
  8
0
  6
CONTINUOUS
 62
     7
  0
LINE
  5
4A6
  8
0
  6
CONTINUOUS
 62
     7
 10
3311.6299034629
 20
2190.7826696103
 30
0.0
 11
3318.9366742938
 21
2195.000778626
 31
0.0
  0
POLYLINE
  5
4A7
  8
0
  6
CONTINUOUS
 62
     7
 66
     1
 10
0.0
 20
0.0
 30
0.0
 70
   128
  0
VERTEX
  5
A49
  8
0
  6
CONTINUOUS
 62
     7
 10
3712.8540806326
 20
1959.9772941325
 30
0.0
  0
VERTEX
  5
A4A
  8
0
  6
CONTINUOUS
 62
     7
 10
3713.529958032
 20
1959.7165889917
 30
0.0
  0
VERTEX
  5
A4B
  8
0
  6
CONTINUOUS
 62
     7
 10
3714.3272183552
 20
1959.6250340016
 30
0.0
  0
VERTEX
  5
A4C
  8
0
  6
CONTINUOUS
 62
     7
 10
3715.1244786783
 20
1959.7165889917
 30
0.0
  0
VERTEX
  5
A4D
  8
0
  6
CONTINUOUS
 62
     7
 10
3715.8003560777
 20
1959.9772941325
 30
0.0
  0
VERTEX
  5
A4E
  8
0
  6
CONTINUOUS
 62
     7
 10
3716.2519683401
 20
1960.367474919
 30
0.0
  0
VERTEX
  5
A4F
  8
0
  6
CONTINUOUS
 62
     7
 10
3716.4105546382
 20
1960.827718438
 30
0.0
  0
VERTEX
  5
A50
  8
0
  6
CONTINUOUS
 62
     7
 10
3716.2519595595
 20
1961.2879670259
 30
0.0
  0
VERTEX
  5
A51
  8
0
  6
CONTINUOUS
 62
     7
 10
3715.8003560777
 20
1961.6781427434
 30
0.0
  0
VERTEX
  5
A52
  8
0
  6
CONTINUOUS
 62
     7
 10
3715.1244698977
 20
1961.9388529531
 30
0.0
  0
VERTEX
  5
A53
  8
0
  6
CONTINUOUS
 62
     7
 10
3714.3272183552
 20
1962.0304028743
 30
0.0
  0
VERTEX
  5
A54
  8
0
  6
CONTINUOUS
 62
     7
 10
3713.529958032
 20
1961.9388580221
 30
0.0
  0
VERTEX
  5
A55
  8
0
  6
CONTINUOUS
 62
     7
 10
3712.8540806326
 20
1961.6781427434
 30
0.0
  0
VERTEX
  5
A56
  8
0
  6
CONTINUOUS
 62
     7
 10
3712.4024683702
 20
1961.2879720948
 30
0.0
  0
VERTEX
  5
A57
  8
0
  6
CONTINUOUS
 62
     7
 10
3712.2438820721
 20
1960.827718438
 30
0.0
  0
VERTEX
  5
A58
  8
0
  6
CONTINUOUS
 62
     7
 10
3712.4024683702
 20
1960.367474919
 30
0.0
  0
VERTEX
  5
A59
  8
0
  6
CONTINUOUS
 62
     7
 10
3712.8540806326
 20
1959.9772941325
 30
0.0
  0
SEQEND
  5
B78
  8
0
  6
CONTINUOUS
 62
     7
  0
ARC
  5
4A8
  8
0
  6
CONTINUOUS
 62
     7
 10
3316.1072977616
 20
2199.4240226698
 30
0.0
 40
5.250757986415197
 50
302.6054600549
 51
357.3946600315
  0
ARC
  5
4A9
  8
0
  6
CONTINUOUS
 62
     7
 10
3310.7003812754
 20
2099.8192719851
 30
0.0
 40
2.205103470355261
 50
174.1279497942
 51
234.5599754869
  0
LINE
  5
4AA
  8
0
  6
CONTINUOUS
 62
     7
 10
3783.0602023202
 20
1821.4956058139
 30
0.0
 11
3674.5524647232
 21
1884.1357893948
 31
0.0
  0
LINE
  5
4AB
  8
0
  6
CONTINUOUS
 62
     7
 10
3622.7620967814
 20
1914.0337324121
 30
0.0
 11
3334.532755581
 21
2080.4249893496
 31
0.0
  0
ARC
  5
4AC
  8
0
  6
CONTINUOUS
 62
     7
 10
3714.3272183552
 20
1958.634647009
 30
0.0
 40
2.650606854076206
 50
42.3274067787
 51
137.6725932212
  0
ARC
  5
4AD
  8
0
  6
CONTINUOUS
 62
     7
 10
3431.8380560987
 20
2121.7121623167
 30
0.0
 40
2.650613822006113
 50
42.3273571099
 51
137.6724946839
  0
ARC
  5
4AE
  8
0
  6
CONTINUOUS
 62
     7
 10
3337.7654542256
 20
2165.0485704387
 30
0.0
 40
1.736291637152781
 50
173.577748615
 51
246.4160521085
  0
ARC
  5
4AF
  8
0
  6
CONTINUOUS
 62
     7
 10
3339.5332455987
 20
2154.5017696965
 30
0.0
 40
1.736319403436835
 50
173.5783463775
 51
246.4160179778
  0
LINE
  5
4B0
  8
0
  6
CONTINUOUS
 62
     7
 10
3327.7755181905
 20
2169.8267876886
 30
0.0
 11
3327.7904803217
 21
2170.0051632683
 31
0.0
  0
ARC
  5
4B1
  8
0
  6
CONTINUOUS
 62
     7
 10
3329.5900917483
 20
2169.8637161092
 30
0.0
 40
1.814949284411048
 50
181.1658665519
 51
244.9351260045
  0
LINE
  5
4B2
  8
0
  6
CONTINUOUS
 62
     7
 10
3326.0077388745
 20
2161.3209964668
 30
0.0
 11
3326.0227010057
 21
2161.4993720465
 31
0.0
  0
ARC
  5
4B3
  8
0
  6
CONTINUOUS
 62
     7
 10
3327.8223872182
 20
2161.3579715792
 30
0.0
 40
1.815025005427989
 50
181.167292153
 51
244.9342496827
  0
LINE
  5
4B4
  8
0
  6
CONTINUOUS
 62
     7
 10
3616.9821789534
 20
1350.1554097318
 30
0.0
 11
3615.626894356
 21
1350.9377988763
 31
0.0
  0
LINE
  5
4B5
  8
0
  6
CONTINUOUS
 62
     7
 10
3614.0359035082
 20
1345.0523071803
 30
0.0
 11
3616.9821789534
 21
1350.1554097318
 31
0.0
  0
LINE
  5
4B6
  8
0
  6
CONTINUOUS
 62
     7
 10
3612.6806189108
 20
1345.8346963248
 30
0.0
 11
3614.0359035082
 21
1345.0523071803
 31
0.0
  0
LINE
  5
4B7
  8
0
  6
CONTINUOUS
 62
     7
 10
3615.626894356
 20
1350.9377988763
 30
0.0
 11
3612.6806189108
 21
1345.8346963248
 31
0.0
  0
LINE
  5
4B8
  8
0
  6
CONTINUOUS
 62
     7
 10
3616.9821789534
 20
1350.1554097318
 30
0.0
 11
3843.2563508999
 21
1480.7807087589
 31
0.0
  0
LINE
  5
4B9
  8
0
  6
CONTINUOUS
 62
     7
 10
3843.2563508999
 20
1480.7807087589
 30
0.0
 11
3846.2026263451
 21
1479.0793034292
 31
0.0
  0
LINE
  5
4BA
  8
0
  6
CONTINUOUS
 62
     7
 10
3846.2026263451
 20
1468.9405887777
 30
0.0
 11
3846.2026263451
 21
1479.0793034292
 31
0.0
  0
LINE
  5
4BB
  8
0
  6
CONTINUOUS
 62
     7
 10
3614.0359035082
 20
1334.9135925288
 30
0.0
 11
3614.0359035082
 21
1345.0523071803
 31
0.0
  0
POLYLINE
  5
4BC
  8
0
  6
CONTINUOUS
 62
     7
 66
     1
 10
0.0
 20
0.0
 30
0.0
 70
   128
  0
VERTEX
  5
A5A
  8
0
  6
CONTINUOUS
 62
     7
 10
3837.6584240419
 20
1472.1054893331
 30
0.0
  0
VERTEX
  5
A5B
  8
0
  6
CONTINUOUS
 62
     7
 10
3837.5466734292
 20
1472.8142727801
 30
0.0
  0
VERTEX
  5
A5C
  8
0
  6
CONTINUOUS
 62
     7
 10
3837.2235475906
 20
1473.3172352331
 30
0.0
  0
VERTEX
  5
A5D
  8
0
  6
CONTINUOUS
 62
     7
 10
3836.7240547522
 20
1473.5598659621
 30
0.0
  0
VERTEX
  5
A5E
  8
0
  6
CONTINUOUS
 62
     7
 10
3836.1023184919
 20
1473.5158694188
 30
0.0
  0
VERTEX
  5
A5F
  8
0
  6
CONTINUOUS
 62
     7
 10
3835.4257210838
 20
1473.1900200573
 30
0.0
  0
VERTEX
  5
A60
  8
0
  6
CONTINUOUS
 62
     7
 10
3834.7675717026
 20
1472.6176205583
 30
0.0
  0
VERTEX
  5
A61
  8
0
  6
CONTINUOUS
 62
     7
 10
3834.1992038892
 20
1471.8607065932
 30
0.0
  0
VERTEX
  5
A62
  8
0
  6
CONTINUOUS
 62
     7
 10
3833.7822047261
 20
1471.0013009804
 30
0.0
  0
VERTEX
  5
A63
  8
0
  6
CONTINUOUS
 62
     7
 10
3833.5617591473
 20
1470.132529568
 30
0.0
  0
VERTEX
  5
A64
  8
0
  6
CONTINUOUS
 62
     7
 10
3833.5617591473
 20
1469.3485392224
 30
0.0
  0
VERTEX
  5
A65
  8
0
  6
CONTINUOUS
 62
     7
 10
3833.7822047261
 20
1468.7342894915
 30
0.0
  0
VERTEX
  5
A66
  8
0
  6
CONTINUOUS
 62
     7
 10
3834.1992038892
 20
1468.3563402305
 30
0.0
  0
VERTEX
  5
A67
  8
0
  6
CONTINUOUS
 62
     7
 10
3834.7675717026
 20
1468.2556504084
 30
0.0
  0
VERTEX
  5
A68
  8
0
  6
CONTINUOUS
 62
     7
 10
3835.4257210838
 20
1468.4431333767
 30
0.0
  0
VERTEX
  5
A69
  8
0
  6
CONTINUOUS
 62
     7
 10
3836.1023184919
 20
1468.8984661209
 30
0.0
  0
VERTEX
  5
A6A
  8
0
  6
CONTINUOUS
 62
     7
 10
3836.7240547522
 20
1469.5723122515
 30
0.0
  0
VERTEX
  5
A6B
  8
0
  6
CONTINUOUS
 62
     7
 10
3837.2235475906
 20
1470.3916445025
 30
0.0
  0
VERTEX
  5
A6C
  8
0
  6
CONTINUOUS
 62
     7
 10
3837.5466734292
 20
1471.2676801077
 30
0.0
  0
VERTEX
  5
A6D
  8
0
  6
CONTINUOUS
 62
     7
 10
3837.6584240419
 20
1472.1054893331
 30
0.0
  0
SEQEND
  5
B79
  8
0
  6
CONTINUOUS
 62
     7
  0
POLYLINE
  5
4BD
  8
0
  6
CONTINUOUS
 62
     7
 66
     1
 10
0.0
 20
0.0
 30
0.0
 70
   128
  0
VERTEX
  5
A6E
  8
0
  6
CONTINUOUS
 62
     7
 10
3652.0428953853
 20
1364.9519254674
 30
0.0
  0
VERTEX
  5
A6F
  8
0
  6
CONTINUOUS
 62
     7
 10
3651.9311491629
 20
1365.6607114489
 30
0.0
  0
VERTEX
  5
A70
  8
0
  6
CONTINUOUS
 62
     7
 10
3651.6080189341
 20
1366.1636713674
 30
0.0
  0
VERTEX
  5
A71
  8
0
  6
CONTINUOUS
 62
     7
 10
3651.1085217053
 20
1366.4062995619
 30
0.0
  0
VERTEX
  5
A72
  8
0
  6
CONTINUOUS
 62
     7
 10
3650.4867854451
 20
1366.3623030186
 30
0.0
  0
VERTEX
  5
A73
  8
0
  6
CONTINUOUS
 62
     7
 10
3649.810188037
 20
1366.0364536571
 30
0.0
  0
VERTEX
  5
A74
  8
0
  6
CONTINUOUS
 62
     7
 10
3649.152043046
 20
1365.4640566926
 30
0.0
  0
VERTEX
  5
A75
  8
0
  6
CONTINUOUS
 62
     7
 10
3648.5836752326
 20
1364.7071427275
 30
0.0
  0
VERTEX
  5
A76
  8
0
  6
CONTINUOUS
 62
     7
 10
3648.1666760696
 20
1363.8477371147
 30
0.0
  0
VERTEX
  5
A77
  8
0
  6
CONTINUOUS
 62
     7
 10
3647.9462304907
 20
1362.9789657023
 30
0.0
  0
VERTEX
  5
A78
  8
0
  6
CONTINUOUS
 62
     7
 10
3647.9462304907
 20
1362.1949753567
 30
0.0
  0
VERTEX
  5
A79
  8
0
  6
CONTINUOUS
 62
     7
 10
3648.1666760696
 20
1361.5807256258
 30
0.0
  0
VERTEX
  5
A7A
  8
0
  6
CONTINUOUS
 62
     7
 10
3648.5836752326
 20
1361.2027763648
 30
0.0
  0
VERTEX
  5
A7B
  8
0
  6
CONTINUOUS
 62
     7
 10
3649.152043046
 20
1361.1020865427
 30
0.0
  0
VERTEX
  5
A7C
  8
0
  6
CONTINUOUS
 62
     7
 10
3649.810188037
 20
1361.2895669765
 30
0.0
  0
VERTEX
  5
A7D
  8
0
  6
CONTINUOUS
 62
     7
 10
3650.4867854451
 20
1361.7448997208
 30
0.0
  0
VERTEX
  5
A7E
  8
0
  6
CONTINUOUS
 62
     7
 10
3651.1085217053
 20
1362.4187458514
 30
0.0
  0
VERTEX
  5
A7F
  8
0
  6
CONTINUOUS
 62
     7
 10
3651.6080189341
 20
1363.2380806368
 30
0.0
  0
VERTEX
  5
A80
  8
0
  6
CONTINUOUS
 62
     7
 10
3651.9311491629
 20
1364.1141187764
 30
0.0
  0
VERTEX
  5
A81
  8
0
  6
CONTINUOUS
 62
     7
 10
3652.0428953853
 20
1364.9519254674
 30
0.0
  0
SEQEND
  5
B7A
  8
0
  6
CONTINUOUS
 62
     7
  0
LINE
  5
4BE
  8
0
  6
CONTINUOUS
 62
     7
 10
3612.6806189108
 20
1335.6959816733
 30
0.0
 11
3612.6806189108
 21
1345.8346963248
 31
0.0
  0
LINE
  5
4BF
  8
0
  6
CONTINUOUS
 62
     7
 10
3841.9010663025
 20
1481.5630979033
 30
0.0
 11
3843.2563508999
 21
1480.7807087589
 31
0.0
  0
LINE
  5
4C0
  8
0
  6
CONTINUOUS
 62
     7
 10
3615.626894356
 20
1350.9377988763
 30
0.0
 11
3841.9010663025
 21
1481.5630979033
 31
0.0
  0
ARC
  5
4C1
  8
0
  6
CONTINUOUS
 62
     7
 10
3612.2038385832
 20
1334.6163984934
 30
0.0
 40
1.85601351938532
 50
230.7963775427
 51
9.2141476959
  0
ARC
  5
4C2
  8
0
  6
CONTINUOUS
 62
     7
 10
3844.133801003
 20
1468.70453042
 30
0.0
 40
2.082249227212065
 50
304.8026820142
 51
6.5094453286
  0
ARC
  5
4C3
  8
0
  6
CONTINUOUS
 62
     7
 10
3611.6747762922
 20
1335.5328202949
 30
0.0
 40
1.018990190746749
 50
230.7962332536
 51
9.2138996279
  0
LINE
  5
4C4
  8
0
  6
CONTINUOUS
 62
     7
 10
3586.2819579072
 20
1349.0303423013
 30
0.0
 11
3586.2819579072
 21
1352.4320395231
 31
0.0
  0
LINE
  5
4C5
  8
0
  6
CONTINUOUS
 62
     7
 10
3586.2819579072
 20
1352.4320395231
 30
0.0
 11
3622.7620880008
 21
1373.4915703614
 31
0.0
  0
LINE
  5
4C6
  8
0
  6
CONTINUOUS
 62
     7
 10
3611.0306927199
 20
1334.7432018043
 30
0.0
 11
3586.2819579072
 21
1349.0303423013
 31
0.0
  0
POLYLINE
  5
4C7
  8
0
  6
CONTINUOUS
 62
     7
 66
     1
 10
0.0
 20
0.0
 30
0.0
 70
   128
  0
VERTEX
  5
A82
  8
0
  6
CONTINUOUS
 62
     7
 10
3602.1918576039
 20
1345.6286400106
 30
0.0
  0
VERTEX
  5
A83
  8
0
  6
CONTINUOUS
 62
     7
 10
3601.2599556609
 20
1346.2929940814
 30
0.0
  0
VERTEX
  5
A84
  8
0
  6
CONTINUOUS
 62
     7
 10
3600.5876783048
 20
1347.0546715832
 30
0.0
  0
VERTEX
  5
A85
  8
0
  6
CONTINUOUS
 62
     7
 10
3600.2044229623
 20
1347.880400068
 30
0.0
  0
VERTEX
  5
A86
  8
0
  6
CONTINUOUS
 62
     7
 10
3600.126916664
 20
1348.7340938325
 30
0.0
  0
VERTEX
  5
A87
  8
0
  6
CONTINUOUS
 62
     7
 10
3600.3585662802
 20
1349.5784252857
 30
0.0
  0
VERTEX
  5
A88
  8
0
  6
CONTINUOUS
 62
     7
 10
3600.8892477865
 20
1350.3765078334
 30
0.0
  0
VERTEX
  5
A89
  8
0
  6
CONTINUOUS
 62
     7
 10
3601.6957540745
 20
1351.0934520395
 30
0.0
  0
VERTEX
  5
A8A
  8
0
  6
CONTINUOUS
 62
     7
 10
3602.7428486228
 20
1351.6979268556
 30
0.0
  0
VERTEX
  5
A8B
  8
0
  6
CONTINUOUS
 62
     7
 10
3603.9847757589
 20
1352.1635180943
 30
0.0
  0
VERTEX
  5
A8C
  8
0
  6
CONTINUOUS
 62
     7
 10
3605.3672362931
 20
1352.469868938
 30
0.0
  0
VERTEX
  5
A8D
  8
0
  6
CONTINUOUS
 62
     7
 10
3606.8298285229
 20
1352.6036024838
 30
0.0
  0
VERTEX
  5
A8E
  8
0
  6
CONTINUOUS
 62
     7
 10
3608.3086297283
 20
1352.5588590502
 30
0.0
  0
VERTEX
  5
A8F
  8
0
  6
CONTINUOUS
 62
     7
 10
3609.738979619
 20
1352.3376053815
 30
0.0
  0
VERTEX
  5
A90
  8
0
  6
CONTINUOUS
 62
     7
 10
3611.0583954922
 20
1351.9495129936
 30
0.0
  0
VERTEX
  5
A91
  8
0
  6
CONTINUOUS
 62
     7
 10
3612.2092064102
 20
1351.4115323842
 30
0.0
  0
VERTEX
  5
A92
  8
0
  6
CONTINUOUS
 62
     7
 10
3613.1411171338
 20
1350.7471833823
 30
0.0
  0
VERTEX
  5
A93
  8
0
  6
CONTINUOUS
 62
     7
 10
3613.8134032705
 20
1349.9854906737
 30
0.0
  0
VERTEX
  5
A94
  8
0
  6
CONTINUOUS
 62
     7
 10
3614.1966673935
 20
1349.1597672577
 30
0.0
  0
VERTEX
  5
A95
  8
0
  6
CONTINUOUS
 62
     7
 10
3614.2821991542
 20
1348.6087392258
 30
0.0
  0
SEQEND
  5
B7B
  8
0
  6
CONTINUOUS
 62
     7
  0
ARC
  5
4C8
  8
0
  6
CONTINUOUS
 62
     7
 10
3607.1676518028
 20
1354.8827795365
 30
0.0
 40
10.5070274709519
 50
241.7338327593
 51
302.2478329357
  0
LINE
  5
4C9
  8
0
  6
CONTINUOUS
 62
     7
 10
3586.2819579072
 20
1347.4653057105
 30
0.0
 11
3586.2819579072
 21
1349.0303423013
 31
0.0
  0
LINE
  5
4CA
  8
0
  6
CONTINUOUS
 62
     7
 10
3611.0306927199
 20
1333.1781652134
 30
0.0
 11
3586.2819579072
 21
1347.4653057105
 31
0.0
  0
POLYLINE
  5
4CB
  8
0
  6
CONTINUOUS
 62
     7
 66
     1
 10
0.0
 20
0.0
 30
0.0
 70
   128
  0
VERTEX
  5
A96
  8
0
  6
CONTINUOUS
 62
     7
 10
3600.2481151953
 20
1347.7375629397
 30
0.0
  0
VERTEX
  5
A97
  8
0
  6
CONTINUOUS
 62
     7
 10
3600.3585662802
 20
1348.0133886948
 30
0.0
  0
VERTEX
  5
A98
  8
0
  6
CONTINUOUS
 62
     7
 10
3600.8892477865
 20
1348.8114712425
 30
0.0
  0
VERTEX
  5
A99
  8
0
  6
CONTINUOUS
 62
     7
 10
3601.6957540745
 20
1349.5284154486
 30
0.0
  0
VERTEX
  5
A9A
  8
0
  6
CONTINUOUS
 62
     7
 10
3602.7428486228
 20
1350.1328902647
 30
0.0
  0
VERTEX
  5
A9B
  8
0
  6
CONTINUOUS
 62
     7
 10
3603.9847757589
 20
1350.5984815035
 30
0.0
  0
VERTEX
  5
A9C
  8
0
  6
CONTINUOUS
 62
     7
 10
3605.3672362931
 20
1350.9048323472
 30
0.0
  0
VERTEX
  5
A9D
  8
0
  6
CONTINUOUS
 62
     7
 10
3606.8298285229
 20
1351.038565893
 30
0.0
  0
VERTEX
  5
A9E
  8
0
  6
CONTINUOUS
 62
     7
 10
3608.3086297283
 20
1350.9938224594
 30
0.0
  0
VERTEX
  5
A9F
  8
0
  6
CONTINUOUS
 62
     7
 10
3609.738979619
 20
1350.7725687906
 30
0.0
  0
VERTEX
  5
AA0
  8
0
  6
CONTINUOUS
 62
     7
 10
3611.0583954922
 20
1350.3844764028
 30
0.0
  0
VERTEX
  5
AA1
  8
0
  6
CONTINUOUS
 62
     7
 10
3612.2092064102
 20
1349.8464957933
 30
0.0
  0
VERTEX
  5
AA2
  8
0
  6
CONTINUOUS
 62
     7
 10
3613.1411171338
 20
1349.1821467914
 30
0.0
  0
VERTEX
  5
AA3
  8
0
  6
CONTINUOUS
 62
     7
 10
3613.8134032705
 20
1348.4204540828
 30
0.0
  0
VERTEX
  5
AA4
  8
0
  6
CONTINUOUS
 62
     7
 10
3613.9949069175
 20
1348.1111024333
 30
0.0
  0
SEQEND
  5
B7C
  8
0
  6
CONTINUOUS
 62
     7
  0
LINE
  5
4CC
  8
0
  6
CONTINUOUS
 62
     7
 10
3650.6876107879
 20
1365.7343146119
 30
0.0
 11
3650.5941106387
 21
1366.3892821899
 31
0.0
  0
ARC
  5
4CD
  8
0
  6
CONTINUOUS
 62
     7
 10
3646.6259429592
 20
1365.7337568002
 30
0.0
 40
4.061667867027955
 50
289.9472697667
 51
0.0078687517
  0
LINE
  5
4CE
  8
0
  6
CONTINUOUS
 62
     7
 10
3836.3031394445
 20
1472.8878784776
 30
0.0
 11
3836.2096436855
 21
1473.5428485901
 31
0.0
  0
ARC
  5
4CF
  8
0
  6
CONTINUOUS
 62
     7
 10
3832.2414614016
 20
1472.8873278239
 30
0.0
 40
4.061678080182469
 50
289.94737076
 51
0.0077677584
  0
LINE
  5
4D0
  8
0
  6
CONTINUOUS
 62
     7
 10
3113.9346402129
 20
1620.145608052
 30
0.0
 11
3113.9346402129
 21
1621.7106446428
 31
0.0
  0
LINE
  5
4D1
  8
0
  6
CONTINUOUS
 62
     7
 10
3113.9346402129
 20
1621.7106446428
 30
0.0
 11
3119.8271911032
 21
1621.7106446428
 31
0.0
  0
LINE
  5
4D2
  8
0
  6
CONTINUOUS
 62
     7
 10
3119.8271911032
 20
1621.7106446428
 30
0.0
 11
3119.8271911032
 21
1620.145608052
 31
0.0
  0
LINE
  5
4D3
  8
0
  6
CONTINUOUS
 62
     7
 10
3119.8271911032
 20
1620.145608052
 30
0.0
 11
3113.9346402129
 21
1620.145608052
 31
0.0
  0
LINE
  5
4D4
  8
0
  6
CONTINUOUS
 62
     7
 10
3321.352628237
 20
1770.0247813887
 30
0.0
 11
3324.181050557
 21
1768.3919679388
 31
0.0
  0
LINE
  5
4D5
  8
0
  6
CONTINUOUS
 62
     7
 10
3341.3299183298
 20
1758.4921372974
 30
0.0
 11
3341.473902501
 21
1758.4090170046
 31
0.0
  0
LINE
  5
4D6
  8
0
  6
CONTINUOUS
 62
     7
 10
3119.8271911032
 20
1621.7106446428
 30
0.0
 11
3297.782398334
 21
1724.4419990788
 31
0.0
  0
LINE
  5
4D7
  8
0
  6
CONTINUOUS
 62
     7
 10
3089.1859054002
 20
1635.9977851399
 30
0.0
 11
3113.9346402129
 21
1621.7106446428
 31
0.0
  0
POLYLINE
  5
4D8
  8
0
  6
CONTINUOUS
 62
     7
 66
     1
 10
0.0
 20
0.0
 30
0.0
 70
   128
  0
VERTEX
  5
AA5
  8
0
  6
CONTINUOUS
 62
     7
 10
3296.6038934243
 20
1739.7496517837
 30
0.0
  0
VERTEX
  5
AA6
  8
0
  6
CONTINUOUS
 62
     7
 10
3297.7547043423
 20
1739.2116711743
 30
0.0
  0
VERTEX
  5
AA7
  8
0
  6
CONTINUOUS
 62
     7
 10
3299.0741202155
 20
1738.8235787864
 30
0.0
  0
VERTEX
  5
AA8
  8
0
  6
CONTINUOUS
 62
     7
 10
3300.5044701063
 20
1738.6023251177
 30
0.0
  0
VERTEX
  5
AA9
  8
0
  6
CONTINUOUS
 62
     7
 10
3301.9832713116
 20
1738.5575816841
 30
0.0
  0
VERTEX
  5
AAA
  8
0
  6
CONTINUOUS
 62
     7
 10
3303.4458635415
 20
1738.6913152299
 30
0.0
  0
VERTEX
  5
AAB
  8
0
  6
CONTINUOUS
 62
     7
 10
3304.8283240756
 20
1738.9976660736
 30
0.0
  0
VERTEX
  5
AAC
  8
0
  6
CONTINUOUS
 62
     7
 10
3306.0702512117
 20
1739.4632573123
 30
0.0
  0
VERTEX
  5
AAD
  8
0
  6
CONTINUOUS
 62
     7
 10
3307.11734576
 20
1740.0677321284
 30
0.0
  0
VERTEX
  5
AAE
  8
0
  6
CONTINUOUS
 62
     7
 10
3307.923852048
 20
1740.7846763345
 30
0.0
  0
VERTEX
  5
AAF
  8
0
  6
CONTINUOUS
 62
     7
 10
3308.4545335544
 20
1741.5827588822
 30
0.0
  0
VERTEX
  5
AB0
  8
0
  6
CONTINUOUS
 62
     7
 10
3308.6861831705
 20
1742.4270903354
 30
0.0
  0
VERTEX
  5
AB1
  8
0
  6
CONTINUOUS
 62
     7
 10
3308.6086768722
 20
1743.2807840999
 30
0.0
  0
VERTEX
  5
AB2
  8
0
  6
CONTINUOUS
 62
     7
 10
3308.2254215297
 20
1744.1065125847
 30
0.0
  0
VERTEX
  5
AB3
  8
0
  6
CONTINUOUS
 62
     7
 10
3307.5531441736
 20
1744.8681900865
 30
0.0
  0
VERTEX
  5
AB4
  8
0
  6
CONTINUOUS
 62
     7
 10
3306.6212422307
 20
1745.5325441573
 30
0.0
  0
VERTEX
  5
AB5
  8
0
  6
CONTINUOUS
 62
     7
 10
3305.4704225321
 20
1746.0705196979
 30
0.0
  0
VERTEX
  5
AB6
  8
0
  6
CONTINUOUS
 62
     7
 10
3304.1509978782
 20
1746.4586272925
 30
0.0
  0
VERTEX
  5
AB7
  8
0
  6
CONTINUOUS
 62
     7
 10
3302.7206392069
 20
1746.6798758923
 30
0.0
  0
VERTEX
  5
AB8
  8
0
  6
CONTINUOUS
 62
     7
 10
3301.2418380016
 20
1746.7246193259
 30
0.0
  0
VERTEX
  5
AB9
  8
0
  6
CONTINUOUS
 62
     7
 10
3299.7792545523
 20
1746.590890849
 30
0.0
  0
VERTEX
  5
ABA
  8
0
  6
CONTINUOUS
 62
     7
 10
3298.3967852376
 20
1746.2845349364
 30
0.0
  0
VERTEX
  5
ABB
  8
0
  6
CONTINUOUS
 62
     7
 10
3297.1548668821
 20
1745.8189487666
 30
0.0
  0
VERTEX
  5
ABC
  8
0
  6
CONTINUOUS
 62
     7
 10
3296.1077723338
 20
1745.2144739505
 30
0.0
  0
VERTEX
  5
ABD
  8
0
  6
CONTINUOUS
 62
     7
 10
3295.3012572651
 20
1744.4975246755
 30
0.0
  0
VERTEX
  5
ABE
  8
0
  6
CONTINUOUS
 62
     7
 10
3294.7705845394
 20
1743.6994471967
 30
0.0
  0
VERTEX
  5
ABF
  8
0
  6
CONTINUOUS
 62
     7
 10
3294.5389261427
 20
1742.8551106746
 30
0.0
  0
VERTEX
  5
AC0
  8
0
  6
CONTINUOUS
 62
     7
 10
3294.616432441
 20
1742.0014169102
 30
0.0
  0
VERTEX
  5
AC1
  8
0
  6
CONTINUOUS
 62
     7
 10
3294.999696564
 20
1741.1756934942
 30
0.0
  0
VERTEX
  5
AC2
  8
0
  6
CONTINUOUS
 62
     7
 10
3295.6719827008
 20
1740.4140007856
 30
0.0
  0
VERTEX
  5
AC3
  8
0
  6
CONTINUOUS
 62
     7
 10
3296.6038934243
 20
1739.7496517837
 30
0.0
  0
SEQEND
  5
B7D
  8
0
  6
CONTINUOUS
 62
     7
  0
POLYLINE
  5
4D9
  8
0
  6
CONTINUOUS
 62
     7
 66
     1
 10
0.0
 20
0.0
 30
0.0
 70
   128
  0
VERTEX
  5
AC4
  8
0
  6
CONTINUOUS
 62
     7
 10
3108.042080542
 20
1630.8952342382
 30
0.0
  0
VERTEX
  5
AC5
  8
0
  6
CONTINUOUS
 62
     7
 10
3109.1929002406
 20
1630.3572586977
 30
0.0
  0
VERTEX
  5
AC6
  8
0
  6
CONTINUOUS
 62
     7
 10
3110.5123073332
 20
1629.9691612409
 30
0.0
  0
VERTEX
  5
AC7
  8
0
  6
CONTINUOUS
 62
     7
 10
3111.9426660045
 20
1629.7479126411
 30
0.0
  0
VERTEX
  5
AC8
  8
0
  6
CONTINUOUS
 62
     7
 10
3113.4214672099
 20
1629.7031692075
 30
0.0
  0
VERTEX
  5
AC9
  8
0
  6
CONTINUOUS
 62
     7
 10
3114.8840506592
 20
1629.8368976844
 30
0.0
  0
VERTEX
  5
ACA
  8
0
  6
CONTINUOUS
 62
     7
 10
3116.2665199739
 20
1630.143253597
 30
0.0
  0
VERTEX
  5
ACB
  8
0
  6
CONTINUOUS
 62
     7
 10
3117.5084383294
 20
1630.6088397668
 30
0.0
  0
VERTEX
  5
ACC
  8
0
  6
CONTINUOUS
 62
     7
 10
3118.5555328777
 20
1631.2133145829
 30
0.0
  0
VERTEX
  5
ACD
  8
0
  6
CONTINUOUS
 62
     7
 10
3119.3620479463
 20
1631.9302638579
 30
0.0
  0
VERTEX
  5
ACE
  8
0
  6
CONTINUOUS
 62
     7
 10
3119.892720672
 20
1632.7283413367
 30
0.0
  0
VERTEX
  5
ACF
  8
0
  6
CONTINUOUS
 62
     7
 10
3120.1243790688
 20
1633.5726778588
 30
0.0
  0
VERTEX
  5
AD0
  8
0
  6
CONTINUOUS
 62
     7
 10
3120.0468727705
 20
1634.4263716232
 30
0.0
  0
VERTEX
  5
AD1
  8
0
  6
CONTINUOUS
 62
     7
 10
3119.6636086474
 20
1635.2520950392
 30
0.0
  0
VERTEX
  5
AD2
  8
0
  6
CONTINUOUS
 62
     7
 10
3118.9913400719
 20
1636.0137776099
 30
0.0
  0
VERTEX
  5
AD3
  8
0
  6
CONTINUOUS
 62
     7
 10
3118.0594293483
 20
1636.6781266118
 30
0.0
  0
VERTEX
  5
AD4
  8
0
  6
CONTINUOUS
 62
     7
 10
3116.9086184303
 20
1637.2161072213
 30
0.0
  0
VERTEX
  5
AD5
  8
0
  6
CONTINUOUS
 62
     7
 10
3115.5891849959
 20
1637.604209747
 30
0.0
  0
VERTEX
  5
AD6
  8
0
  6
CONTINUOUS
 62
     7
 10
3114.1588351052
 20
1637.8254634157
 30
0.0
  0
VERTEX
  5
AD7
  8
0
  6
CONTINUOUS
 62
     7
 10
3112.6800338998
 20
1637.8702068493
 30
0.0
  0
VERTEX
  5
AD8
  8
0
  6
CONTINUOUS
 62
     7
 10
3111.21744167
 20
1637.7364733035
 30
0.0
  0
VERTEX
  5
AD9
  8
0
  6
CONTINUOUS
 62
     7
 10
3109.8349811359
 20
1637.4301224598
 30
0.0
  0
VERTEX
  5
ADA
  8
0
  6
CONTINUOUS
 62
     7
 10
3108.5930539997
 20
1636.9645312211
 30
0.0
  0
VERTEX
  5
ADB
  8
0
  6
CONTINUOUS
 62
     7
 10
3107.5459594514
 20
1636.3600564049
 30
0.0
  0
VERTEX
  5
ADC
  8
0
  6
CONTINUOUS
 62
     7
 10
3106.7394531634
 20
1635.6431121989
 30
0.0
  0
VERTEX
  5
ADD
  8
0
  6
CONTINUOUS
 62
     7
 10
3106.2087716571
 20
1634.8450296512
 30
0.0
  0
VERTEX
  5
ADE
  8
0
  6
CONTINUOUS
 62
     7
 10
3105.977122041
 20
1634.000698198
 30
0.0
  0
VERTEX
  5
ADF
  8
0
  6
CONTINUOUS
 62
     7
 10
3106.0546283393
 20
1633.1470044335
 30
0.0
  0
VERTEX
  5
AE0
  8
0
  6
CONTINUOUS
 62
     7
 10
3106.4378836817
 20
1632.3212759487
 30
0.0
  0
VERTEX
  5
AE1
  8
0
  6
CONTINUOUS
 62
     7
 10
3107.110178599
 20
1631.559588309
 30
0.0
  0
VERTEX
  5
AE2
  8
0
  6
CONTINUOUS
 62
     7
 10
3108.042080542
 20
1630.8952342382
 30
0.0
  0
SEQEND
  5
B7E
  8
0
  6
CONTINUOUS
 62
     7
  0
LINE
  5
4DA
  8
0
  6
CONTINUOUS
 62
     7
 10
3297.782398334
 20
1722.876962488
 30
0.0
 11
3297.782398334
 21
1724.4419990788
 31
0.0
  0
LINE
  5
4DB
  8
0
  6
CONTINUOUS
 62
     7
 10
3119.8271911032
 20
1620.145608052
 30
0.0
 11
3297.782398334
 21
1722.876962488
 31
0.0
  0
LINE
  5
4DC
  8
0
  6
CONTINUOUS
 62
     7
 10
3089.1859054002
 20
1634.432748549
 30
0.0
 11
3113.9346402129
 21
1620.145608052
 31
0.0
  0
POLYLINE
  5
4DD
  8
0
  6
CONTINUOUS
 62
     7
 66
     1
 10
0.0
 20
0.0
 30
0.0
 70
   128
  0
VERTEX
  5
AE3
  8
0
  6
CONTINUOUS
 62
     7
 10
3120.0031717569
 20
1633.0041723742
 30
0.0
  0
VERTEX
  5
AE4
  8
0
  6
CONTINUOUS
 62
     7
 10
3119.6636086474
 20
1633.6870584483
 30
0.0
  0
VERTEX
  5
AE5
  8
0
  6
CONTINUOUS
 62
     7
 10
3118.9913400719
 20
1634.4487410191
 30
0.0
  0
VERTEX
  5
AE6
  8
0
  6
CONTINUOUS
 62
     7
 10
3118.0594293483
 20
1635.1130900209
 30
0.0
  0
VERTEX
  5
AE7
  8
0
  6
CONTINUOUS
 62
     7
 10
3116.9086184303
 20
1635.6510706304
 30
0.0
  0
VERTEX
  5
AE8
  8
0
  6
CONTINUOUS
 62
     7
 10
3115.5891849959
 20
1636.0391731561
 30
0.0
  0
VERTEX
  5
AE9
  8
0
  6
CONTINUOUS
 62
     7
 10
3114.1588351052
 20
1636.2604268249
 30
0.0
  0
VERTEX
  5
AEA
  8
0
  6
CONTINUOUS
 62
     7
 10
3112.6800338998
 20
1636.3051702585
 30
0.0
  0
VERTEX
  5
AEB
  8
0
  6
CONTINUOUS
 62
     7
 10
3111.21744167
 20
1636.1714367126
 30
0.0
  0
VERTEX
  5
AEC
  8
0
  6
CONTINUOUS
 62
     7
 10
3109.8349811359
 20
1635.865085869
 30
0.0
  0
VERTEX
  5
AED
  8
0
  6
CONTINUOUS
 62
     7
 10
3108.5930539997
 20
1635.3994946302
 30
0.0
  0
VERTEX
  5
AEE
  8
0
  6
CONTINUOUS
 62
     7
 10
3107.5459594514
 20
1634.7950198141
 30
0.0
  0
VERTEX
  5
AEF
  8
0
  6
CONTINUOUS
 62
     7
 10
3106.7394531634
 20
1634.078075608
 30
0.0
  0
VERTEX
  5
AF0
  8
0
  6
CONTINUOUS
 62
     7
 10
3106.2087716571
 20
1633.2799930603
 30
0.0
  0
VERTEX
  5
AF1
  8
0
  6
CONTINUOUS
 62
     7
 10
3106.0983205722
 20
1633.0041673052
 30
0.0
  0
SEQEND
  5
B7F
  8
0
  6
CONTINUOUS
 62
     7
  0
LINE
  5
4DE
  8
0
  6
CONTINUOUS
 62
     7
 10
3087.5359792093
 20
1638.8555292406
 30
0.0
 11
3087.5359792093
 21
1648.9942438921
 31
0.0
  0
LINE
  5
4DF
  8
0
  6
CONTINUOUS
 62
     7
 10
3090.4822546544
 20
1654.0973464435
 30
0.0
 11
3087.5359792093
 21
1648.9942438921
 31
0.0
  0
LINE
  5
4E0
  8
0
  6
CONTINUOUS
 62
     7
 10
3090.4822546544
 20
1654.0973464435
 30
0.0
 11
3116.4736366119
 21
1669.1018518677
 31
0.0
  0
POLYLINE
  5
4E1
  8
0
  6
CONTINUOUS
 62
     7
 66
     1
 10
0.0
 20
0.0
 30
0.0
 70
   128
  0
VERTEX
  5
AF2
  8
0
  6
CONTINUOUS
 62
     7
 10
3311.1584997429
 20
1776.0474260449
 30
0.0
  0
VERTEX
  5
AF3
  8
0
  6
CONTINUOUS
 62
     7
 10
3311.0467491302
 20
1776.7562094919
 30
0.0
  0
VERTEX
  5
AF4
  8
0
  6
CONTINUOUS
 62
     7
 10
3310.9987368453
 20
1776.8742657214
 30
0.0
  0
SEQEND
  5
B80
  8
0
  6
CONTINUOUS
 62
     7
  0
ARC
  5
4E2
  8
0
  6
CONTINUOUS
 62
     7
 10
3307.1969461806
 20
1776.0052774079
 30
0.0
 40
3.961777774585959
 50
286.1740230268
 51
0.6095709323
  0
LINE
  5
4E3
  8
0
  6
CONTINUOUS
 62
     7
 10
3087.5359792093
 20
1648.9942438921
 30
0.0
 11
3086.1806946118
 21
1649.7766330366
 31
0.0
  0
LINE
  5
4E4
  8
0
  6
CONTINUOUS
 62
     7
 10
3086.1806946118
 20
1649.7766330366
 30
0.0
 11
3089.126970057
 21
1654.879735588
 31
0.0
  0
LINE
  5
4E5
  8
0
  6
CONTINUOUS
 62
     7
 10
3089.126970057
 20
1654.879735588
 30
0.0
 11
3090.4822546544
 21
1654.0973464435
 31
0.0
  0
LINE
  5
4E6
  8
0
  6
CONTINUOUS
 62
     7
 10
3086.1806946118
 20
1639.6379183851
 30
0.0
 11
3086.1806946118
 21
1649.7766330366
 31
0.0
  0
LINE
  5
4E7
  8
0
  6
CONTINUOUS
 62
     7
 10
3089.126970057
 20
1654.879735588
 30
0.0
 11
3116.4736366119
 21
1670.6666301567
 31
0.0
  0
ARC
  5
4E8
  8
0
  6
CONTINUOUS
 62
     7
 10
3092.7053441477
 20
1639.9348164252
 30
0.0
 40
6.531401075734638
 50
182.6053932878
 51
237.3946823714
  0
ARC
  5
4E9
  8
0
  6
CONTINUOUS
 62
     7
 10
3091.1181544542
 20
1639.0185409905
 30
0.0
 40
3.585882362238415
 50
182.605524727
 51
237.3946817321
  0
ARC
  5
4EA
  8
0
  6
CONTINUOUS
 62
     7
 10
3323.3621224619
 20
1773.1079119199
 30
0.0
 40
3.680184901898853
 50
195.8167362531
 51
236.9048684335
  0
LINE
  5
4EB
  8
0
  6
CONTINUOUS
 62
     7
 10
3300.7875915611
 20
1724.6123999412
 30
0.0
 11
3300.7875915611
 21
1727.9466079791
 31
0.0
  0
LINE
  5
4EC
  8
0
  6
CONTINUOUS
 62
     7
 10
3303.7338757869
 20
1733.0497149658
 30
0.0
 11
3300.7875915611
 21
1727.9466079791
 31
0.0
  0
LINE
  5
4ED
  8
0
  6
CONTINUOUS
 62
     7
 10
3303.7338757869
 20
1733.0497149658
 30
0.0
 11
3330.2503811351
 21
1748.3573676707
 31
0.0
  0
LINE
  5
4EE
  8
0
  6
CONTINUOUS
 62
     7
 10
3330.2503811351
 20
1748.3573676707
 30
0.0
 11
3330.2503811351
 21
1751.7596209775
 31
0.0
  0
LINE
  5
4EF
  8
0
  6
CONTINUOUS
 62
     7
 10
3333.1966565802
 20
1756.862723529
 30
0.0
 11
3330.2503811351
 21
1751.7596209775
 31
0.0
  0
LINE
  5
4F0
  8
0
  6
CONTINUOUS
 62
     7
 10
3333.1966565802
 20
1756.862723529
 30
0.0
 11
3349.1065562769
 21
1766.0473131243
 31
0.0
  0
LINE
  5
4F1
  8
0
  6
CONTINUOUS
 62
     7
 10
3352.052831722
 20
1764.3459077947
 30
0.0
 11
3349.1065562769
 21
1766.0473131243
 31
0.0
  0
LINE
  5
4F2
  8
0
  6
CONTINUOUS
 62
     7
 10
3352.052831722
 20
1754.2071931432
 30
0.0
 11
3352.052831722
 21
1764.3459077947
 31
0.0
  0
POLYLINE
  5
4F3
  8
0
  6
CONTINUOUS
 62
     7
 66
     1
 10
0.0
 20
0.0
 30
0.0
 70
   128
  0
VERTEX
  5
AF5
  8
0
  6
CONTINUOUS
 62
     7
 10
3343.5086294188
 20
1757.3720936986
 30
0.0
  0
VERTEX
  5
AF6
  8
0
  6
CONTINUOUS
 62
     7
 10
3343.3968788061
 20
1758.0808771456
 30
0.0
  0
VERTEX
  5
AF7
  8
0
  6
CONTINUOUS
 62
     7
 10
3343.0737529676
 20
1758.5838395986
 30
0.0
  0
VERTEX
  5
AF8
  8
0
  6
CONTINUOUS
 62
     7
 10
3342.5742601291
 20
1758.8264703276
 30
0.0
  0
VERTEX
  5
AF9
  8
0
  6
CONTINUOUS
 62
     7
 10
3341.9525238689
 20
1758.7824737843
 30
0.0
  0
VERTEX
  5
AFA
  8
0
  6
CONTINUOUS
 62
     7
 10
3341.2759264608
 20
1758.4566244228
 30
0.0
  0
VERTEX
  5
AFB
  8
0
  6
CONTINUOUS
 62
     7
 10
3340.6177770795
 20
1757.8842249238
 30
0.0
  0
VERTEX
  5
AFC
  8
0
  6
CONTINUOUS
 62
     7
 10
3340.0494092661
 20
1757.1273109587
 30
0.0
  0
VERTEX
  5
AFD
  8
0
  6
CONTINUOUS
 62
     7
 10
3339.6324101031
 20
1756.2679053459
 30
0.0
  0
VERTEX
  5
AFE
  8
0
  6
CONTINUOUS
 62
     7
 10
3339.4119645242
 20
1755.3991339335
 30
0.0
  0
VERTEX
  5
AFF
  8
0
  6
CONTINUOUS
 62
     7
 10
3339.4119645242
 20
1754.6151435879
 30
0.0
  0
VERTEX
  5
B00
  8
0
  6
CONTINUOUS
 62
     7
 10
3339.6324101031
 20
1754.000893857
 30
0.0
  0
VERTEX
  5
B01
  8
0
  6
CONTINUOUS
 62
     7
 10
3340.0494092661
 20
1753.622944596
 30
0.0
  0
VERTEX
  5
B02
  8
0
  6
CONTINUOUS
 62
     7
 10
3340.6177770795
 20
1753.5222547739
 30
0.0
  0
VERTEX
  5
B03
  8
0
  6
CONTINUOUS
 62
     7
 10
3341.2759264608
 20
1753.7097377422
 30
0.0
  0
VERTEX
  5
B04
  8
0
  6
CONTINUOUS
 62
     7
 10
3341.9525238689
 20
1754.1650704864
 30
0.0
  0
VERTEX
  5
B05
  8
0
  6
CONTINUOUS
 62
     7
 10
3342.5742601291
 20
1754.838916617
 30
0.0
  0
VERTEX
  5
B06
  8
0
  6
CONTINUOUS
 62
     7
 10
3343.0737529676
 20
1755.658248868
 30
0.0
  0
VERTEX
  5
B07
  8
0
  6
CONTINUOUS
 62
     7
 10
3343.3968788061
 20
1756.5342844732
 30
0.0
  0
VERTEX
  5
B08
  8
0
  6
CONTINUOUS
 62
     7
 10
3343.5086294188
 20
1757.3720936986
 30
0.0
  0
SEQEND
  5
B81
  8
0
  6
CONTINUOUS
 62
     7
  0
LINE
  5
4F4
  8
0
  6
CONTINUOUS
 62
     7
 10
3302.3785911895
 20
1733.8321041102
 30
0.0
 11
3303.7338757869
 21
1733.0497149658
 31
0.0
  0
LINE
  5
4F5
  8
0
  6
CONTINUOUS
 62
     7
 10
3300.7875915611
 20
1727.9466079791
 30
0.0
 11
3299.4323069637
 21
1728.7289971236
 31
0.0
  0
LINE
  5
4F6
  8
0
  6
CONTINUOUS
 62
     7
 10
3299.4323069637
 20
1728.7289971236
 30
0.0
 11
3302.3785911895
 21
1733.8321041102
 31
0.0
  0
ARC
  5
4F7
  8
0
  6
CONTINUOUS
 62
     7
 10
3298.9555330137
 20
1724.3151983314
 30
0.0
 40
1.856008436947889
 50
230.7966950921
 51
9.2144100289
  0
ARC
  5
4F8
  8
0
  6
CONTINUOUS
 62
     7
 10
3298.4264741683
 20
1725.2316141663
 30
0.0
 40
1.018982662614514
 50
230.7964494604
 51
9.2147396337
  0
LINE
  5
4F9
  8
0
  6
CONTINUOUS
 62
     7
 10
3299.4323069637
 20
1728.7289971236
 30
0.0
 11
3299.4323069637
 21
1725.3947890857
 31
0.0
  0
LINE
  5
4FA
  8
0
  6
CONTINUOUS
 62
     7
 10
3328.8950965376
 20
1749.1397568152
 30
0.0
 11
3330.2503811351
 21
1748.3573676707
 31
0.0
  0
LINE
  5
4FB
  8
0
  6
CONTINUOUS
 62
     7
 10
3328.8950965376
 20
1749.1397568152
 30
0.0
 11
3302.3785911895
 21
1733.8321041102
 31
0.0
  0
ARC
  5
4FC
  8
0
  6
CONTINUOUS
 62
     7
 10
3349.9840063791
 20
1753.9711347859
 30
0.0
 40
2.082249228062663
 50
304.8026820282
 51
6.5094453146
  0
LINE
  5
4FD
  8
0
  6
CONTINUOUS
 62
     7
 10
3331.8413719828
 20
1757.6451126734
 30
0.0
 11
3333.1966565802
 21
1756.862723529
 31
0.0
  0
LINE
  5
4FE
  8
0
  6
CONTINUOUS
 62
     7
 10
3330.2503811351
 20
1751.7596209775
 30
0.0
 11
3328.8950965376
 21
1752.542010122
 31
0.0
  0
LINE
  5
4FF
  8
0
  6
CONTINUOUS
 62
     7
 10
3328.8950965376
 20
1752.542010122
 30
0.0
 11
3331.8413719828
 21
1757.6451126734
 31
0.0
  0
LINE
  5
500
  8
0
  6
CONTINUOUS
 62
     7
 10
3328.8950965376
 20
1752.542010122
 30
0.0
 11
3328.8950965376
 21
1749.1397568152
 31
0.0
  0
LINE
  5
501
  8
0
  6
CONTINUOUS
 62
     7
 10
3349.1065562769
 20
1766.0473131243
 30
0.0
 11
3347.7512716794
 21
1766.8297022688
 31
0.0
  0
LINE
  5
502
  8
0
  6
CONTINUOUS
 62
     7
 10
3331.8413719828
 20
1757.6451126734
 30
0.0
 11
3347.7512716794
 21
1766.8297022688
 31
0.0
  0
POLYLINE
  5
503
  8
0
  6
CONTINUOUS
 62
     7
 66
     1
 10
0.0
 20
0.0
 30
0.0
 70
   128
  0
VERTEX
  5
B09
  8
0
  6
CONTINUOUS
 62
     7
 10
3308.5649758586
 20
1741.8585848508
 30
0.0
  0
VERTEX
  5
B0A
  8
0
  6
CONTINUOUS
 62
     7
 10
3308.2254215297
 20
1742.5414759938
 30
0.0
  0
VERTEX
  5
B0B
  8
0
  6
CONTINUOUS
 62
     7
 10
3307.5531441736
 20
1743.3031534957
 30
0.0
  0
VERTEX
  5
B0C
  8
0
  6
CONTINUOUS
 62
     7
 10
3306.6212422307
 20
1743.9675075665
 30
0.0
  0
VERTEX
  5
B0D
  8
0
  6
CONTINUOUS
 62
     7
 10
3305.4704225321
 20
1744.505483107
 30
0.0
  0
VERTEX
  5
B0E
  8
0
  6
CONTINUOUS
 62
     7
 10
3304.1509978782
 20
1744.8935907017
 30
0.0
  0
VERTEX
  5
B0F
  8
0
  6
CONTINUOUS
 62
     7
 10
3302.7206392069
 20
1745.1148393015
 30
0.0
  0
VERTEX
  5
B10
  8
0
  6
CONTINUOUS
 62
     7
 10
3301.2418380016
 20
1745.1595827351
 30
0.0
  0
VERTEX
  5
B11
  8
0
  6
CONTINUOUS
 62
     7
 10
3299.7792545523
 20
1745.0258542582
 30
0.0
  0
VERTEX
  5
B12
  8
0
  6
CONTINUOUS
 62
     7
 10
3298.3967852376
 20
1744.7194983456
 30
0.0
  0
VERTEX
  5
B13
  8
0
  6
CONTINUOUS
 62
     7
 10
3297.1548668821
 20
1744.2539121758
 30
0.0
  0
VERTEX
  5
B14
  8
0
  6
CONTINUOUS
 62
     7
 10
3296.1077723338
 20
1743.6494373596
 30
0.0
  0
VERTEX
  5
B15
  8
0
  6
CONTINUOUS
 62
     7
 10
3295.3012572651
 20
1742.9324880847
 30
0.0
  0
VERTEX
  5
B16
  8
0
  6
CONTINUOUS
 62
     7
 10
3294.7705845394
 20
1742.1344106059
 30
0.0
  0
VERTEX
  5
B17
  8
0
  6
CONTINUOUS
 62
     7
 10
3294.6601334545
 20
1741.8585848508
 30
0.0
  0
SEQEND
  5
B82
  8
0
  6
CONTINUOUS
 62
     7
  0
LINE
  5
504
  8
0
  6
CONTINUOUS
 62
     7
 10
3342.1533448214
 20
1758.1544828431
 30
0.0
 11
3342.0598490625
 21
1758.8094529555
 31
0.0
  0
ARC
  5
505
  8
0
  6
CONTINUOUS
 62
     7
 10
3338.0916667786
 20
1758.1539321894
 30
0.0
 40
4.061678080180779
 50
289.9473707599
 51
0.0077677584
  0
ARC
  5
506
  8
0
  6
CONTINUOUS
 62
     7
 10
3304.9730202536
 20
1777.2370391336
 30
0.0
 40
4.880660854895831
 50
315.8569177877
 51
344.1484244556
  0
LINE
  5
507
  8
0
  6
CONTINUOUS
 62
     8
 10
3842.1367637722
 20
2396.5020485445
 30
0.0
 11
3842.1367637722
 21
1481.4270387972
 31
0.0
  0
LINE
  5
508
  8
0
  6
CONTINUOUS
 62
     8
 10
3641.3184366087
 20
2239.6823104365
 30
0.0
 11
3641.3184366087
 21
1365.7692216121
 31
0.0
  0
LINE
  5
509
  8
0
  6
CONTINUOUS
 62
     8
 10
3637.0758119093
 20
2236.3691966903
 30
0.0
 11
3637.0758119093
 21
1363.3199873731
 31
0.0
  0
LINE
  5
50A
  8
0
  6
CONTINUOUS
 62
     8
 10
3623.6407663766
 20
2225.8777864527
 30
0.0
 11
3623.6407663766
 21
1361.7531909179
 31
0.0
  0
LINE
  5
50B
  8
0
  6
CONTINUOUS
 62
     8
 10
3796.5283858125
 20
2312.0196309831
 30
0.0
 11
3796.5283858125
 21
2233.5959929117
 31
0.0
  0
LINE
  5
50C
  8
0
  6
CONTINUOUS
 62
     8
 10
3807.9599369983
 20
2306.1154554699
 30
0.0
 11
3808.9027444383
 21
2305.5711843199
 31
0.0
  0
LINE
  5
50D
  8
0
  6
CONTINUOUS
 62
     8
 10
3808.9027444383
 20
2019.0072306052
 30
0.0
 11
3807.9599369983
 21
2019.5515017552
 31
0.0
  0
LINE
  5
50E
  8
0
  6
CONTINUOUS
 62
     8
 10
3696.1034786267
 20
2076.0918152382
 30
0.0
 11
3697.0462860667
 21
2075.5475440882
 31
0.0
  0
LINE
  5
50F
  8
0
  6
CONTINUOUS
 62
     8
 10
3806.3728183923
 20
1863.9095860369
 30
0.0
 11
3805.4300109523
 21
1864.4538571869
 31
0.0
  0
LINE
  5
510
  8
0
  6
CONTINUOUS
 62
     8
 10
3796.5283858125
 20
2107.0322147657
 30
0.0
 11
3796.5283858125
 21
1999.3492903985
 31
0.0
  0
LINE
  5
511
  8
0
  6
CONTINUOUS
 62
     8
 10
3797.4711932525
 20
2107.5764859156
 30
0.0
 11
3796.5283858125
 21
2107.0322147657
 31
0.0
  0
LINE
  5
512
  8
0
  6
CONTINUOUS
 62
     8
 10
3796.5283858125
 20
2109.4814400095
 30
0.0
 11
3797.4711932525
 21
2108.9371688595
 31
0.0
  0
LINE
  5
513
  8
0
  6
CONTINUOUS
 62
     8
 10
3797.4711932525
 20
2108.9371688595
 30
0.0
 11
3797.4711932525
 21
2107.5764878175
 31
0.0
  0
LINE
  5
514
  8
0
  6
CONTINUOUS
 62
     8
 10
3696.5702483885
 20
1567.1277995407
 30
0.0
 11
3695.6274409485
 21
1567.6720706907
 31
0.0
  0
LINE
  5
515
  8
0
  6
CONTINUOUS
 62
     8
 10
3804.9539710789
 20
1851.7456594575
 30
0.0
 11
3805.8967785189
 21
1851.2013883075
 31
0.0
  0
LINE
  5
516
  8
0
  6
CONTINUOUS
 62
     8
 10
3807.9599369983
 20
1726.0068231633
 30
0.0
 11
3808.9027444383
 21
1725.4625520133
 31
0.0
  0
LINE
  5
517
  8
0
  6
CONTINUOUS
 62
     8
 10
3808.9027444383
 20
1518.7867459453
 30
0.0
 11
3807.9599369983
 21
1519.3310170953
 31
0.0
  0
LINE
  5
518
  8
0
  6
CONTINUOUS
 62
     8
 10
3796.5283858125
 20
1731.9109783975
 30
0.0
 11
3796.5283858125
 21
1499.1288209479
 31
0.0
  0
LINE
  5
519
  8
0
  6
CONTINUOUS
 62
     8
 10
3694.8589612155
 20
1439.341655489
 30
0.0
 11
3693.9161537755
 21
1439.8859266389
 31
0.0
  0
LINE
  5
51A
  8
0
  6
CONTINUOUS
 62
     8
 10
3796.1748176565
 20
1498.9185967517
 30
0.0
 11
3797.1176250965
 21
1498.3743256017
 31
0.0
  0
LINE
  5
51B
  8
0
  6
CONTINUOUS
 62
     8
 10
3319.1134627622
 20
2361.0364606614
 30
0.0
 11
3319.1134627622
 21
2195.1103121062
 31
0.0
  0
LINE
  5
51C
  8
0
  6
CONTINUOUS
 62
     8
 10
3319.1134627622
 20
2085.0723659785
 30
0.0
 11
3319.1134627622
 21
1771.862191799
 31
0.0
  0
LINE
  5
51D
  8
0
  6
CONTINUOUS
 62
     8
 10
3130.7873561301
 20
2469.7547581244
 30
0.0
 11
3130.7873561301
 21
1646.2714085126
 31
0.0
  0
LINE
  5
51E
  8
0
  6
CONTINUOUS
 62
     8
 10
3135.0299808296
 20
2467.3055504983
 30
0.0
 11
3135.0299808296
 21
1646.2714186505
 31
0.0
  0
LINE
  5
51F
  8
0
  6
CONTINUOUS
 62
     8
 10
3117.3523105974
 20
2477.5106448217
 30
0.0
 11
3117.3523105974
 21
1654.0272952099
 31
0.0
  0
LINE
  5
520
  8
0
  6
CONTINUOUS
 62
     8
 10
3347.6334185543
 20
2072.4877557583
 30
0.0
 11
3347.6334185543
 21
2071.1270747164
 31
0.0
  0
LINE
  5
521
  8
0
  6
CONTINUOUS
 62
     8
 10
3321.470463801
 20
2359.6757846884
 30
0.0
 11
3321.470463801
 21
2212.2840027398
 31
0.0
  0
LINE
  5
522
  8
0
  6
CONTINUOUS
 62
     8
 10
3321.470463801
 20
2085.3209308783
 30
0.0
 11
3321.470463801
 21
1771.8621968679
 31
0.0
  0
LINE
  5
523
  8
0
  6
CONTINUOUS
 62
     8
 10
3284.9366359882
 20
2321.4864265627
 30
0.0
 11
3285.8794434282
 21
2320.9421554127
 31
0.0
  0
LINE
  5
524
  8
0
  6
CONTINUOUS
 62
     8
 10
3174.0229850567
 20
2377.4824688958
 30
0.0
 11
3173.0801776167
 21
2378.0267400457
 31
0.0
  0
LINE
  5
525
  8
0
  6
CONTINUOUS
 62
     8
 10
3282.4067099422
 20
2166.3887819944
 30
0.0
 11
3283.3495173822
 21
2165.8445108445
 31
0.0
  0
LINE
  5
526
  8
0
  6
CONTINUOUS
 62
     8
 10
3329.1307940073
 20
2355.2535747967
 30
0.0
 11
3329.1307940073
 21
2188.3702569491
 31
0.0
  0
LINE
  5
527
  8
0
  6
CONTINUOUS
 62
     8
 10
3333.3734362679
 20
2352.8043164748
 30
0.0
 11
3333.3734362679
 21
2188.3702569491
 31
0.0
  0
LINE
  5
528
  8
0
  6
CONTINUOUS
 62
     8
 10
3348.5762347749
 20
2344.0279644145
 30
0.0
 11
3348.5762347749
 21
2197.1466457165
 31
0.0
  0
LINE
  5
529
  8
0
  6
CONTINUOUS
 62
     8
 10
3282.8734775089
 20
2153.136313115
 30
0.0
 11
3281.9306700689
 21
2153.680584265
 31
0.0
  0
LINE
  5
52A
  8
0
  6
CONTINUOUS
 62
     8
 10
3172.6041399385
 20
1869.6069954982
 30
0.0
 11
3173.5469473785
 21
1869.0627243482
 31
0.0
  0
LINE
  5
52B
  8
0
  6
CONTINUOUS
 62
     8
 10
3330.0736014473
 20
2062.350689116
 30
0.0
 11
3329.1307940073
 21
2061.806417966
 31
0.0
  0
LINE
  5
52C
  8
0
  6
CONTINUOUS
 62
     8
 10
3333.3734362679
 20
2061.806417966
 30
0.0
 11
3332.4306288279
 21
2062.350689116
 31
0.0
  0
LINE
  5
52D
  8
0
  6
CONTINUOUS
 62
     8
 10
3329.1307940073
 20
2061.806417966
 30
0.0
 11
3329.1307940073
 21
1752.950256326
 31
0.0
  0
LINE
  5
52E
  8
0
  6
CONTINUOUS
 62
     8
 10
3333.3734362679
 20
2061.806417966
 30
0.0
 11
3333.3734362679
 21
1758.5295545594
 31
0.0
  0
LINE
  5
52F
  8
0
  6
CONTINUOUS
 62
     8
 10
3348.5762347749
 20
2070.5828067334
 30
0.0
 11
3348.5762347749
 21
1766.3534673578
 31
0.0
  0
LINE
  5
530
  8
0
  6
CONTINUOUS
 62
     8
 10
3347.6334273349
 20
2071.1270778834
 30
0.0
 11
3348.5762347749
 21
2070.5828067334
 31
0.0
  0
LINE
  5
531
  8
0
  6
CONTINUOUS
 62
     8
 10
3285.8794434282
 20
2027.3974768208
 30
0.0
 11
3284.9366359882
 21
2027.9417479708
 31
0.0
  0
LINE
  5
532
  8
0
  6
CONTINUOUS
 62
     8
 10
3284.9366359882
 20
1821.2659419028
 30
0.0
 11
3285.8794434282
 21
1820.7216707529
 31
0.0
  0
LINE
  5
533
  8
0
  6
CONTINUOUS
 62
     8
 10
3170.8928527655
 20
1741.8208514465
 30
0.0
 11
3171.8356602055
 21
1741.2765802965
 31
0.0
  0
LINE
  5
534
  8
0
  6
CONTINUOUS
 62
     8
 10
3274.0943240864
 20
1800.3092504092
 30
0.0
 11
3273.1515166464
 21
1800.8535215592
 31
0.0
  0
LINE
  5
535
  8
0
  6
CONTINUOUS
 62
     8
 10
3845.3804554784
 20
2417.2761320519
 30
0.0
 11
3591.9859367728
 21
2219.3994338953
 31
0.0
  0
LINE
  5
536
  8
0
  6
CONTINUOUS
 62
     8
 10
3841.771192545
 20
2419.8261480423
 30
0.0
 11
3590.6158217531
 21
2223.6980357323
 31
0.0
  0
LINE
  5
537
  8
0
  6
CONTINUOUS
 62
     8
 10
3590.6158217531
 20
2223.6980357323
 30
0.0
 11
3068.0639156824
 21
2525.3608300338
 31
0.0
  0
LINE
  5
538
  8
0
  6
CONTINUOUS
 62
     8
 10
3590.0319386311
 20
2219.2106349042
 30
0.0
 11
3065.2063505728
 21
2522.1859978784
 31
0.0
  0
LINE
  5
539
  8
0
  6
CONTINUOUS
 62
     8
 10
3319.2192864743
 20
2721.4889423437
 30
0.0
 11
3068.0639156824
 21
2525.3608300338
 31
0.0
  0
LINE
  5
53A
  8
0
  6
CONTINUOUS
 62
     8
 10
3841.771192545
 20
2419.8261480423
 30
0.0
 11
3319.2192864743
 21
2721.4889423437
 31
0.0
  0
LINE
  5
53B
  8
0
  6
CONTINUOUS
 62
     8
 10
3782.621954121
 20
1813.2159023658
 30
0.0
 11
3780.7363216798
 21
1814.3044548036
 31
0.0
  0
LINE
  5
53C
  8
0
  6
CONTINUOUS
 62
     8
 10
3786.6288813507
 20
1824.5106573708
 30
0.0
 11
3788.5145137919
 21
1823.422104933
 31
0.0
  0
LINE
  5
53D
  8
0
  6
CONTINUOUS
 62
     8
 10
3782.621954121
 20
1808.1805429594
 30
0.0
 11
3789.6930187016
 21
1812.2625816532
 31
0.0
  0
LINE
  5
53E
  8
0
  6
CONTINUOUS
 62
     8
 10
3780.7363304604
 20
1809.2686341799
 30
0.0
 11
3778.1436056101
 21
1807.771885983
 31
0.0
  0
LINE
  5
53F
  8
0
  6
CONTINUOUS
 62
     8
 10
3780.7363216798
 20
1809.2690953973
 30
0.0
 11
3782.621954121
 21
1808.1805429594
 31
0.0
  0
LINE
  5
540
  8
0
  6
CONTINUOUS
 62
     8
 10
3792.6393029274
 20
1825.8032950158
 30
0.0
 11
3790.7536704862
 21
1826.8918474536
 31
0.0
  0
LINE
  5
541
  8
0
  6
CONTINUOUS
 62
     8
 10
3795.2740956009
 20
1826.5934720738
 30
0.0
 11
3790.9893767365
 21
1829.066987624
 31
0.0
  0
LINE
  5
542
  8
0
  6
CONTINUOUS
 62
     8
 10
3778.1436056101
 20
1805.5944475169
 30
0.0
 11
3778.1436056101
 21
1807.771885983
 31
0.0
  0
LINE
  5
543
  8
0
  6
CONTINUOUS
 62
     8
 10
3794.6427533713
 20
1847.0989408281
 30
0.0
 11
3792.7571384913
 21
1846.0103985282
 31
0.0
  0
LINE
  5
544
  8
0
  6
CONTINUOUS
 62
     8
 10
3773.4295508489
 20
1810.4932518708
 30
0.0
 11
3773.4295508489
 21
1808.3158134046
 31
0.0
  0
LINE
  5
545
  8
0
  6
CONTINUOUS
 62
     8
 10
3311.2174263055
 20
2085.3519436952
 30
0.0
 11
3309.3318114255
 21
2086.4404859951
 31
0.0
  0
LINE
  5
546
  8
0
  6
CONTINUOUS
 62
     8
 10
3315.2243710964
 20
2096.6466885623
 30
0.0
 11
3317.1099859764
 21
2095.5581462623
 31
0.0
  0
LINE
  5
547
  8
0
  6
CONTINUOUS
 62
     8
 10
3311.2174263055
 20
2080.3165842888
 30
0.0
 11
3318.2884908861
 21
2084.3986229826
 31
0.0
  0
LINE
  5
548
  8
0
  6
CONTINUOUS
 62
     8
 10
3338.2053353737
 20
2084.4662019952
 30
0.0
 11
3322.3605964609
 21
2093.6131750707
 31
0.0
  0
LINE
  5
549
  8
0
  6
CONTINUOUS
 62
     8
 10
3309.3318026449
 20
2081.4046755093
 30
0.0
 11
3306.7390777946
 21
2079.9079273124
 31
0.0
  0
LINE
  5
54A
  8
0
  6
CONTINUOUS
 62
     8
 10
3309.3318114255
 20
2081.4051265888
 30
0.0
 11
3311.2174263055
 21
2080.3165842888
 31
0.0
  0
LINE
  5
54B
  8
0
  6
CONTINUOUS
 62
     8
 10
3321.2347751119
 20
2097.9393363452
 30
0.0
 11
3319.3491602319
 21
2099.0278786451
 31
0.0
  0
LINE
  5
54C
  8
0
  6
CONTINUOUS
 62
     8
 10
3340.798060224
 20
2088.9569027342
 30
0.0
 11
3319.584848921
 21
2101.2030289533
 31
0.0
  0
LINE
  5
54D
  8
0
  6
CONTINUOUS
 62
     8
 10
3339.0302984691
 20
2107.9413279164
 30
0.0
 11
3340.9159133491
 21
2109.0298702163
 31
0.0
  0
LINE
  5
54E
  8
0
  6
CONTINUOUS
 62
     8
 10
3342.683675104
 20
2105.9679967712
 30
0.0
 11
3340.798060224
 21
2104.8794544713
 31
0.0
  0
LINE
  5
54F
  8
0
  6
CONTINUOUS
 62
     8
 10
3306.7390777946
 20
2077.7304888463
 30
0.0
 11
3306.7390777946
 21
2079.9079273124
 31
0.0
  0
LINE
  5
550
  8
0
  6
CONTINUOUS
 62
     8
 10
3340.798060224
 20
2088.9569027342
 30
0.0
 11
3342.683675104
 21
2090.0454450342
 31
0.0
  0
LINE
  5
551
  8
0
  6
CONTINUOUS
 62
     8
 10
3323.238243117
 20
2119.2349720196
 30
0.0
 11
3321.352628237
 21
2118.1464297197
 31
0.0
  0
LINE
  5
552
  8
0
  6
CONTINUOUS
 62
     8
 10
3302.0250405946
 20
2082.6292830623
 30
0.0
 11
3302.0250405946
 21
2080.4518445962
 31
0.0
  0
LINE
  5
553
  8
0
  6
CONTINUOUS
 62
     8
 10
3332.0770782331
 20
2080.7920102632
 30
0.0
 11
3332.0770782331
 21
2082.9694487293
 31
0.0
  0
LINE
  5
554
  8
0
  6
CONTINUOUS
 62
     8
 10
3335.6126105234
 20
2082.9694537983
 30
0.0
 11
3335.6126105234
 21
2080.7920153321
 31
0.0
  0
LINE
  5
555
  8
0
  6
CONTINUOUS
 62
     8
 10
3338.2053353737
 20
2082.288763529
 30
0.0
 11
3338.2053353737
 21
2084.4662019952
 31
0.0
  0
LINE
  5
556
  8
0
  6
CONTINUOUS
 62
     8
 10
3326.1845097816
 20
2086.371156089
 30
0.0
 11
3326.1845097816
 21
2084.1937176229
 31
0.0
  0
LINE
  5
557
  8
0
  6
CONTINUOUS
 62
     8
 10
3807.9599457789
 20
2233.3215410738
 30
0.0
 11
3802.4209367028
 21
2236.5191429506
 31
0.0
  0
LINE
  5
558
  8
0
  6
CONTINUOUS
 62
     8
 10
3795.649711827
 20
2240.4280878671
 30
0.0
 11
3743.3652291602
 21
2270.6112772434
 31
0.0
  0
LINE
  5
559
  8
0
  6
CONTINUOUS
 62
     8
 10
3807.9599282177
 20
2212.0939673044
 30
0.0
 11
3727.7358782046
 21
2258.4063255907
 31
0.0
  0
LINE
  5
55A
  8
0
  6
CONTINUOUS
 62
     8
 10
3807.9599369983
 20
2219.3061030395
 30
0.0
 11
3733.0460211126
 21
2262.5529861445
 31
0.0
  0
LINE
  5
55B
  8
0
  6
CONTINUOUS
 62
     8
 10
3807.9599282177
 20
2126.765407297
 30
0.0
 11
3684.1916333701
 21
2198.2153230582
 31
0.0
  0
LINE
  5
55C
  8
0
  6
CONTINUOUS
 62
     8
 10
3807.9599369983
 20
2227.7423210709
 30
0.0
 11
3799.1776401234
 21
2232.8122331406
 31
0.0
  0
LINE
  5
55D
  8
0
  6
CONTINUOUS
 62
     8
 10
3795.6497030464
 20
2234.8488678642
 30
0.0
 11
3739.2573777895
 21
2267.4034642909
 31
0.0
  0
LINE
  5
55E
  8
0
  6
CONTINUOUS
 62
     8
 10
3764.7397926483
 20
1943.2233820205
 30
0.0
 11
3674.5524647232
 21
1995.2874182174
 31
0.0
  0
LINE
  5
55F
  8
0
  6
CONTINUOUS
 62
     8
 10
3622.7620967814
 20
2025.1853612347
 30
0.0
 11
3336.7302044564
 21
2190.3080579384
 31
0.0
  0
LINE
  5
560
  8
0
  6
CONTINUOUS
 62
     8
 10
3324.181050557
 20
2197.5525302816
 30
0.0
 11
3321.352628237
 21
2199.1853437315
 31
0.0
  0
LINE
  5
561
  8
0
  6
CONTINUOUS
 62
     8
 10
3780.3650518474
 20
1912.9754468634
 30
0.0
 11
3674.5524559426
 21
1974.0597582631
 31
0.0
  0
LINE
  5
562
  8
0
  6
CONTINUOUS
 62
     8
 10
3622.7620880008
 20
2003.9577012803
 30
0.0
 11
3308.5068483301
 21
2185.3733896007
 31
0.0
  0
LINE
  5
563
  8
0
  6
CONTINUOUS
 62
     8
 10
3775.0562962731
 20
1923.2523075848
 30
0.0
 11
3674.5524559426
 21
1981.2719396251
 31
0.0
  0
LINE
  5
564
  8
0
  6
CONTINUOUS
 62
     8
 10
3622.7620880008
 20
2011.1698826423
 30
0.0
 11
3311.6299034629
 21
2190.7826696103
 31
0.0
  0
LINE
  5
565
  8
0
  6
CONTINUOUS
 62
     8
 10
3786.2270813949
 20
1824.2628497883
 30
0.0
 11
3674.5524559426
 21
1888.7312388136
 31
0.0
  0
LINE
  5
566
  8
0
  6
CONTINUOUS
 62
     8
 10
3622.7620880008
 20
1918.6291818309
 30
0.0
 11
3338.706838968
 21
2082.6107866509
 31
0.0
  0
LINE
  5
567
  8
0
  6
CONTINUOUS
 62
     8
 10
3314.8225711406
 20
2096.3988809798
 30
0.0
 11
3308.5068483301
 21
2100.0448701512
 31
0.0
  0
LINE
  5
568
  8
0
  6
CONTINUOUS
 62
     8
 10
3768.8465552254
 20
1935.2733328183
 30
0.0
 11
3674.5524559426
 21
1989.7081576565
 31
0.0
  0
LINE
  5
569
  8
0
  6
CONTINUOUS
 62
     8
 10
3622.7620923911
 20
2019.6060981392
 30
0.0
 11
3331.3006630388
 21
2187.8631998512
 31
0.0
  0
LINE
  5
56A
  8
0
  6
CONTINUOUS
 62
     8
 10
3326.4816450636
 20
2190.6451597126
 30
0.0
 11
3318.9366742938
 21
2195.000778626
 31
0.0
  0
LINE
  5
56B
  8
0
  6
CONTINUOUS
 62
     8
 10
3614.0359035082
 20
1334.9135925288
 30
0.0
 11
3846.2026263451
 21
1468.9405887777
 31
0.0
  0
LINE
  5
56C
  8
0
  6
CONTINUOUS
 62
     8
 10
3612.6806189108
 20
1335.6959816733
 30
0.0
 11
3614.0359035082
 21
1334.9135925288
 31
0.0
  0
LINE
  5
56D
  8
0
  6
CONTINUOUS
 62
     8
 10
3611.0306927199
 20
1333.1781652134
 30
0.0
 11
3611.0306927199
 21
1334.7432018043
 31
0.0
  0
LINE
  5
56E
  8
0
  6
CONTINUOUS
 62
     8
 10
3611.0306927199
 20
1334.7432018043
 30
0.0
 11
3612.6806101302
 21
1335.6956788512
 31
0.0
  0
LINE
  5
56F
  8
0
  6
CONTINUOUS
 62
     8
 10
3089.1859054002
 20
1635.9977851399
 30
0.0
 11
3118.8848139123
 21
1653.1426000862
 31
0.0
  0
LINE
  5
570
  8
0
  6
CONTINUOUS
 62
     8
 10
3144.6937878217
 20
1668.0418035857
 30
0.0
 11
3321.352628237
 21
1770.0247813887
 31
0.0
  0
LINE
  5
571
  8
0
  6
CONTINUOUS
 62
     8
 10
3297.782398334
 20
1724.4419990788
 30
0.0
 11
3299.4323157443
 21
1725.3944761257
 31
0.0
  0
LINE
  5
572
  8
0
  6
CONTINUOUS
 62
     8
 10
3089.1859054002
 20
1634.432748549
 30
0.0
 11
3089.1859054002
 21
1635.9977851399
 31
0.0
  0
LINE
  5
573
  8
0
  6
CONTINUOUS
 62
     8
 10
3087.5359792093
 20
1638.8555292406
 30
0.0
 11
3116.4736366119
 21
1655.5608832757
 31
0.0
  0
LINE
  5
574
  8
0
  6
CONTINUOUS
 62
     8
 10
3087.5359792093
 20
1638.8555292406
 30
0.0
 11
3086.1806946118
 21
1639.6379183851
 31
0.0
  0
LINE
  5
575
  8
0
  6
CONTINUOUS
 62
     8
 10
3300.7875915611
 20
1724.6123999412
 30
0.0
 11
3352.052831722
 21
1754.2071931432
 31
0.0
  0
INSERT
  5
57D
  8
細線
  2
SW_NOTE_15
 10
3135.0299870813
 20
2099.6551442768
 30
0.0
  0
INSERT
  5
585
  8
細線
  2
SW_NOTE_16
 10
3641.3184424109
 20
1776.4728967267
 30
0.0
  0
LINE
  5
586
  8
0
  6
CONTINUOUS
 62
     7
 10
610.6707207826
 20
465.5802158707
 30
0.0
 11
1402.27070972
 21
465.5802158707
 31
0.0
  0
LINE
  5
587
  8
0
  6
CONTINUOUS
 62
     7
 10
1451.8040172724
 20
705.0178369576
 30
0.0
 11
561.1374132303
 21
705.0178369576
 31
0.0
  0
POLYLINE
  5
588
  8
0
  6
CONTINUOUS
 62
     7
 66
     1
 10
0.0
 20
0.0
 30
0.0
 70
   128
  0
VERTEX
  5
B18
  8
0
  6
CONTINUOUS
 62
     7
 10
1453.1480722097
 20
703.3970376545
 30
0.0
  0
VERTEX
  5
B19
  8
0
  6
CONTINUOUS
 62
     7
 10
1452.4841360716
 20
703.3519765431
 30
0.0
  0
VERTEX
  5
B1A
  8
0
  6
CONTINUOUS
 62
     7
 10
1451.7999939588
 20
703.3190449768
 30
0.0
  0
SEQEND
  5
B83
  8
0
  6
CONTINUOUS
 62
     7
  0
POLYLINE
  5
589
  8
0
  6
CONTINUOUS
 62
     7
 66
     1
 10
0.0
 20
0.0
 30
0.0
 70
   128
  0
VERTEX
  5
B1B
  8
0
  6
CONTINUOUS
 62
     7
 10
561.1414365438
 20
703.3190449768
 30
0.0
  0
VERTEX
  5
B1C
  8
0
  6
CONTINUOUS
 62
     7
 10
560.4572944311
 20
703.3519765431
 30
0.0
  0
VERTEX
  5
B1D
  8
0
  6
CONTINUOUS
 62
     7
 10
559.7933582929
 20
703.3970376545
 30
0.0
  0
SEQEND
  5
B84
  8
0
  6
CONTINUOUS
 62
     7
  0
LINE
  5
58A
  8
0
  6
CONTINUOUS
 62
     7
 10
1402.27070972
 20
536.6304723615
 30
0.0
 11
610.6707207826
 21
536.6304723615
 31
0.0
  0
LINE
  5
58B
  8
0
  6
CONTINUOUS
 62
     7
 10
1402.27070972
 20
536.9083119625
 30
0.0
 11
610.6707207826
 21
536.9083119625
 31
0.0
  0
CIRCLE
  5
58C
  8
0
  6
CONTINUOUS
 62
     7
 10
866.4620665268
 20
527.7892935492
 30
0.0
 40
2.237925750984489
  0
CIRCLE
  5
58D
  8
0
  6
CONTINUOUS
 62
     7
 10
1146.4793639759
 20
527.7892935492
 30
0.0
 40
2.237925750984488
  0
ARC
  5
58E
  8
0
  6
CONTINUOUS
 62
     7
 10
1146.4544810969
 20
528.0640956823
 30
0.0
 40
2.23493053939554
 50
184.0532741513
 51
270.4162057156
  0
ARC
  5
58F
  8
0
  6
CONTINUOUS
 62
     7
 10
1146.4869505979
 20
528.0640956823
 30
0.0
 40
2.23493053939554
 50
269.5837942844
 51
355.9467258487
  0
ARC
  5
590
  8
0
  6
CONTINUOUS
 62
     7
 10
866.4869494058
 20
528.0640956823
 30
0.0
 40
2.234930539395768
 50
269.5837942844
 51
355.9467258487
  0
ARC
  5
591
  8
0
  6
CONTINUOUS
 62
     7
 10
866.4544799048
 20
528.0640956823
 30
0.0
 40
2.234930539395541
 50
184.0532741513
 51
270.4162057156
  0
CIRCLE
  5
592
  8
0
  6
CONTINUOUS
 62
     7
 10
866.4793674426
 20
460.7781848605
 30
0.0
 40
2.237924837663432
  0
LINE
  5
593
  8
0
  6
CONTINUOUS
 62
     7
 10
1402.27070972
 20
451.9370069796
 30
0.0
 11
610.6707207826
 21
451.9370069796
 31
0.0
  0
CIRCLE
  5
594
  8
0
  6
CONTINUOUS
 62
     7
 10
1146.4620630601
 20
460.7781848605
 30
0.0
 40
2.237924837663432
  0
ARC
  5
595
  8
0
  6
CONTINUOUS
 62
     7
 10
1146.4707158474
 20
461.1079895308
 30
0.0
 40
2.2519101798587
 50
184.2986980313
 51
355.7013019687
  0
ARC
  5
596
  8
0
  6
CONTINUOUS
 62
     7
 10
866.4707146553
 20
461.1079895308
 30
0.0
 40
2.251910179858814
 50
184.2986980313
 51
355.7013019687
  0
LINE
  5
597
  8
0
  6
CONTINUOUS
 62
     7
 10
1451.7999939588
 20
704.9631347948
 30
0.0
 11
1451.7999939588
 21
700.3788223559
 31
0.0
  0
LINE
  5
598
  8
0
  6
CONTINUOUS
 62
     7
 10
1451.7999939588
 20
700.3788223559
 30
0.0
 11
561.1414365438
 21
700.3788223559
 31
0.0
  0
LINE
  5
599
  8
0
  6
CONTINUOUS
 62
     7
 10
561.1414365438
 20
704.9631347948
 30
0.0
 11
561.1414365438
 21
700.3788223559
 31
0.0
  0
LINE
  5
59A
  8
0
  6
CONTINUOUS
 62
     7
 10
1451.7999939588
 20
698.8031288678
 30
0.0
 11
561.1414365438
 21
698.8031288678
 31
0.0
  0
LINE
  5
59B
  8
0
  6
CONTINUOUS
 62
     7
 10
561.1414365438
 20
700.3788223559
 30
0.0
 11
561.1414365438
 21
698.8031288678
 31
0.0
  0
LINE
  5
59C
  8
0
  6
CONTINUOUS
 62
     7
 10
1451.7999939588
 20
700.3788223559
 30
0.0
 11
1451.7999939588
 21
698.8031288678
 31
0.0
  0
LINE
  5
59D
  8
0
  6
CONTINUOUS
 62
     7
 10
1453.4707121519
 20
703.3178081805
 30
0.0
 11
1451.8707148699
 21
703.3178081805
 31
0.0
  0
LINE
  5
59E
  8
0
  6
CONTINUOUS
 62
     7
 10
1453.4707121519
 20
703.3178081805
 30
0.0
 11
1453.4707121519
 21
698.7334957415
 31
0.0
  0
LINE
  5
59F
  8
0
  6
CONTINUOUS
 62
     7
 10
1453.4707121519
 20
698.7334957415
 30
0.0
 11
1451.8707148699
 21
698.7334957415
 31
0.0
  0
LINE
  5
5A0
  8
0
  6
CONTINUOUS
 62
     7
 10
1451.8707148699
 20
703.3178081805
 30
0.0
 11
1451.8707148699
 21
698.7334957415
 31
0.0
  0
LINE
  5
5A1
  8
0
  6
CONTINUOUS
 62
     7
 10
559.4707183508
 20
698.7334957415
 30
0.0
 11
561.0707156328
 21
698.7334957415
 31
0.0
  0
LINE
  5
5A2
  8
0
  6
CONTINUOUS
 62
     7
 10
559.4707183508
 20
703.3178081805
 30
0.0
 11
559.4707183508
 21
698.7334957415
 31
0.0
  0
LINE
  5
5A3
  8
0
  6
CONTINUOUS
 62
     7
 10
559.4707183508
 20
703.3178081805
 30
0.0
 11
561.0707156328
 21
703.3178081805
 31
0.0
  0
LINE
  5
5A4
  8
0
  6
CONTINUOUS
 62
     7
 10
561.0707156328
 20
703.3178081805
 30
0.0
 11
561.0707156328
 21
698.7334957415
 31
0.0
  0
LINE
  5
5A5
  8
0
  6
CONTINUOUS
 62
     7
 10
1453.4707121519
 20
268.7087526614
 30
0.0
 11
1451.8707148699
 21
268.7087526614
 31
0.0
  0
LINE
  5
5A6
  8
0
  6
CONTINUOUS
 62
     7
 10
1451.8707148699
 20
268.7087526614
 30
0.0
 11
1451.8707148699
 21
272.7977803046
 31
0.0
  0
LINE
  5
5A7
  8
0
  6
CONTINUOUS
 62
     7
 10
1451.8707148699
 20
666.7977741057
 30
0.0
 11
1451.8707148699
 21
698.7334957415
 31
0.0
  0
LINE
  5
5A8
  8
0
  6
CONTINUOUS
 62
     7
 10
1453.4707121519
 20
268.7087526614
 30
0.0
 11
1453.4707121519
 21
272.7977803046
 31
0.0
  0
LINE
  5
5A9
  8
0
  6
CONTINUOUS
 62
     7
 10
1453.4707121519
 20
666.7977741057
 30
0.0
 11
1453.4707121519
 21
698.7334957415
 31
0.0
  0
LINE
  5
5AA
  8
0
  6
CONTINUOUS
 62
     7
 10
559.4707183508
 20
268.7087526614
 30
0.0
 11
561.0707156328
 21
268.7087526614
 31
0.0
  0
LINE
  5
5AB
  8
0
  6
CONTINUOUS
 62
     7
 10
559.4707183508
 20
268.7087526614
 30
0.0
 11
559.4707183508
 21
272.7977803046
 31
0.0
  0
LINE
  5
5AC
  8
0
  6
CONTINUOUS
 62
     7
 10
559.4707183508
 20
666.7977741057
 30
0.0
 11
559.4707183508
 21
698.7334957415
 31
0.0
  0
LINE
  5
5AD
  8
0
  6
CONTINUOUS
 62
     7
 10
561.0707156328
 20
268.7087526614
 30
0.0
 11
561.0707156328
 21
272.7977803046
 31
0.0
  0
LINE
  5
5AE
  8
0
  6
CONTINUOUS
 62
     7
 10
561.0707156328
 20
666.7977741057
 30
0.0
 11
561.0707156328
 21
698.7334957415
 31
0.0
  0
LINE
  5
5AF
  8
0
  6
CONTINUOUS
 62
     7
 10
561.1947827009
 20
704.9988975817
 30
0.0
 11
561.1414365438
 21
704.9631347948
 31
0.0
  0
LINE
  5
5B0
  8
0
  6
CONTINUOUS
 62
     7
 10
1451.7466478018
 20
704.9988975817
 30
0.0
 11
1451.7999939588
 21
704.9631347948
 31
0.0
  0
POLYLINE
  5
5B1
  8
0
  6
CONTINUOUS
 62
     7
 66
     1
 10
0.0
 20
0.0
 30
0.0
 70
   128
  0
VERTEX
  5
B1E
  8
0
  6
CONTINUOUS
 62
     7
 10
1453.4707121519
 20
703.3178081805
 30
0.0
  0
VERTEX
  5
B1F
  8
0
  6
CONTINUOUS
 62
     7
 10
1453.2865934042
 20
703.4016272122
 30
0.0
  0
VERTEX
  5
B20
  8
0
  6
CONTINUOUS
 62
     7
 10
1453.1088523535
 20
703.3773085171
 30
0.0
  0
SEQEND
  5
B85
  8
0
  6
CONTINUOUS
 62
     7
  0
POLYLINE
  5
5B2
  8
0
  6
CONTINUOUS
 62
     7
 66
     1
 10
0.0
 20
0.0
 30
0.0
 70
   128
  0
VERTEX
  5
B21
  8
0
  6
CONTINUOUS
 62
     7
 10
559.4707183508
 20
703.3178081805
 30
0.0
  0
VERTEX
  5
B22
  8
0
  6
CONTINUOUS
 62
     7
 10
559.6548370985
 20
703.4016272122
 30
0.0
  0
VERTEX
  5
B23
  8
0
  6
CONTINUOUS
 62
     7
 10
559.8325781492
 20
703.3773085171
 30
0.0
  0
SEQEND
  5
B86
  8
0
  6
CONTINUOUS
 62
     7
  0
ARC
  5
5B3
  8
0
  6
CONTINUOUS
 62
     7
 10
866.4707146553
 20
528.0749182688
 30
0.0
 40
2.251910334193035
 50
184.298750271
 51
355.701249729
  0
ARC
  5
5B4
  8
0
  6
CONTINUOUS
 62
     7
 10
1146.4707158474
 20
528.0749182688
 30
0.0
 40
2.251910334192921
 50
184.298750271
 51
355.701249729
  0
ARC
  5
5B5
  8
0
  6
CONTINUOUS
 62
     7
 10
1146.4707158474
 20
528.3549048819
 30
0.0
 40
2.253642517362258
 50
187.902883196
 51
352.097116804
  0
ARC
  5
5B6
  8
0
  6
CONTINUOUS
 62
     7
 10
866.4707146553
 20
528.3549048819
 30
0.0
 40
2.253642517362371
 50
187.902883196
 51
352.097116804
  0
ARC
  5
5B7
  8
0
  6
CONTINUOUS
 62
     7
 10
1146.4707158474
 20
461.3879785996
 30
0.0
 40
2.253642828010626
 50
187.9029400912
 51
352.0970599088
  0
ARC
  5
5B8
  8
0
  6
CONTINUOUS
 62
     7
 10
866.4707146553
 20
461.3879785996
 30
0.0
 40
2.253642828010739
 50
187.9029400912
 51
352.0970599088
  0
LINE
  5
5B9
  8
0
  6
CONTINUOUS
 62
     7
 10
1451.7999939588
 20
272.7977803046
 30
0.0
 11
1451.7999939588
 21
268.6391046339
 31
0.0
  0
LINE
  5
5BA
  8
0
  6
CONTINUOUS
 62
     7
 10
1451.7999939588
 20
268.6391046339
 30
0.0
 11
561.1414365438
 21
268.6391046339
 31
0.0
  0
LINE
  5
5BB
  8
0
  6
CONTINUOUS
 62
     7
 10
561.1414365438
 20
272.7977803046
 30
0.0
 11
561.1414365438
 21
268.6391046339
 31
0.0
  0
LINE
  5
5BC
  8
0
  6
CONTINUOUS
 62
     7
 10
1451.7999939588
 20
267.0634111458
 30
0.0
 11
561.1414365438
 21
267.0634111458
 31
0.0
  0
LINE
  5
5BD
  8
0
  6
CONTINUOUS
 62
     7
 10
561.1414365438
 20
267.0634111458
 30
0.0
 11
561.1414365438
 21
268.6391046339
 31
0.0
  0
LINE
  5
5BE
  8
0
  6
CONTINUOUS
 62
     7
 10
1451.7999939588
 20
267.0634111458
 30
0.0
 11
1451.7999939588
 21
268.6391046339
 31
0.0
  0
LINE
  5
5BF
  8
0
  6
CONTINUOUS
 62
     7
 10
1388.4707145361
 20
304.9977740342
 30
0.0
 11
1388.4707145361
 21
330.3977718645
 31
0.0
  0
ARC
  5
5C0
  8
0
  6
CONTINUOUS
 62
     7
 10
1396.4707152513
 20
330.3977730328
 30
0.0
 40
8.0
 50
90.0
 51
180.0
  0
LINE
  5
5C1
  8
0
  6
CONTINUOUS
 62
     7
 10
1397.1707276968
 20
338.3977731758
 30
0.0
 11
1396.4707009462
 21
338.3977731758
 31
0.0
  0
LINE
  5
5C2
  8
0
  6
CONTINUOUS
 62
     7
 10
1388.4707145361
 20
297.3977794939
 30
0.0
 11
1388.4707145361
 21
304.9977740342
 31
0.0
  0
LINE
  5
5C3
  8
0
  6
CONTINUOUS
 62
     7
 10
621.4707247881
 20
312.39778009
 30
0.0
 11
615.7707028059
 21
312.39778009
 31
0.0
  0
ARC
  5
5C4
  8
0
  6
CONTINUOUS
 62
     7
 10
621.4707152513
 20
309.3977730328
 30
0.0
 40
3.0
 50
0.0
 51
90.0
  0
LINE
  5
5C5
  8
0
  6
CONTINUOUS
 62
     7
 10
624.4707159666
 20
304.9977740342
 30
0.0
 11
624.4707159666
 21
309.3977740103
 31
0.0
  0
LINE
  5
5C6
  8
0
  6
CONTINUOUS
 62
     7
 10
588.4707026152
 20
321.3977685267
 30
0.0
 11
588.4707026152
 21
330.3977718645
 31
0.0
  0
ARC
  5
5C7
  8
0
  6
CONTINUOUS
 62
     7
 10
596.4707152513
 20
330.3977730328
 30
0.0
 40
8.00000000000002
 50
125.5031241153
 51
180.0
  0
LINE
  5
5C8
  8
0
  6
CONTINUOUS
 62
     7
 10
624.4707159666
 20
297.3977794939
 30
0.0
 11
624.4707159666
 21
304.9977740342
 31
0.0
  0
LINE
  5
5C9
  8
0
  6
CONTINUOUS
 62
     7
 10
1397.1707276968
 20
274.3977775866
 30
0.0
 11
615.7707028059
 21
274.3977775866
 31
0.0
  0
LINE
  5
5CA
  8
0
  6
CONTINUOUS
 62
     7
 10
1397.1707276968
 20
275.5977680975
 30
0.0
 11
615.7707028059
 21
275.5977680975
 31
0.0
  0
LINE
  5
5CB
  8
0
  6
CONTINUOUS
 62
     7
 10
1397.1707276968
 20
297.3977794939
 30
0.0
 11
615.7707028059
 21
297.3977794939
 31
0.0
  0
LINE
  5
5CC
  8
0
  6
CONTINUOUS
 62
     7
 10
1402.27070972
 20
661.7977788741
 30
0.0
 11
1407.2707049517
 21
666.7977741057
 31
0.0
  0
LINE
  5
5CD
  8
0
  6
CONTINUOUS
 62
     7
 10
1449.2707006601
 20
666.7977741057
 30
0.0
 11
1407.2707049517
 21
666.7977741057
 31
0.0
  0
LINE
  5
5CE
  8
0
  6
CONTINUOUS
 62
     7
 10
1449.2707006601
 20
272.7977803046
 30
0.0
 11
1402.27070972
 21
272.7977803046
 31
0.0
  0
LINE
  5
5CF
  8
0
  6
CONTINUOUS
 62
     7
 10
1402.27070972
 20
661.7977788741
 30
0.0
 11
1402.27070972
 21
359.7977778012
 31
0.0
  0
CIRCLE
  5
5D0
  8
0
  6
CONTINUOUS
 62
     7
 10
1425.7707152513
 20
329.7977730328
 30
0.0
 40
8.500000000000057
  0
CIRCLE
  5
5D1
  8
0
  6
CONTINUOUS
 62
     7
 10
1425.7707152513
 20
649.7977730328
 30
0.0
 40
8.5
  0
LINE
  5
5D2
  8
0
  6
CONTINUOUS
 62
     7
 10
1449.2707006601
 20
666.7977741057
 30
0.0
 11
1454.3707124857
 21
666.7977741057
 31
0.0
  0
LINE
  5
5D3
  8
0
  6
CONTINUOUS
 62
     7
 10
1454.3707124857
 20
666.7977741057
 30
0.0
 11
1454.3707124857
 21
272.7977803046
 31
0.0
  0
LINE
  5
5D4
  8
0
  6
CONTINUOUS
 62
     7
 10
1449.2707006601
 20
272.7977803046
 30
0.0
 11
1454.3707124857
 21
272.7977803046
 31
0.0
  0
LINE
  5
5D5
  8
0
  6
CONTINUOUS
 62
     7
 10
1397.1707276968
 20
359.7977778012
 30
0.0
 11
1402.27070972
 21
359.7977778012
 31
0.0
  0
LINE
  5
5D6
  8
0
  6
CONTINUOUS
 62
     7
 10
1397.1707276968
 20
359.7977778012
 30
0.0
 11
1397.1707276968
 21
272.7977803046
 31
0.0
  0
LINE
  5
5D7
  8
0
  6
CONTINUOUS
 62
     7
 10
1402.27070972
 20
272.7977803046
 30
0.0
 11
1397.1707276968
 21
272.7977803046
 31
0.0
  0
LINE
  5
5D8
  8
0
  6
CONTINUOUS
 62
     7
 10
558.570718017
 20
666.7977741057
 30
0.0
 11
558.570718017
 21
272.7977803046
 31
0.0
  0
LINE
  5
5D9
  8
0
  6
CONTINUOUS
 62
     7
 10
563.6707298426
 20
666.7977741057
 30
0.0
 11
558.570718017
 21
666.7977741057
 31
0.0
  0
LINE
  5
5DA
  8
0
  6
CONTINUOUS
 62
     7
 10
563.6707298426
 20
272.7977803046
 30
0.0
 11
558.570718017
 21
272.7977803046
 31
0.0
  0
LINE
  5
5DB
  8
0
  6
CONTINUOUS
 62
     7
 10
563.6707298426
 20
666.7977741057
 30
0.0
 11
605.670725551
 21
666.7977741057
 31
0.0
  0
LINE
  5
5DC
  8
0
  6
CONTINUOUS
 62
     7
 10
610.6707207826
 20
661.7977788741
 30
0.0
 11
605.670725551
 21
666.7977741057
 31
0.0
  0
LINE
  5
5DD
  8
0
  6
CONTINUOUS
 62
     7
 10
610.6707207826
 20
661.7977788741
 30
0.0
 11
610.6707207826
 21
359.7977778012
 31
0.0
  0
CIRCLE
  5
5DE
  8
0
  6
CONTINUOUS
 62
     7
 10
587.1707152513
 20
329.7977730328
 30
0.0
 40
8.5
  0
CIRCLE
  5
5DF
  8
0
  6
CONTINUOUS
 62
     7
 10
587.1707152513
 20
649.7977730328
 30
0.0
 40
8.5
  0
LINE
  5
5E0
  8
0
  6
CONTINUOUS
 62
     7
 10
563.6707298426
 20
272.7977803046
 30
0.0
 11
610.6707207826
 21
272.7977803046
 31
0.0
  0
LINE
  5
5E1
  8
0
  6
CONTINUOUS
 62
     7
 10
615.7707028059
 20
359.7977778012
 30
0.0
 11
610.6707207826
 21
359.7977778012
 31
0.0
  0
LINE
  5
5E2
  8
0
  6
CONTINUOUS
 62
     7
 10
615.7707028059
 20
359.7977778012
 30
0.0
 11
615.7707028059
 21
272.7977803046
 31
0.0
  0
LINE
  5
5E3
  8
0
  6
CONTINUOUS
 62
     7
 10
610.6707207826
 20
272.7977803046
 30
0.0
 11
615.7707028059
 21
272.7977803046
 31
0.0
  0
LINE
  5
5E4
  8
0
  6
CONTINUOUS
 62
     8
 10
1402.27070972
 20
510.7048546964
 30
0.0
 11
610.6707207826
 21
510.7048546964
 31
0.0
  0
LINE
  5
5E5
  8
0
  6
CONTINUOUS
 62
     8
 10
1402.27070972
 20
514.8752966964
 30
0.0
 11
610.6707207826
 21
514.8752966964
 31
0.0
  0
LINE
  5
5E6
  8
0
  6
CONTINUOUS
 62
     8
 10
1402.27070972
 20
468.5550836915
 30
0.0
 11
610.6707207826
 21
468.5550836915
 31
0.0
  0
LINE
  5
5E7
  8
0
  6
CONTINUOUS
 62
     8
 10
1402.27070972
 20
518.5566378826
 30
0.0
 11
610.6707207826
 21
518.5566378826
 31
0.0
  0
LINE
  5
5E8
  8
0
  6
CONTINUOUS
 62
     8
 10
1402.27070972
 20
520.8735486561
 30
0.0
 11
610.6707207826
 21
520.8735486561
 31
0.0
  0
LINE
  5
5E9
  8
0
  6
CONTINUOUS
 62
     8
 10
1451.7999939588
 20
704.9631347948
 30
0.0
 11
561.1414365438
 21
704.9631347948
 31
0.0
  0
LINE
  5
5EA
  8
0
  6
CONTINUOUS
 62
     8
 10
1449.8707108168
 20
666.7977741057
 30
0.0
 11
1449.8707108168
 21
698.8031288678
 31
0.0
  0
LINE
  5
5EB
  8
0
  6
CONTINUOUS
 62
     8
 10
563.0707196859
 20
666.7977741057
 30
0.0
 11
563.0707196859
 21
698.8031288678
 31
0.0
  0
LINE
  5
5EC
  8
0
  6
CONTINUOUS
 62
     8
 10
1397.1707276968
 20
273.2234170729
 30
0.0
 11
615.7707028059
 21
273.2234170729
 31
0.0
  0
LINE
  5
5ED
  8
0
  6
CONTINUOUS
 62
     8
 10
1397.1707276968
 20
304.9977740342
 30
0.0
 11
1388.4707145361
 21
304.9977740342
 31
0.0
  0
LINE
  5
5EE
  8
0
  6
CONTINUOUS
 62
     8
 10
624.4707159666
 20
304.9977740342
 30
0.0
 11
615.7707028059
 21
304.9977740342
 31
0.0
  0
LINE
  5
5EF
  8
0
  6
CONTINUOUS
 62
     8
 10
1397.1707276968
 20
279.6977778965
 30
0.0
 11
615.7707028059
 21
279.6977778965
 31
0.0
  0
LINE
  5
5F0
  8
0
  6
CONTINUOUS
 62
     8
 10
1397.1707276968
 20
292.097779184
 30
0.0
 11
615.7707028059
 21
292.097779184
 31
0.0
  0
LINE
  5
5F1
  8
0
  6
CONTINUOUS
 62
     8
 10
1449.2707006601
 20
666.7977741057
 30
0.0
 11
1449.2707006601
 21
272.7977803046
 31
0.0
  0
LINE
  5
5F2
  8
0
  6
CONTINUOUS
 62
     8
 10
1402.27070972
 20
359.7977778012
 30
0.0
 11
1402.27070972
 21
272.7977803046
 31
0.0
  0
LINE
  5
5F3
  8
0
  6
CONTINUOUS
 62
     8
 10
563.6707298426
 20
666.7977741057
 30
0.0
 11
563.6707298426
 21
272.7977803046
 31
0.0
  0
LINE
  5
5F4
  8
0
  6
CONTINUOUS
 62
     8
 10
610.6707207826
 20
359.7977778012
 30
0.0
 11
610.6707207826
 21
272.7977803046
 31
0.0
  0
DIMENSION
  5
5F5
  8
細線
  2
_D_7
 10
474.0697833572
 20
329.7977730328
 30
0.0
 11
474.0697833572
 21
491.3766915842
 31
0.0
 70
   160
  1
<>
  3
SLDDIMSTYLE0
 13
587.1707152513
 23
649.7977730328
 33
0.0
 14
587.1707152513
 24
329.7977730328
 34
0.0
 50
90.0
  0
DIMENSION
  5
5FF
  8
細線
  2
_D_8
 10
1425.7707152513
 20
748.6529135053
 30
0.0
 11
990.0840239149
 21
748.6529135053
 31
0.0
 70
   160
  1
<>
  3
SLDDIMSTYLE0
 13
587.1707152513
 23
649.7977730328
 33
0.0
 14
1425.7707152513
 24
649.7977730328
 34
0.0
  0
DIMENSION
  5
609
  8
細線
  2
_D_9
 10
594.5319311744
 20
645.547773017
 30
0.0
 11
477.3986520127
 21
713.1748613423
 31
0.0
 70
   163
  1
<>
  3
SLDDIMSTYLE2
 15
579.8094993283
 25
654.0477730486
 35
0.0
 40
0.0
  0
ENDSEC
  0
EOF
