  0
SECTION
  2
HEADER
  9
$ACADVER
  1
AC1009
  9
$DWGCODEPAGE
  3
ansi_932
  9
$INSBASE
 10
0.0
 20
0.0
 30
0.0
  9
$EXTMIN
 10
-8676.654686921258
 20
-6238.750000000036
 30
0.0
  9
$EXTMAX
 10
8848.309373842467
 20
6244.999999999969
 30
0.0
  9
$LIMMIN
 10
-3150.0
 20
-2227.5
  9
$LIMMAX
 10
3150.0
 20
2227.5
  9
$ORTHOMODE
 70
     0
  9
$REGENMODE
 70
     1
  9
$FILLMODE
 70
     1
  9
$QTEXTMODE
 70
     0
  9
$MIRRTEXT
 70
     1
  9
$DRAGMODE
 70
     2
  9
$LTSCALE
 40
3.75
  9
$OSMODE
 70
    37
  9
$ATTMODE
 70
     1
  9
$TEXTSIZE
 40
0.2
  9
$TRACEWID
 40
0.05
  9
$TEXTSTYLE
  7
STANDARD
  9
$CLAYER
  8
0
  9
$CELTYPE
  6
BYLAYER
  9
$CECOLOR
 62
   256
  9
$DIMSCALE
 40
1.0
  9
$DIMASZ
 40
45.00002861022949
  9
$DIMEXO
 40
1.0
  9
$DIMDLI
 40
10.0
  9
$DIMRND
 40
0.0
  9
$DIMDLE
 40
0.0
  9
$DIMEXE
 40
1.0
  9
$DIMTP
 40
0.0
  9
$DIMTM
 40
0.0
  9
$DIMTXT
 40
52.5
  9
$DIMCEN
 40
0.0
  9
$DIMTSZ
 40
0.0
  9
$DIMTOL
 70
     0
  9
$DIMLIM
 70
     0
  9
$DIMTIH
 70
     0
  9
$DIMTOH
 70
     0
  9
$DIMSE1
 70
     0
  9
$DIMSE2
 70
     0
  9
$DIMTAD
 70
     1
  9
$DIMZIN
 70
     8
  9
$DIMBLK
  1

  9
$DIMASO
 70
     1
  9
$DIMSHO
 70
     1
  9
$DIMPOST
  1

  9
$DIMAPOST
  1

  9
$DIMALT
 70
     0
  9
$DIMALTD
 70
     2
  9
$DIMALTF
 40
25.4
  9
$DIMLFAC
 40
1.0
  9
$DIMTOFL
 70
     0
  9
$DIMTVP
 40
0.0
  9
$DIMTIX
 70
     0
  9
$DIMSOXD
 70
     0
  9
$DIMSAH
 70
     0
  9
$DIMBLK1
  1

  9
$DIMBLK2
  1

  9
$DIMSTYLE
  2
STANDARD
  9
$DIMCLRD
 70
     0
  9
$DIMCLRE
 70
     0
  9
$DIMCLRT
 70
     0
  9
$DIMTFAC
 40
0.65
  9
$DIMGAP
 40
0.09
  9
$LUNITS
 70
     2
  9
$LUPREC
 70
     4
  9
$SKETCHINC
 40
0.1
  9
$FILLETRAD
 40
0.5
  9
$AUNITS
 70
     0
  9
$AUPREC
 70
     0
  9
$MENU
  1
.
  9
$ELEVATION
 40
0.0
  9
$PELEVATION
 40
0.0
  9
$THICKNESS
 40
0.0
  9
$LIMCHECK
 70
     0
  9
$CHAMFERA
 40
0.0
  9
$CHAMFERB
 40
0.0
  9
$SKPOLY
 70
     0
  9
$TDCREATE
 40
2459643.661539746
  9
$TDUPDATE
 40
2459643.661541192
  9
$TDINDWG
 40
0.0000000116
  9
$TDUSRTIMER
 40
0.0000000116
  9
$USRTIMER
 70
     1
  9
$ANGBASE
 50
0.0
  9
$ANGDIR
 70
     0
  9
$PDMODE
 70
     0
  9
$PDSIZE
 40
1.0
  9
$PLINEWID
 40
0.0
  9
$COORDS
 70
     1
  9
$SPLFRAME
 70
     0
  9
$SPLINETYPE
 70
     6
  9
$SPLINESEGS
 70
     8
  9
$ATTDIA
 70
     0
  9
$ATTREQ
 70
     1
  9
$HANDLING
 70
     1
  9
$HANDSEED
  5
5D6
  9
$SURFTAB1
 70
     6
  9
$SURFTAB2
 70
     6
  9
$SURFTYPE
 70
     6
  9
$SURFU
 70
     6
  9
$SURFV
 70
     6
  9
$UCSNAME
  2

  9
$UCSORG
 10
0.0
 20
0.0
 30
0.0
  9
$UCSXDIR
 10
1.0
 20
0.0
 30
0.0
  9
$UCSYDIR
 10
0.0
 20
1.0
 30
0.0
  9
$PUCSNAME
  2

  9
$PUCSORG
 10
0.0
 20
0.0
 30
0.0
  9
$PUCSXDIR
 10
1.0
 20
0.0
 30
0.0
  9
$PUCSYDIR
 10
0.0
 20
1.0
 30
0.0
  9
$USERI1
 70
     0
  9
$USERI2
 70
     0
  9
$USERI3
 70
     0
  9
$USERI4
 70
     0
  9
$USERI5
 70
     0
  9
$USERR1
 40
0.0
  9
$USERR2
 40
0.0
  9
$USERR3
 40
0.0
  9
$USERR4
 40
0.0
  9
$USERR5
 40
0.0
  9
$WORLDVIEW
 70
     1
  9
$SHADEDGE
 70
     3
  9
$SHADEDIF
 70
    70
  9
$TILEMODE
 70
     1
  9
$MAXACTVP
 70
    64
  9
$PLIMCHECK
 70
     0
  9
$PEXTMIN
 10
1.000000000000000E+20
 20
1.000000000000000E+20
 30
1.000000000000000E+20
  9
$PEXTMAX
 10
-1.000000000000000E+20
 20
-1.000000000000000E+20
 30
-1.000000000000000E+20
  9
$PLIMMIN
 10
0.0
 20
0.0
  9
$PLIMMAX
 10
12.0
 20
9.0
  9
$UNITMODE
 70
     0
  9
$VISRETAIN
 70
     0
  9
$PLINEGEN
 70
     1
  9
$PSLTSCALE
 70
     0
  0
ENDSEC
  0
SECTION
  2
TABLES
  0
TABLE
  2
VPORT
 70
     1
  0
VPORT
  2
*ACTIVE
 70
     0
 10
0.0
 20
0.0
 11
1.0
 21
1.0
 12
106.427343460604
 22
3.124999999966803
 13
0.0
 23
0.0
 14
0.5
 24
0.5
 15
0.5
 25
0.5
 16
0.0
 26
0.0
 36
1.0
 17
0.0
 27
0.0
 37
0.0
 40
4244.475000000002
 41
1.413722964715227
 42
50.0
 43
0.0
 44
0.0
 50
0.0
 51
0.0
 71
     0
 72
  1000
 73
     1
 74
     1
 75
     0
 76
     0
 77
     0
 78
     0
  0
ENDTAB
  0
TABLE
  2
LTYPE
 70
    67
  0
LTYPE
  2
CONTINUOUS
 70
     0
  3
Solid line
 72
    65
 73
     0
 40
0.0
  0
LTYPE
  2
HIDDENX2
 70
     0
  3
Hidden (2x) ____ ____ ____ ____ ____ ____ ____ 
 72
    65
 73
     2
 40
19.05
 49
12.7
 49
-6.35
  0
LTYPE
  2
HIDDEN
 70
     0
  3
Hidden __ __ __ __ __ __ __ __ __ __ __ __ __ __
 72
    65
 73
     2
 40
9.524999999999999
 49
6.35
 49
-3.175
  0
LTYPE
  2
HIDDEN2
 70
     0
  3
Hidden (.5x) _ _ _ _ _ _ _ _ _ _ _ _ _ _ _ _ _ 
 72
    65
 73
     2
 40
4.762499999999999
 49
3.175
 49
-1.5875
  0
LTYPE
  2
DASHED
 70
     0
  3
Dashed __ __ __ __ __ __ __ __ __ __ __ __ __ _
 72
    65
 73
     2
 40
19.05
 49
12.7
 49
-6.35
  0
LTYPE
  2
DASHED2
 70
     0
  3
Dashed (.5x) _ _ _ _ _ _ _ _ _ _ _ _ _ _ _ _ _ 
 72
    65
 73
     2
 40
9.524999999999999
 49
6.35
 49
-3.175
  0
LTYPE
  2
DASHEDX2
 70
     0
  3
Dashed (2x) ____  ____  ____  ____  ____  ___
 72
    65
 73
     2
 40
38.09999999999999
 49
25.4
 49
-12.7
  0
LTYPE
  2
DOTX2
 70
     0
  3
Dot (2x) .  .  .  .  .  .  .  .  .  .  .  .  .  .
 72
    65
 73
     2
 40
12.7
 49
0.0
 49
-12.7
  0
LTYPE
  2
DOT
 70
     0
  3
Dot . . . . . . . . . . . . . . . . . . . . . . . .
 72
    65
 73
     2
 40
6.35
 49
0.0
 49
-6.35
  0
LTYPE
  2
DOT2
 70
     0
  3
Dot (.5x) ........................................
 72
    65
 73
     2
 40
3.175
 49
0.0
 49
-3.175
  0
LTYPE
  2
CENTERX2
 70
     0
  3
Center (2x) ________  __  ________  __  _____
 72
    65
 73
     4
 40
101.6
 49
63.5
 49
-12.7
 49
12.7
 49
-12.7
  0
LTYPE
  2
CENTER
 70
     0
  3
Center ____ _ ____ _ ____ _ ____ _ ____ _ ____
 72
    65
 73
     4
 40
50.8
 49
31.75
 49
-6.35
 49
6.35
 49
-6.35
  0
LTYPE
  2
CENTER2
 70
     0
  3
Center (.5x) ___ _ ___ _ ___ _ ___ _ ___ _ ___
 72
    65
 73
     4
 40
28.575
 49
19.05
 49
-3.175
 49
3.175
 49
-3.175
  0
LTYPE
  2
DASHDOTX2
 70
     0
  3
Dash dot (2x) ____  .  ____  .  ____  .  ___
 72
    65
 73
     4
 40
50.8
 49
25.4
 49
-12.7
 49
0.0
 49
-12.7
  0
LTYPE
  2
DASHDOT
 70
     0
  3
Dash dot __ . __ . __ . __ . __ . __ . __ . __
 72
    65
 73
     4
 40
25.4
 49
12.7
 49
-6.35
 49
0.0
 49
-6.35
  0
LTYPE
  2
DASHDOT2
 70
     0
  3
Dash dot (.5x) _._._._._._._._._._._._._._._.
 72
    65
 73
     4
 40
12.7
 49
6.35
 49
-3.175
 49
0.0
 49
-3.175
  0
LTYPE
  2
DIVIDEX2
 70
     0
  3
Divide (2x) ________  .  .  ________  .  .  _
 72
    65
 73
     6
 40
63.5
 49
25.4
 49
-12.7
 49
0.0
 49
-12.7
 49
0.0
 49
-12.7
  0
LTYPE
  2
DIVIDE
 70
     0
  3
Divide ____ . . ____ . . ____ . . ____ . . ____
 72
    65
 73
     6
 40
31.75
 49
12.7
 49
-6.35
 49
0.0
 49
-6.35
 49
0.0
 49
-6.35
  0
LTYPE
  2
DIVIDE2
 70
     0
  3
Divide (.5x) __..__..__..__..__..__..__..__.._
 72
    65
 73
     6
 40
15.875
 49
6.35
 49
-3.175
 49
0.0
 49
-3.175
 49
0.0
 49
-3.175
  0
LTYPE
  2
BORDERX2
 70
     0
  3
Border (2x) ____  ____  .  ____  ____  .  ___
 72
    65
 73
     6
 40
88.89999999999999
 49
25.4
 49
-12.7
 49
25.4
 49
-12.7
 49
0.0
 49
-12.7
  0
LTYPE
  2
BORDER
 70
     0
  3
Border __ __ . __ __ . __ __ . __ __ . __ __ .
 72
    65
 73
     6
 40
44.45
 49
12.7
 49
-6.35
 49
12.7
 49
-6.35
 49
0.0
 49
-6.35
  0
LTYPE
  2
BORDER2
 70
     0
  3
Border (.5x) __.__.__.__.__.__.__.__.__.__.__.
 72
    65
 73
     6
 40
22.225
 49
6.35
 49
-3.175
 49
6.35
 49
-3.175
 49
0.0
 49
-3.175
  0
LTYPE
  2
PHANTOMX2
 70
     0
  3
Phantom (2x) ____________    ____    ____   _
 72
    65
 73
     6
 40
127.0
 49
63.5
 49
-12.7
 49
12.7
 49
-12.7
 49
12.7
 49
-12.7
  0
LTYPE
  2
PHANTOM
 70
     0
  3
Phantom ______  __  __  ______  __  __  ______ 
 72
    65
 73
     6
 40
63.5
 49
31.75
 49
-6.35
 49
6.35
 49
-6.35
 49
6.35
 49
-6.35
  0
LTYPE
  2
PHANTOM2
 70
     0
  3
Phantom (.5x) ___ _ _ ___ _ _ ___ _ _ ___ _ _
 72
    65
 73
     6
 40
31.75
 49
15.875
 49
-3.175
 49
3.175
 49
-3.175
 49
3.175
 49
-3.175
  0
LTYPE
  2
ACAD_ISO06W100
 70
     0
  3
ISO long-dash triple-dot ____ ... ____ ... ____
 72
    65
 73
     8
 40
36.0
 49
24.0
 49
-3.0
 49
0.0
 49
-3.0
 49
0.0
 49
-3.0
 49
0.0
 49
-3.0
  0
LTYPE
  2
ACAD_ISO13W100
 70
     0
  3
ISO double-dash double-dot __ __ . . __ __ . . _
 72
    65
 73
     8
 40
36.0
 49
12.0
 49
-3.0
 49
12.0
 49
-3.0
 49
0.0
 49
-3.0
 49
0.0
 49
-3.0
  0
LTYPE
  2
ACAD_ISO14W100
 70
     0
  3
ISO dash triple-dot __ . . . __ . . . __ . . . _
 72
    65
 73
     8
 40
24.0
 49
12.0
 49
-3.0
 49
0.0
 49
-3.0
 49
0.0
 49
-3.0
 49
0.0
 49
-3.0
  0
LTYPE
  2
ACAD_ISO02W100
 70
     0
  3
ISO dash __ __ __ __ __ __ __ __ __ __ __ __ __
 72
    65
 73
     2
 40
15.0
 49
12.0
 49
-3.0
  0
LTYPE
  2
ACAD_ISO03W100
 70
     0
  3
ISO dash space __    __    __    __    __    __
 72
    65
 73
     2
 40
30.0
 49
12.0
 49
-18.0
  0
LTYPE
  2
ACAD_ISO04W100
 70
     0
  3
ISO long-dash dot ____ . ____ . ____ . ____ . _
 72
    65
 73
     4
 40
30.0
 49
24.0
 49
-3.0
 49
0.0
 49
-3.0
  0
LTYPE
  2
ACAD_ISO05W100
 70
     0
  3
ISO long-dash double-dot ____ .. ____ .. ____ . 
 72
    65
 73
     6
 40
33.0
 49
24.0
 49
-3.0
 49
0.0
 49
-3.0
 49
0.0
 49
-3.0
  0
LTYPE
  2
ACAD_ISO07W100
 70
     0
  3
ISO dot . . . . . . . . . . . . . . . . . . . . 
 72
    65
 73
     2
 40
3.0
 49
0.0
 49
-3.0
  0
LTYPE
  2
ACAD_ISO08W100
 70
     0
  3
ISO long-dash short-dash ____ __ ____ __ ____ _
 72
    65
 73
     4
 40
36.0
 49
24.0
 49
-3.0
 49
6.0
 49
-3.0
  0
LTYPE
  2
ACAD_ISO09W100
 70
     0
  3
ISO long-dash double-short-dash ____ __ __ ____
 72
    65
 73
     6
 40
45.0
 49
24.0
 49
-3.0
 49
6.0
 49
-3.0
 49
6.0
 49
-3.0
  0
LTYPE
  2
ACAD_ISO10W100
 70
     0
  3
ISO dash dot __ . __ . __ . __ . __ . __ . __ . 
 72
    65
 73
     4
 40
18.0
 49
12.0
 49
-3.0
 49
0.0
 49
-3.0
  0
LTYPE
  2
ACAD_ISO11W100
 70
     0
  3
ISO double-dash dot __ __ . __ __ . __ __ . __ _
 72
    65
 73
     6
 40
33.0
 49
12.0
 49
-3.0
 49
12.0
 49
-3.0
 49
0.0
 49
-3.0
  0
LTYPE
  2
ACAD_ISO12W100
 70
     0
  3
ISO dash double-dot __ . . __ . . __ . . __ . . 
 72
    65
 73
     6
 40
21.0
 49
12.0
 49
-3.0
 49
0.0
 49
-3.0
 49
0.0
 49
-3.0
  0
LTYPE
  2
ACAD_ISO15W100
 70
     0
  3
ISO double-dash triple-dot __ __ . . . __ __ . .
 72
    65
 73
    10
 40
39.0
 49
12.0
 49
-3.0
 49
12.0
 49
-3.0
 49
0.0
 49
-3.0
 49
0.0
 49
-3.0
 49
0.0
 49
-3.0
  0
LTYPE
  2
JIS_02_0_7
 70
     0
  3
HIDDEN0.75 _ _ _ _ _ _ _ _ _ _ _ _ _ _ _ _ _ 
 72
    65
 73
     2
 40
1.35
 49
0.75
 49
-0.6
  0
LTYPE
  2
JIS_02_1_0
 70
     0
  3
HIDDEN01 _ _ _ _ _ _ _ _ _ _ _ _ _ _ _ _ _ 
 72
    65
 73
     2
 40
2.0
 49
1.0
 49
-1.0
  0
LTYPE
  2
JIS_02_1_2
 70
     0
  3
HIDDEN01.25  _ _ _ _ _ _ _ _ _ _ _ _ _ _ _ _ _ 
 72
    65
 73
     2
 40
2.5
 49
1.25
 49
-1.25
  0
LTYPE
  2
JIS_02_2_0
 70
     0
  3
HIDDEN02 __ __ __ __ __ __ __ __ __ __ __ 
 72
    65
 73
     2
 40
3.0
 49
2.0
 49
-1.0
  0
LTYPE
  2
JIS_02_4_0
 70
     0
  3
HIDDEN04 ____ ____ ____ ____ ____ ____ ____ 
 72
    65
 73
     2
 40
5.5
 49
4.0
 49
-1.5
  0
LTYPE
  2
JIS_08_11
 70
     0
  3
1SASEN11 ___ _ ___ _ ___ _ ___ _ ___ _ ___
 72
    65
 73
     4
 40
12.8
 49
11.0
 49
-0.6
 49
0.6
 49
-0.6
  0
LTYPE
  2
JIS_08_15
 70
     0
  3
1SASEN15 ____ _ ____ _ ____ _ ____ _ ____ 
 72
    65
 73
     4
 40
17.25
 49
15.0
 49
-0.75
 49
0.75
 49
-0.75
  0
LTYPE
  2
JIS_08_25
 70
     0
  3
1SASEN25 ________  __  ________  __  _____
 72
    65
 73
     4
 40
28.0
 49
25.0
 49
-1.125
 49
0.75
 49
-1.125
  0
LTYPE
  2
JIS_08_37
 70
     0
  3
1SASEN37 ________  __  ________  __  _____
 72
    65
 73
     4
 40
40.5
 49
37.5
 49
-1.125
 49
0.75
 49
-1.125
  0
LTYPE
  2
JIS_08_50
 70
     0
  3
1SASEN50 _______________  __  ____________
 72
    65
 73
     4
 40
53.0
 49
50.0
 49
-1.125
 49
0.75
 49
-1.125
  0
LTYPE
  2
JIS_09_08
 70
     0
  3
2SASEN8 __ _ _ __ _ _ __ _ _ __ _ _ __ _ _ 
 72
    65
 73
     6
 40
10.75
 49
8.0
 49
-0.55
 49
0.55
 49
-0.55
 49
0.55
 49
-0.55
  0
LTYPE
  2
JIS_09_15
 70
     0
  3
2SASEN15 ___ _ _ ___ _ _ ___ _ _ ___ _ _ ___ 
 72
    65
 73
     6
 40
18.9
 49
15.0
 49
-0.9
 49
0.6
 49
-0.9
 49
0.6
 49
-0.9
  0
LTYPE
  2
JIS_09_29
 70
     0
  3
2SASEN29 ______　__  __  ______　__  __  ___
 72
    65
 73
     6
 40
34.0
 49
29.0
 49
-1.2
 49
0.7
 49
-1.2
 49
0.7
 49
-1.2
  0
LTYPE
  2
JIS_09_50
 70
     0
  3
2SASEN50 ____________　__  __  _____________
 72
    65
 73
     6
 40
55.0
 49
50.0
 49
-1.2
 49
0.7
 49
-1.2
 49
0.7
 49
-1.2
  0
LTYPE
  2
SXF_破線
 70
     0
  3
02 dashed -- -- -- -- -- --
 72
    65
 73
     2
 40
7.5
 49
6.0
 49
-1.5
  0
LTYPE
  2
SXF_跳び破線
 70
     0
  3
03 dashed_spaced --  --  --  --
 72
    65
 73
     2
 40
12.0
 49
6.0
 49
-6.0
  0
LTYPE
  2
SXF_一点長鎖線
 70
     0
  3
04 long_dashed_dotted ---- . ---- . ----
 72
    65
 73
     4
 40
15.25
 49
12.0
 49
-1.5
 49
0.25
 49
-1.5
  0
LTYPE
  2
SXF_二点長鎖線
 70
     0
  3
05 long_dashed_double-dotted ---- . . ---- 
 72
    65
 73
     6
 40
17.0
 49
12.0
 49
-1.5
 49
0.25
 49
-1.5
 49
0.25
 49
-1.5
  0
LTYPE
  2
SXF_三点長鎖線
 70
     0
  3
06 long_dashed_triplicate-dotted ---- ... ---- 
 72
    65
 73
     8
 40
18.75
 49
12.0
 49
-1.5
 49
0.25
 49
-1.5
 49
0.25
 49
-1.5
 49
0.25
 49
-1.5
  0
LTYPE
  2
SXF_点線
 70
     0
  3
07 dotted . . . . . . . . . . . . 
 72
    65
 73
     2
 40
1.75
 49
0.25
 49
-1.5
  0
LTYPE
  2
SXF_一点鎖線
 70
     0
  3
08 chain ---- - --- - --- - ---
 72
    65
 73
     4
 40
18.5
 49
12.0
 49
-1.5
 49
3.5
 49
-1.5
  0
LTYPE
  2
SXF_二点鎖線
 70
     0
  3
09 chain_double_dash ---- - - ---- - - ----
 72
    65
 73
     6
 40
23.5
 49
12.0
 49
-1.5
 49
3.5
 49
-1.5
 49
3.5
 49
-1.5
  0
LTYPE
  2
SXF_一点短鎖線
 70
     0
  3
10 dashed_dotted -- . -- . -- . --
 72
    65
 73
     4
 40
9.25
 49
6.0
 49
-1.5
 49
0.25
 49
-1.5
  0
LTYPE
  2
SXF_一点二短鎖線
 70
     0
  3
11 double-dashed_dotted -- -- . -- --
 72
    65
 73
     6
 40
16.75
 49
6.0
 49
-1.5
 49
6.0
 49
-1.5
 49
0.25
 49
-1.5
  0
LTYPE
  2
SXF_二点短鎖線
 70
     0
  3
12 dashed_double_dotted -- . . -- . . --
 72
    65
 73
     6
 40
11.0
 49
6.0
 49
-1.5
 49
0.25
 49
-1.5
 49
0.25
 49
-1.5
  0
LTYPE
  2
SXF_二点二短鎖線
 70
     0
  3
13 double-dashed_double-dotted -- -- . . -- --
 72
    65
 73
     8
 40
18.5
 49
6.0
 49
-1.5
 49
6.0
 49
-1.5
 49
0.25
 49
-1.5
 49
0.25
 49
-1.5
  0
LTYPE
  2
SXF_三点短鎖線
 70
     0
  3
14 dashed triplicate-dotted -- . . . -- . . . --
 72
    65
 73
     8
 40
12.75
 49
6.0
 49
-1.5
 49
0.25
 49
-1.5
 49
0.25
 49
-1.5
 49
0.25
 49
-1.5
  0
LTYPE
  2
SXF_三点二短鎖線
 70
     0
  3
15 double-dashed triplicate-dotted -- -- . . . -- -- 
 72
    65
 73
    10
 40
20.25
 49
6.0
 49
-1.5
 49
6.0
 49
-1.5
 49
0.25
 49
-1.5
 49
0.25
 49
-1.5
 49
0.25
 49
-1.5
  0
ENDTAB
  0
TABLE
  2
LAYER
 70
     7
  0
LAYER
  2
0
 70
     0
 62
     7
  6
CONTINUOUS
  0
LAYER
  2
LAYER0001
 70
     0
 62
     7
  6
CONTINUOUS
  0
LAYER
  2
LAYER0002
 70
     0
 62
     7
  6
CONTINUOUS
  0
LAYER
  2
LAYER0004
 70
     0
 62
     7
  6
CONTINUOUS
  0
LAYER
  2
LAYER0005
 70
     0
 62
     7
  6
CONTINUOUS
  0
LAYER
  2
LAYER0006
 70
     0
 62
     7
  6
CONTINUOUS
  0
LAYER
  2
ZUWAKU
 70
     0
 62
     7
  6
CONTINUOUS
  0
ENDTAB
  0
TABLE
  2
STYLE
 70
     4
  0
STYLE
  2
STANDARD
 70
     0
 40
0.0
 41
1.0
 50
0.0
 71
     0
 42
0.2
  3
txt.shx
  4
bigfont.shx
  0
STYLE
  2
DCSTYLE1
 70
     0
 40
0.0
 41
0.8
 50
0.0
 71
     0
 42
0.2
  3
HG創英角ｺﾞｼｯｸUB
  4

  0
STYLE
  2
DCSTYLE0
 70
     0
 40
0.0
 41
0.7
 50
0.0
 71
     0
 42
0.2
  3
txt.shx
  4
bigfont
  0
STYLE
  2
DCSTYLE2
 70
     0
 40
0.0
 41
0.947867298578199
 50
0.0
 71
     0
 42
0.2
  3
ＭＳ Ｐゴシック
  4

  0
ENDTAB
  0
TABLE
  2
VIEW
 70
     0
  0
ENDTAB
  0
TABLE
  2
UCS
 70
     0
  0
ENDTAB
  0
TABLE
  2
APPID
 70
     2
  0
APPID
  2
ACAD
 70
     0
  0
APPID
  2
DAFUSIONOUT
 70
     0
  0
ENDTAB
  0
TABLE
  2
DIMSTYLE
 70
     3
  0
DIMSTYLE
  2
STANDARD
 70
     0
  3

  4

  5

  6

  7

 40
1.0
 41
0.18
 42
0.0625
 43
0.38
 44
0.18
 45
0.0
 46
0.0
 47
0.0
 48
0.0
140
0.18
141
0.09
142
0.0
143
25.4
144
1.0
145
0.0
146
1.0
147
0.09
 71
     0
 72
     0
 73
     1
 74
     1
 75
     0
 76
     0
 77
     0
 78
     0
170
     0
171
     2
172
     0
173
     0
174
     0
175
     0
176
     0
177
     0
178
     0
  0
DIMSTYLE
  2
DC_ROTATED
 70
     0
  3

  4

  5

  6
OPEN30
  7
OPEN30
 40
1.0
 41
45.00002861022949
 42
15.0
 43
0.38
 44
15.0
 45
0.0
 46
0.0
 47
0.0
 48
0.0
140
75.0
141
0.09
142
0.0
143
25.4
144
1.0
145
0.0
146
1.0
147
15.0
 71
     0
 72
     0
 73
     0
 74
     0
 75
     0
 76
     0
 77
     3
 78
     8
170
     0
171
     2
172
     1
173
     1
174
     1
175
     0
176
     4
177
     4
178
     2
  0
DIMSTYLE
  2
DC_ROTATED_F1
 70
     0
  3

  4

  5

  6
OPEN30
  7
OPEN30
 40
1.0
 41
45.00002861022949
 42
15.0
 43
0.38
 44
0.0
 45
0.0
 46
0.0
 47
0.0
 48
0.0
140
75.0
141
0.09
142
0.0
143
25.4
144
1.0
145
0.0
146
1.0
147
15.00000000000017
 71
     0
 72
     0
 73
     0
 74
     0
 75
     1
 76
     1
 77
     3
 78
     8
170
     0
171
     2
172
     1
173
     1
174
     0
175
     0
176
     4
177
     7
178
     2
  0
ENDTAB
  0
ENDSEC
  0
SECTION
  2
BLOCKS
  0
BLOCK
  8
0
  2
$MODEL_SPACE
 70
     0
 10
0.0
 20
0.0
 30
0.0
  3
$MODEL_SPACE
  1

  0
ENDBLK
  5
21
  8
0
  0
BLOCK
 67
     1
  8
0
  2
$PAPER_SPACE
 70
     0
 10
0.0
 20
0.0
 30
0.0
  3
$PAPER_SPACE
  1

  0
ENDBLK
  5
1D
 67
     1
  8
0
  0
BLOCK
  8
0
  2
*D1
 70
     1
 10
0.0
 20
0.0
 30
0.0
  3
*D1
  1

  0
LINE
  5
147
  8
LAYER0001
  6
CONTINUOUS
 62
     4
 10
-2030.608781187012
 20
-786.5241751425453
 30
0.0
 11
-2183.198547308412
 21
-786.5241751425453
 31
0.0
  0
LINE
  5
148
  8
LAYER0001
  6
CONTINUOUS
 62
     4
 10
-1904.581891907545
 20
-307.5241751425453
 30
0.0
 11
-2183.198547308412
 21
-307.5241751425453
 31
0.0
  0
LINE
  5
149
  8
LAYER0001
  6
CONTINUOUS
 62
     4
 10
-2168.198547308412
 20
-307.5241751425453
 30
0.0
 11
-2168.198547308412
 21
-786.5241751425453
 31
0.0
  0
INSERT
  5
150
  8
LAYER0001
 62
     4
  2
_OPEN30
 10
-2168.198547308412
 20
-307.5241751425453
 30
0.0
 41
45.00004211422929
 42
44.99984052335464
 50
90.0
  0
INSERT
  5
151
  8
LAYER0001
 62
     4
  2
_OPEN30
 10
-2168.198547308412
 20
-786.5241751425453
 30
0.0
 41
45.00004211422929
 42
44.99984052335464
 50
270.0
  0
TEXT
  5
153
  8
LAYER0001
 62
     2
 10
-2183.198547308412
 20
-615.3241751425453
 30
0.0
 40
75.0
  1
479
 50
90.0
 41
1.230769230769231
  7
DCSTYLE1
 72
     5
 11
-2183.198547308412
 21
-435.3241751425453
 31
0.0
  0
ENDBLK
  5
B6
  8
0
  0
BLOCK
  8
0
  2
*D2
 70
     1
 10
0.0
 20
0.0
 30
0.0
  3
*D2
  1

  0
LINE
  5
154
  8
LAYER0001
  6
CONTINUOUS
 62
     4
 10
509.2181080924878
 20
-786.5241751425453
 30
0.0
 11
509.2181080924878
 21
-307.5241751425453
 31
0.0
  0
INSERT
  5
155
  8
LAYER0001
 62
     4
  2
_OPEN30
 10
509.2181080924878
 20
-786.5241751425453
 30
0.0
 41
45.00004211422929
 42
44.99984052335464
 50
270.0
  0
INSERT
  5
156
  8
LAYER0001
 62
     4
  2
_OPEN30
 10
509.2181080924878
 20
-307.5241751425453
 30
0.0
 41
45.00004211422929
 42
44.99984052335464
 50
90.0
  0
LINE
  5
157
  8
LAYER0001
  6
CONTINUOUS
 62
     4
 10
371.6181080924551
 20
-986.5241751425458
 30
0.0
 11
524.2181080924878
 21
-986.5241751425458
 31
0.0
  0
LINE
  5
158
  8
LAYER0001
  6
CONTINUOUS
 62
     4
 10
424.9445363013854
 20
-786.5241751425453
 30
0.0
 11
524.2181080924878
 21
-786.5241751425453
 31
0.0
  0
LINE
  5
159
  8
LAYER0001
  6
CONTINUOUS
 62
     4
 10
424.9445363013854
 20
-786.5241751425453
 30
0.0
 11
524.2181080924878
 21
-786.5241751425453
 31
0.0
  0
LINE
  5
15A
  8
LAYER0001
  6
CONTINUOUS
 62
     4
 10
373.0181080924553
 20
-307.5241751425453
 30
0.0
 11
524.2181080924878
 21
-307.5241751425453
 31
0.0
  0
LINE
  5
15B
  8
LAYER0001
  6
CONTINUOUS
 62
     4
 10
509.2181080924877
 20
-1101.524175142546
 30
0.0
 11
509.2181080924878
 21
-986.5241751425458
 31
0.0
  0
INSERT
  5
15C
  8
LAYER0001
 62
     4
  2
_OPEN30
 10
509.2181080924878
 20
-986.5241751425458
 30
0.0
 41
45.00004211422929
 42
44.99984052335464
 50
89.99999999999994
  0
TEXT
  5
15D
  8
LAYER0001
 62
     2
 10
494.2181080924878
 20
-637.0241751425453
 30
0.0
 40
75.0
  1
479
 50
90.0
 41
1.230769230769231
  7
DCSTYLE1
 72
     5
 11
494.2181080924878
 21
-457.0241751425453
 31
0.0
  0
ENDBLK
  5
B9
  8
0
  0
BLOCK
  8
0
  2
*D3
 70
     1
 10
0.0
 20
0.0
 30
0.0
  3
*D3
  1

  0
LINE
  5
15E
  8
LAYER0001
  6
CONTINUOUS
 62
     4
 10
-1888.181891907544
 20
1562.283971805095
 30
0.0
 11
356.6181080924554
 21
1562.283971805095
 31
0.0
  0
INSERT
  5
15F
  8
LAYER0001
 62
     4
  2
_OPEN30
 10
-1888.181891907544
 20
1562.283971805095
 30
0.0
 41
45.00004211422929
 42
44.99984052335464
 50
180.0
  0
INSERT
  5
160
  8
LAYER0001
 62
     4
  2
_OPEN30
 10
356.6181080924554
 20
1562.283971805095
 30
0.0
 41
45.00004211422929
 42
44.99984052335464
 50
360.0
  0
LINE
  5
161
  8
LAYER0001
  6
CONTINUOUS
 62
     4
 10
-1888.181891907544
 20
1325.172134172042
 30
0.0
 11
-1888.181891907544
 21
1577.283971805095
 31
0.0
  0
LINE
  5
162
  8
LAYER0001
  6
CONTINUOUS
 62
     4
 10
356.6181080924554
 20
1325.172134172041
 30
0.0
 11
356.6181080924554
 21
1577.283971805095
 31
0.0
  0
TEXT
  5
163
  8
LAYER0001
 62
     2
 10
-885.7818919075444
 20
1577.283971805095
 30
0.0
 40
75.0
  1
2245
 41
1.230769230769231
  7
DCSTYLE1
 72
     5
 11
-645.7818919075444
 21
1577.283971805095
 31
0.0
  0
ENDBLK
  5
BC
  8
0
  0
BLOCK
  8
0
  2
*D4
 70
     1
 10
0.0
 20
0.0
 30
0.0
  3
*D4
  1

  0
LINE
  5
164
  8
LAYER0001
  6
CONTINUOUS
 62
     4
 10
596.9518553319077
 20
48.27213417204133
 30
0.0
 11
596.9518553319077
 21
1313.072134172041
 31
0.0
  0
INSERT
  5
165
  8
LAYER0001
 62
     4
  2
_OPEN30
 10
596.9518553319077
 20
48.27213417204133
 30
0.0
 41
45.00004211422929
 42
44.99984052335464
 50
270.0
  0
INSERT
  5
166
  8
LAYER0001
 62
     4
  2
_OPEN30
 10
596.9518553319077
 20
1313.072134172041
 30
0.0
 41
45.00004211422929
 42
44.99984052335464
 50
90.0
  0
LINE
  5
167
  8
LAYER0001
  6
CONTINUOUS
 62
     4
 10
368.7181080924554
 20
48.27213417204133
 30
0.0
 11
611.9518553319078
 21
48.27213417204133
 31
0.0
  0
LINE
  5
168
  8
LAYER0001
  6
CONTINUOUS
 62
     4
 10
368.7181080924554
 20
1313.072134172041
 30
0.0
 11
611.9518553319078
 21
1313.072134172041
 31
0.0
  0
TEXT
  5
169
  8
LAYER0001
 62
     2
 10
581.9518553319077
 20
560.6721341720414
 30
0.0
 40
75.0
  1
1265
 50
90.0
 41
1.230769230769231
  7
DCSTYLE1
 72
     5
 11
581.9518553319077
 21
800.6721341720414
 31
0.0
  0
ENDBLK
  5
BF
  8
0
  0
BLOCK
  8
0
  2
*D5
 70
     1
 10
0.0
 20
0.0
 30
0.0
  3
*D5
  1

  0
LINE
  5
16A
  8
LAYER0001
  6
CONTINUOUS
 62
     4
 10
373.0181080924553
 20
-307.5241751425453
 30
0.0
 11
674.2181080924877
 21
-307.5241751425453
 31
0.0
  0
LINE
  5
16B
  8
LAYER0001
  6
CONTINUOUS
 62
     4
 10
371.6181080924551
 20
-986.5241751425458
 30
0.0
 11
674.2181080924877
 21
-986.5241751425458
 31
0.0
  0
LINE
  5
16C
  8
LAYER0001
  6
CONTINUOUS
 62
     4
 10
659.2181080924877
 20
-307.5241751425453
 30
0.0
 11
659.2181080924877
 21
-986.5241751425458
 31
0.0
  0
INSERT
  5
16D
  8
LAYER0001
 62
     4
  2
_OPEN30
 10
659.2181080924877
 20
-307.5241751425453
 30
0.0
 41
45.00004211422929
 42
44.99984052335464
 50
90.0
  0
INSERT
  5
16E
  8
LAYER0001
 62
     4
  2
_OPEN30
 10
659.2181080924877
 20
-986.5241751425458
 30
0.0
 41
45.00004211422929
 42
44.99984052335464
 50
270.0
  0
TEXT
  5
16F
  8
LAYER0001
 62
     2
 10
644.2181080924877
 20
-737.0241751425456
 30
0.0
 40
75.0
  1
679
 50
90.0
 41
1.230769230769231
  7
DCSTYLE1
 72
     5
 11
644.2181080924877
 21
-557.0241751425456
 31
0.0
  0
ENDBLK
  5
C2
  8
0
  0
BLOCK
  8
0
  2
DC_HIDE_GROUP_1
 70
     0
 10
0.0
 20
0.0
 30
0.0
  3
DC_HIDE_GROUP_1
  1

  0
LINE
  5
170
  8
0
  6
CONTINUOUS
 62
     3
 10
-1844.081891907544
 20
48.27213417204194
 30
0.0
 11
-1885.281891907545
 21
48.27213417204194
 31
0.0
  0
LINE
  5
171
  8
0
  6
CONTINUOUS
 62
     3
 10
-1841.181891907545
 20
51.17213417204195
 30
0.0
 11
-1841.181891907545
 21
70.57213417204196
 31
0.0
  0
LINE
  5
172
  8
0
  6
CONTINUOUS
 62
     3
 10
-1844.081891907544
 20
49.47213417204193
 30
0.0
 11
-1885.281891907545
 21
49.47213417204193
 31
0.0
  0
LINE
  5
173
  8
0
  6
CONTINUOUS
 62
     3
 10
-1842.381891907545
 20
70.57213417204196
 30
0.0
 11
-1842.381891907545
 21
51.17213417204195
 31
0.0
  0
ARC
  5
174
  8
0
  6
CONTINUOUS
 62
     3
 10
-1844.081891907544
 20
51.17213417204195
 30
0.0
 40
2.899999999999999
 50
270.0
 51
0.0
  0
ARC
  5
175
  8
0
  6
CONTINUOUS
 62
     3
 10
-1885.281891907545
 20
51.17213417204195
 30
0.0
 40
2.899999999999999
 50
180.0
 51
270.0
  0
ARC
  5
176
  8
0
  6
CONTINUOUS
 62
     3
 10
-1885.281891907545
 20
51.17213417204195
 30
0.0
 40
1.7
 50
180.0
 51
270.0
  0
ARC
  5
177
  8
0
  6
CONTINUOUS
 62
     3
 10
-1844.081891907544
 20
51.17213417204195
 30
0.0
 40
1.7
 50
270.0
 51
0.0
  0
LINE
  5
178
  8
0
  6
CONTINUOUS
 62
     3
 10
-1839.481891907544
 20
72.27213417204194
 30
0.0
 11
-1830.181891907544
 21
72.27213417204194
 31
0.0
  0
LINE
  5
179
  8
0
  6
CONTINUOUS
 62
     3
 10
-1830.181891907544
 20
73.47213417204193
 30
0.0
 11
-1830.181891907544
 21
72.27213417204194
 31
0.0
  0
LINE
  5
17A
  8
0
  6
CONTINUOUS
 62
     3
 10
-1839.481891907544
 20
73.47213417204193
 30
0.0
 11
-1830.181891907544
 21
73.47213417204193
 31
0.0
  0
ARC
  5
17B
  8
0
  6
CONTINUOUS
 62
     3
 10
-1839.481891907544
 20
70.57213417204196
 30
0.0
 40
2.899999999999999
 50
90.0
 51
180.0
  0
ARC
  5
17C
  8
0
  6
CONTINUOUS
 62
     3
 10
-1839.481891907544
 20
70.57213417204196
 30
0.0
 40
1.7
 50
90.0
 51
180.0
  0
LINE
  5
17D
  8
0
  6
CONTINUOUS
 62
     3
 10
-1888.181891907544
 20
1310.172134172042
 30
0.0
 11
-1888.181891907544
 21
51.17213417204192
 31
0.0
  0
LINE
  5
17E
  8
0
  6
CONTINUOUS
 62
     3
 10
-1868.181891907544
 20
1308.072134172042
 30
0.0
 11
-1868.181891907544
 21
53.27213417204186
 31
0.0
  0
LINE
  5
17F
  8
0
  6
CONTINUOUS
 62
     3
 10
-1868.181891907544
 20
53.27213417204186
 30
0.0
 11
-1888.181891907544
 21
53.27213417204186
 31
0.0
  0
LINE
  5
180
  8
0
  6
CONTINUOUS
 62
     3
 10
-1886.981891907544
 20
53.27213417204186
 30
0.0
 11
-1886.981891907544
 21
51.17213417204195
 31
0.0
  0
LINE
  5
181
  8
0
  6
CONTINUOUS
 62
     3
 10
-1844.081891907544
 20
1313.072134172042
 30
0.0
 11
-1885.281891907545
 21
1313.072134172042
 31
0.0
  0
LINE
  5
182
  8
0
  6
CONTINUOUS
 62
     3
 10
-1841.181891907545
 20
1310.172134172042
 30
0.0
 11
-1841.181891907545
 21
1290.772134172042
 31
0.0
  0
LINE
  5
183
  8
0
  6
CONTINUOUS
 62
     3
 10
-1844.081891907544
 20
1311.872134172042
 30
0.0
 11
-1885.281891907545
 21
1311.872134172042
 31
0.0
  0
LINE
  5
184
  8
0
  6
CONTINUOUS
 62
     3
 10
-1842.381891907545
 20
1290.772134172042
 30
0.0
 11
-1842.381891907545
 21
1310.172134172042
 31
0.0
  0
ARC
  5
185
  8
0
  6
CONTINUOUS
 62
     3
 10
-1844.081891907544
 20
1310.172134172042
 30
0.0
 40
2.899999999999999
 50
0.0
 51
90.0
  0
ARC
  5
186
  8
0
  6
CONTINUOUS
 62
     3
 10
-1885.281891907545
 20
1310.172134172042
 30
0.0
 40
2.899999999999999
 50
90.0
 51
180.0
  0
ARC
  5
187
  8
0
  6
CONTINUOUS
 62
     3
 10
-1885.281891907545
 20
1310.172134172042
 30
0.0
 40
1.7
 50
90.0
 51
180.0
  0
ARC
  5
188
  8
0
  6
CONTINUOUS
 62
     3
 10
-1844.081891907544
 20
1310.172134172042
 30
0.0
 40
1.7
 50
0.0
 51
90.0
  0
LINE
  5
189
  8
0
  6
CONTINUOUS
 62
     3
 10
-1839.481891907544
 20
1289.072134172042
 30
0.0
 11
-1830.181891907544
 21
1289.072134172042
 31
0.0
  0
LINE
  5
18A
  8
0
  6
CONTINUOUS
 62
     3
 10
-1830.181891907544
 20
1287.872134172042
 30
0.0
 11
-1830.181891907544
 21
1289.072134172042
 31
0.0
  0
LINE
  5
18B
  8
0
  6
CONTINUOUS
 62
     3
 10
-1839.481891907544
 20
1287.872134172042
 30
0.0
 11
-1830.181891907544
 21
1287.872134172042
 31
0.0
  0
ARC
  5
18C
  8
0
  6
CONTINUOUS
 62
     3
 10
-1839.481891907544
 20
1290.772134172042
 30
0.0
 40
2.899999999999999
 50
180.0
 51
270.0
  0
ARC
  5
18D
  8
0
  6
CONTINUOUS
 62
     3
 10
-1839.481891907544
 20
1290.772134172042
 30
0.0
 40
1.7
 50
180.0
 51
270.0
  0
LINE
  5
18E
  8
0
  6
CONTINUOUS
 62
     3
 10
-1868.181891907544
 20
1308.072134172042
 30
0.0
 11
-1888.181891907544
 21
1308.072134172042
 31
0.0
  0
LINE
  5
18F
  8
0
  6
CONTINUOUS
 62
     3
 10
-1886.981891907544
 20
1308.072134172042
 30
0.0
 11
-1886.981891907544
 21
1310.172134172042
 31
0.0
  0
ENDBLK
  5
C5
  8
0
  0
BLOCK
  8
0
  2
DC_HIDE_GROUP_2
 70
     0
 10
0.0
 20
0.0
 30
0.0
  3
DC_HIDE_GROUP_2
  1

  0
LINE
  5
190
  8
0
  6
CONTINUOUS
 62
     3
 10
-1871.281891907544
 20
-307.5241751425453
 30
0.0
 11
-1885.081891907544
 21
-307.5241751425453
 31
0.0
  0
LINE
  5
191
  8
0
  6
CONTINUOUS
 62
     3
 10
-1888.181891907544
 20
-310.6241751425452
 30
0.0
 11
-1888.181891907544
 21
-986.5241751425456
 31
0.0
  0
LINE
  5
192
  8
0
  6
CONTINUOUS
 62
     3
 10
-1835.181891907544
 20
-308.7241751425451
 30
0.0
 11
-1887.531381650327
 21
-308.7241751425451
 31
0.0
  0
LINE
  5
193
  8
0
  6
CONTINUOUS
 62
     3
 10
-1888.181891907544
 20
-986.5241751425456
 30
0.0
 11
-1835.181891907544
 21
-986.5241751425456
 31
0.0
  0
ARC
  5
194
  8
0
  6
CONTINUOUS
 62
     3
 10
-1885.081891907544
 20
-310.6241751425452
 30
0.0
 40
3.1
 50
90.0
 51
180.0
  0
ARC
  5
195
  8
0
  6
CONTINUOUS
 62
     3
 10
-1871.281891907544
 20
-310.6241751425452
 30
0.0
 40
3.1
 50
37.79972243542936
 51
90.0
  0
LINE
  5
196
  8
0
  6
CONTINUOUS
 62
     3
 10
-1841.181891907545
 20
-308.7241751425451
 30
0.0
 11
-1841.181891907545
 21
-986.5241751425451
 31
0.0
  0
LINE
  5
197
  8
0
  6
CONTINUOUS
 62
     3
 10
-1830.181891907544
 20
-981.5241751425456
 30
0.0
 11
-1830.181891907544
 21
-881.5241751425458
 31
0.0
  0
LINE
  5
198
  8
0
  6
CONTINUOUS
 62
     3
 10
-1830.181891907544
 20
-981.5241751425456
 30
0.0
 11
-1835.181891907544
 21
-986.5241751425456
 31
0.0
  0
ENDBLK
  5
C8
  8
0
  0
BLOCK
  8
0
  2
DC_HIDE_GROUP_3
 70
     0
 10
0.0
 20
0.0
 30
0.0
  3
DC_HIDE_GROUP_3
  1

  0
LINE
  5
199
  8
LAYER0002
  6
CONTINUOUS
 62
     3
 10
303.7181080924553
 20
48.27213417204194
 30
0.0
 11
-1835.281891907545
 21
48.2721341720422
 31
0.0
  0
LINE
  5
19A
  8
LAYER0002
  6
CONTINUOUS
 62
     3
 10
303.6181080924551
 20
68.27213417204194
 30
0.0
 11
-1835.181891907544
 21
68.27213417204172
 31
0.0
  0
LINE
  5
19B
  8
LAYER0002
  6
CONTINUOUS
 62
     3
 10
303.6181080924551
 20
68.27213417204194
 30
0.0
 11
303.6181080924551
 21
48.27213417204194
 31
0.0
  0
LINE
  5
19C
  8
LAYER0002
  6
CONTINUOUS
 62
     3
 10
303.6181080924551
 20
49.47213417204176
 30
0.0
 11
303.7181080924553
 21
49.47213417204176
 31
0.0
  0
LINE
  5
19D
  8
LAYER0002
  6
CONTINUOUS
 62
     3
 10
305.4181080924552
 20
51.17213417204198
 30
0.0
 11
305.4181080924552
 21
69.37213417204194
 31
0.0
  0
LINE
  5
19E
  8
LAYER0002
  6
CONTINUOUS
 62
     3
 10
306.6181080924553
 20
69.37213417204194
 30
0.0
 11
306.6181080924553
 21
51.17213417204195
 31
0.0
  0
LINE
  5
19F
  8
LAYER0002
  6
CONTINUOUS
 62
     3
 10
303.7181080924553
 20
72.27213417204194
 30
0.0
 11
298.6181080924553
 21
72.27213417204194
 31
0.0
  0
LINE
  5
1A0
  8
LAYER0002
  6
CONTINUOUS
 62
     3
 10
303.7181080924552
 20
71.07213417204196
 30
0.0
 11
298.6181080924553
 21
71.07213417204196
 31
0.0
  0
LINE
  5
1A1
  8
LAYER0002
  6
CONTINUOUS
 62
     3
 10
298.6181080924553
 20
72.27213417204194
 30
0.0
 11
298.6181080924553
 21
71.07213417204196
 31
0.0
  0
ARC
  5
1A2
  8
LAYER0002
  6
CONTINUOUS
 62
     3
 10
303.7181080924553
 20
51.17213417204198
 30
0.0
 40
1.7
 50
270.0
 51
0.0
  0
ARC
  5
1A3
  8
LAYER0002
  6
CONTINUOUS
 62
     3
 10
303.7181080924552
 20
69.37213417204194
 30
0.0
 40
1.7
 50
0.0
 51
90.0
  0
ARC
  5
1A4
  8
LAYER0002
  6
CONTINUOUS
 62
     3
 10
303.7181080924553
 20
51.17213417204195
 30
0.0
 40
2.899999999999999
 50
270.0
 51
0.0
  0
ARC
  5
1A5
  8
LAYER0002
  6
CONTINUOUS
 62
     3
 10
303.7181080924553
 20
69.37213417204194
 30
0.0
 40
2.899999999999999
 50
0.0
 51
90.0
  0
LINE
  5
1A6
  8
LAYER0002
  6
CONTINUOUS
 62
     3
 10
303.7181080924553
 20
49.47213417204199
 30
0.0
 11
303.6181080924553
 21
49.47213417204199
 31
0.0
  0
LINE
  5
1A7
  8
LAYER0002
  6
CONTINUOUS
 62
     3
 10
-1835.181891907544
 20
68.27213417204194
 30
0.0
 11
-1835.181891907544
 21
48.27213417204194
 31
0.0
  0
LINE
  5
1A8
  8
LAYER0002
  6
CONTINUOUS
 62
     3
 10
-1835.181891907544
 20
49.47213417204176
 30
0.0
 11
-1835.281891907545
 21
49.47213417204176
 31
0.0
  0
LINE
  5
1A9
  8
LAYER0002
  6
CONTINUOUS
 62
     3
 10
-1836.981891907544
 20
51.17213417204198
 30
0.0
 11
-1836.981891907544
 21
69.37213417204194
 31
0.0
  0
LINE
  5
1AA
  8
LAYER0002
  6
CONTINUOUS
 62
     3
 10
-1838.181891907544
 20
69.37213417204194
 30
0.0
 11
-1838.181891907544
 21
51.17213417204195
 31
0.0
  0
LINE
  5
1AB
  8
LAYER0002
  6
CONTINUOUS
 62
     3
 10
-1835.281891907545
 20
72.27213417204194
 30
0.0
 11
-1830.181891907544
 21
72.27213417204194
 31
0.0
  0
LINE
  5
1AC
  8
LAYER0002
  6
CONTINUOUS
 62
     3
 10
-1835.281891907545
 20
71.07213417204196
 30
0.0
 11
-1830.181891907544
 21
71.07213417204196
 31
0.0
  0
LINE
  5
1AD
  8
LAYER0002
  6
CONTINUOUS
 62
     3
 10
-1830.181891907544
 20
72.27213417204194
 30
0.0
 11
-1830.181891907544
 21
71.07213417204196
 31
0.0
  0
ARC
  5
1AE
  8
LAYER0002
  6
CONTINUOUS
 62
     3
 10
-1835.281891907545
 20
51.17213417204198
 30
0.0
 40
1.7
 50
180.0
 51
270.0
  0
ARC
  5
1AF
  8
LAYER0002
  6
CONTINUOUS
 62
     3
 10
-1835.281891907545
 20
69.37213417204194
 30
0.0
 40
1.7
 50
90.0
 51
180.0
  0
ARC
  5
1B0
  8
LAYER0002
  6
CONTINUOUS
 62
     3
 10
-1835.281891907545
 20
51.17213417204195
 30
0.0
 40
2.899999999999999
 50
180.0
 51
270.0
  0
ARC
  5
1B1
  8
LAYER0002
  6
CONTINUOUS
 62
     3
 10
-1835.281891907545
 20
69.37213417204194
 30
0.0
 40
2.899999999999999
 50
90.0
 51
180.0
  0
LINE
  5
1B2
  8
LAYER0002
  6
CONTINUOUS
 62
     3
 10
-1835.281891907545
 20
49.47213417204199
 30
0.0
 11
-1835.181891907544
 21
49.47213417204199
 31
0.0
  0
ENDBLK
  5
CB
  8
0
  0
BLOCK
  8
0
  2
DC_HIDE_GROUP_4
 70
     0
 10
0.0
 20
0.0
 30
0.0
  3
DC_HIDE_GROUP_4
  1

  0
LINE
  5
1B3
  8
LAYER0002
  6
CONTINUOUS
 62
     3
 10
303.6181080924551
 20
-307.5241751425453
 30
0.0
 11
-1835.181891907544
 21
-307.5241751425451
 31
0.0
  0
LINE
  5
1B4
  8
LAYER0002
  6
CONTINUOUS
 62
     3
 10
303.6181080924551
 20
-307.5241751425453
 30
0.0
 11
303.6181080924551
 21
-308.7241751425453
 31
0.0
  0
LINE
  5
1B5
  8
LAYER0002
  6
CONTINUOUS
 62
     3
 10
303.6181080924551
 20
-308.7241751425453
 30
0.0
 11
306.6181080924553
 21
-308.7241751425453
 31
0.0
  0
LINE
  5
1B6
  8
LAYER0002
  6
CONTINUOUS
 62
     3
 10
-1835.181891907544
 20
-307.5241751425453
 30
0.0
 11
-1835.181891907544
 21
-308.7241751425453
 31
0.0
  0
LINE
  5
1B7
  8
LAYER0002
  6
CONTINUOUS
 62
     3
 10
-1835.181891907544
 20
-308.7241751425453
 30
0.0
 11
-1838.181891907544
 21
-308.7241751425453
 31
0.0
  0
LINE
  5
1B8
  8
LAYER0002
  6
CONTINUOUS
 62
     3
 10
-1838.181891907544
 20
-308.7241751425453
 30
0.0
 11
-1838.181891907544
 21
-881.5241751425458
 31
0.0
  0
LINE
  5
1B9
  8
LAYER0002
  6
CONTINUOUS
 62
     3
 10
-1838.181891907544
 20
-881.5241751425458
 30
0.0
 11
-1813.181891907544
 21
-881.5241751425458
 31
0.0
  0
LINE
  5
1BA
  8
LAYER0002
  6
CONTINUOUS
 62
     3
 10
281.6181080924553
 20
-881.5241751425458
 30
0.0
 11
298.6181080924553
 21
-881.5241751425458
 31
0.0
  0
LINE
  5
1BB
  8
LAYER0002
  6
CONTINUOUS
 62
     3
 10
-1813.181891907544
 20
-886.5241751425458
 30
0.0
 11
281.6181080924553
 21
-886.5241751425458
 31
0.0
  0
LINE
  5
1BC
  8
LAYER0002
  6
CONTINUOUS
 62
     3
 10
281.6181080924553
 20
-881.5241751425458
 30
0.0
 11
281.6181080924553
 21
-886.5241751425458
 31
0.0
  0
LINE
  5
1BD
  8
LAYER0002
  6
CONTINUOUS
 62
     3
 10
-1813.181891907544
 20
-881.5241751425458
 30
0.0
 11
-1813.181891907544
 21
-886.5241751425458
 31
0.0
  0
ENDBLK
  5
CE
  8
0
  0
BLOCK
  8
0
  2
DC_HIDE_GROUP_5
 70
     0
 10
0.0
 20
0.0
 30
0.0
  3
DC_HIDE_GROUP_5
  1

  0
LINE
  5
1BE
  8
LAYER0002
  6
CONTINUOUS
 62
     3
 10
303.7181080924553
 20
1313.072134172042
 30
0.0
 11
-1835.281891907545
 21
1313.072134172041
 31
0.0
  0
LINE
  5
1BF
  8
LAYER0002
  6
CONTINUOUS
 62
     3
 10
303.6181080924551
 20
1293.072134172042
 30
0.0
 11
-1835.181891907544
 21
1293.072134172042
 31
0.0
  0
LINE
  5
1C0
  8
LAYER0002
  6
CONTINUOUS
 62
     3
 10
303.6181080924551
 20
1293.072134172042
 30
0.0
 11
303.6181080924551
 21
1313.072134172042
 31
0.0
  0
LINE
  5
1C1
  8
LAYER0002
  6
CONTINUOUS
 62
     3
 10
303.6181080924551
 20
1311.872134172042
 30
0.0
 11
303.7181080924553
 21
1311.872134172042
 31
0.0
  0
LINE
  5
1C2
  8
LAYER0002
  6
CONTINUOUS
 62
     3
 10
305.4181080924552
 20
1310.172134172042
 30
0.0
 11
305.4181080924552
 21
1291.972134172042
 31
0.0
  0
LINE
  5
1C3
  8
LAYER0002
  6
CONTINUOUS
 62
     3
 10
306.6181080924553
 20
1291.972134172042
 30
0.0
 11
306.6181080924553
 21
1310.172134172042
 31
0.0
  0
LINE
  5
1C4
  8
LAYER0002
  6
CONTINUOUS
 62
     3
 10
303.7181080924553
 20
1289.072134172042
 30
0.0
 11
298.6181080924553
 21
1289.072134172042
 31
0.0
  0
LINE
  5
1C5
  8
LAYER0002
  6
CONTINUOUS
 62
     3
 10
303.7181080924552
 20
1290.272134172042
 30
0.0
 11
298.6181080924553
 21
1290.272134172042
 31
0.0
  0
LINE
  5
1C6
  8
LAYER0002
  6
CONTINUOUS
 62
     3
 10
298.6181080924553
 20
1289.072134172042
 30
0.0
 11
298.6181080924553
 21
1290.272134172042
 31
0.0
  0
ARC
  5
1C7
  8
LAYER0002
  6
CONTINUOUS
 62
     3
 10
303.7181080924553
 20
1310.172134172042
 30
0.0
 40
1.7
 50
0.0
 51
90.0
  0
ARC
  5
1C8
  8
LAYER0002
  6
CONTINUOUS
 62
     3
 10
303.7181080924552
 20
1291.972134172042
 30
0.0
 40
1.7
 50
270.0
 51
0.0
  0
ARC
  5
1C9
  8
LAYER0002
  6
CONTINUOUS
 62
     3
 10
303.7181080924553
 20
1310.172134172042
 30
0.0
 40
2.899999999999999
 50
0.0
 51
90.0
  0
ARC
  5
1CA
  8
LAYER0002
  6
CONTINUOUS
 62
     3
 10
303.7181080924553
 20
1291.972134172042
 30
0.0
 40
2.899999999999999
 50
270.0
 51
0.0
  0
LINE
  5
1CB
  8
LAYER0002
  6
CONTINUOUS
 62
     3
 10
303.7181080924553
 20
1311.872134172042
 30
0.0
 11
303.6181080924553
 21
1311.872134172042
 31
0.0
  0
LINE
  5
1CC
  8
LAYER0002
  6
CONTINUOUS
 62
     3
 10
-1835.181891907544
 20
1293.072134172042
 30
0.0
 11
-1835.181891907544
 21
1313.072134172042
 31
0.0
  0
LINE
  5
1CD
  8
LAYER0002
  6
CONTINUOUS
 62
     3
 10
-1835.181891907544
 20
1311.872134172042
 30
0.0
 11
-1835.281891907545
 21
1311.872134172042
 31
0.0
  0
LINE
  5
1CE
  8
LAYER0002
  6
CONTINUOUS
 62
     3
 10
-1836.981891907544
 20
1310.172134172042
 30
0.0
 11
-1836.981891907544
 21
1291.972134172042
 31
0.0
  0
LINE
  5
1CF
  8
LAYER0002
  6
CONTINUOUS
 62
     3
 10
-1838.181891907544
 20
1291.972134172042
 30
0.0
 11
-1838.181891907544
 21
1310.172134172042
 31
0.0
  0
LINE
  5
1D0
  8
LAYER0002
  6
CONTINUOUS
 62
     3
 10
-1835.281891907545
 20
1289.072134172042
 30
0.0
 11
-1830.181891907544
 21
1289.072134172042
 31
0.0
  0
LINE
  5
1D1
  8
LAYER0002
  6
CONTINUOUS
 62
     3
 10
-1835.281891907545
 20
1290.272134172042
 30
0.0
 11
-1830.181891907544
 21
1290.272134172042
 31
0.0
  0
LINE
  5
1D2
  8
LAYER0002
  6
CONTINUOUS
 62
     3
 10
-1830.181891907544
 20
1289.072134172042
 30
0.0
 11
-1830.181891907544
 21
1290.272134172042
 31
0.0
  0
ARC
  5
1D3
  8
LAYER0002
  6
CONTINUOUS
 62
     3
 10
-1835.281891907545
 20
1310.172134172042
 30
0.0
 40
1.7
 50
90.0
 51
180.0
  0
ARC
  5
1D4
  8
LAYER0002
  6
CONTINUOUS
 62
     3
 10
-1835.281891907545
 20
1291.972134172042
 30
0.0
 40
1.7
 50
180.0
 51
270.0
  0
ARC
  5
1D5
  8
LAYER0002
  6
CONTINUOUS
 62
     3
 10
-1835.281891907545
 20
1310.172134172042
 30
0.0
 40
2.899999999999999
 50
90.0
 51
180.0
  0
ARC
  5
1D6
  8
LAYER0002
  6
CONTINUOUS
 62
     3
 10
-1835.281891907545
 20
1291.972134172042
 30
0.0
 40
2.899999999999999
 50
180.0
 51
270.0
  0
LINE
  5
1D7
  8
LAYER0002
  6
CONTINUOUS
 62
     3
 10
-1835.281891907545
 20
1311.872134172042
 30
0.0
 11
-1835.181891907544
 21
1311.872134172042
 31
0.0
  0
ENDBLK
  5
D1
  8
0
  0
BLOCK
  8
0
  2
DC_HIDE_GROUP_6
 70
     0
 10
0.0
 20
0.0
 30
0.0
  3
DC_HIDE_GROUP_6
  1

  0
LINE
  5
1D8
  8
LAYER0004
  6
CONTINUOUS
 62
     3
 10
306.6181080924553
 20
49.27213417204189
 30
0.0
 11
306.6181080924553
 21
71.27213417204189
 31
0.0
  0
LINE
  5
1D9
  8
LAYER0004
  6
CONTINUOUS
 62
     3
 10
309.6181080924553
 20
49.27213417204189
 30
0.0
 11
309.6181080924553
 21
70.57213417204139
 31
0.0
  0
LINE
  5
1DA
  8
LAYER0004
  6
CONTINUOUS
 62
     3
 10
306.6181080924553
 20
71.27213417204189
 30
0.0
 11
309.4673014309381
 21
71.27213417204189
 31
0.0
  0
LINE
  5
1DB
  8
LAYER0004
  6
CONTINUOUS
 62
     3
 10
309.6181080924553
 20
49.27213417204189
 30
0.0
 11
306.6181080924553
 21
49.27213417204189
 31
0.0
  0
ENDBLK
  5
D4
  8
0
  0
BLOCK
  8
0
  2
DC_HIDE_GROUP_7
 70
     0
 10
0.0
 20
0.0
 30
0.0
  3
DC_HIDE_GROUP_7
  1

  0
LINE
  5
1DC
  8
LAYER0004
  6
CONTINUOUS
 62
     3
 10
306.6181080924553
 20
1312.072134172042
 30
0.0
 11
306.6181080924553
 21
1290.072134172042
 31
0.0
  0
LINE
  5
1DD
  8
LAYER0004
  6
CONTINUOUS
 62
     3
 10
309.6181080924553
 20
1312.072134172042
 30
0.0
 11
309.6181080924553
 21
1290.772134172042
 31
0.0
  0
LINE
  5
1DE
  8
LAYER0004
  6
CONTINUOUS
 62
     3
 10
306.6181080924553
 20
1290.072134172042
 30
0.0
 11
309.4673014309384
 21
1290.072134172042
 31
0.0
  0
LINE
  5
1DF
  8
LAYER0004
  6
CONTINUOUS
 62
     3
 10
309.6181080924553
 20
1312.072134172042
 30
0.0
 11
306.6181080924553
 21
1312.072134172042
 31
0.0
  0
ENDBLK
  5
D7
  8
0
  0
BLOCK
  8
0
  2
DC_HIDE_GROUP_8
 70
     0
 10
0.0
 20
0.0
 30
0.0
  3
DC_HIDE_GROUP_8
  1

  0
LINE
  5
1E0
  8
LAYER0004
  6
CONTINUOUS
 62
     3
 10
-1838.181891907545
 20
49.27213417204189
 30
0.0
 11
-1838.181891907545
 21
71.27213417204189
 31
0.0
  0
LINE
  5
1E1
  8
LAYER0004
  6
CONTINUOUS
 62
     3
 10
-1841.181891907545
 20
49.27213417204189
 30
0.0
 11
-1841.181891907545
 21
71.27213417204189
 31
0.0
  0
LINE
  5
1E2
  8
LAYER0004
  6
CONTINUOUS
 62
     3
 10
-1838.181891907545
 20
71.27213417204189
 30
0.0
 11
-1841.181891907545
 21
71.27213417204189
 31
0.0
  0
LINE
  5
1E3
  8
LAYER0004
  6
CONTINUOUS
 62
     3
 10
-1841.181891907545
 20
49.27213417204189
 30
0.0
 11
-1838.181891907545
 21
49.27213417204189
 31
0.0
  0
ENDBLK
  5
DA
  8
0
  0
BLOCK
  8
0
  2
DC_HIDE_GROUP_9
 70
     0
 10
0.0
 20
0.0
 30
0.0
  3
DC_HIDE_GROUP_9
  1

  0
LINE
  5
1E4
  8
LAYER0004
  6
CONTINUOUS
 62
     3
 10
-1838.181891907545
 20
1312.072134172042
 30
0.0
 11
-1838.181891907545
 21
1290.072134172042
 31
0.0
  0
LINE
  5
1E5
  8
LAYER0004
  6
CONTINUOUS
 62
     3
 10
-1841.181891907545
 20
1312.072134172042
 30
0.0
 11
-1841.181891907545
 21
1290.072134172042
 31
0.0
  0
LINE
  5
1E6
  8
LAYER0004
  6
CONTINUOUS
 62
     3
 10
-1838.181891907545
 20
1290.072134172042
 30
0.0
 11
-1841.181891907545
 21
1290.072134172042
 31
0.0
  0
LINE
  5
1E7
  8
LAYER0004
  6
CONTINUOUS
 62
     3
 10
-1841.181891907545
 20
1312.072134172042
 30
0.0
 11
-1838.181891907545
 21
1312.072134172042
 31
0.0
  0
ENDBLK
  5
DD
  8
0
  0
BLOCK
  8
0
  2
DC_HIDE_GROUP_10
 70
     0
 10
0.0
 20
0.0
 30
0.0
  3
DC_HIDE_GROUP_10
  1

  0
LINE
  5
1E8
  8
LAYER0004
  6
CONTINUOUS
 62
     3
 10
306.6181080924553
 20
-308.7241751425451
 30
0.0
 11
309.6181080924553
 21
-308.7241751425451
 31
0.0
  0
ENDBLK
  5
E0
  8
0
  0
BLOCK
  8
0
  2
DC_HIDE_GROUP_11
 70
     0
 10
0.0
 20
0.0
 30
0.0
  3
DC_HIDE_GROUP_11
  1

  0
LINE
  5
1E9
  8
LAYER0004
  6
CONTINUOUS
 62
     3
 10
-1838.181891907545
 20
-308.7241751425451
 30
0.0
 11
-1838.181891907545
 21
-881.5241751425451
 31
0.0
  0
LINE
  5
1EA
  8
LAYER0004
  6
CONTINUOUS
 62
     3
 10
-1841.181891907545
 20
-308.7241751425451
 30
0.0
 11
-1841.181891907545
 21
-881.5241751425451
 31
0.0
  0
LINE
  5
1EB
  8
LAYER0004
  6
CONTINUOUS
 62
     3
 10
-1838.181891907545
 20
-881.5241751425451
 30
0.0
 11
-1841.181891907545
 21
-881.5241751425451
 31
0.0
  0
LINE
  5
1EC
  8
LAYER0004
  6
CONTINUOUS
 62
     3
 10
-1838.181891907545
 20
-308.7241751425451
 30
0.0
 11
-1841.181891907545
 21
-308.7241751425451
 31
0.0
  0
ENDBLK
  5
E3
  8
0
  0
BLOCK
  8
0
  2
DC_HIDE_GROUP_12
 70
     0
 10
0.0
 20
0.0
 30
0.0
  3
DC_HIDE_GROUP_12
  1

  0
ENDBLK
  5
E6
  8
0
  0
BLOCK
  8
0
  2
DC_HIDE_GROUP_13
 70
     0
 10
0.0
 20
0.0
 30
0.0
  3
DC_HIDE_GROUP_13
  1

  0
ENDBLK
  5
E9
  8
0
  0
BLOCK
  8
0
  2
DC_HIDE_GROUP_14
 70
     0
 10
0.0
 20
0.0
 30
0.0
  3
DC_HIDE_GROUP_14
  1

  0
LINE
  5
1ED
  8
LAYER0006
  6
CONTINUOUS
 62
     3
 10
372.2581080924551
 20
673.6721341720415
 30
0.0
 11
362.2581080924551
 21
673.6721341720415
 31
0.0
  0
LINE
  5
1EE
  8
LAYER0006
  6
CONTINUOUS
 62
     3
 10
372.2581080924551
 20
687.6721341720415
 30
0.0
 11
362.2581080924551
 21
687.6721341720415
 31
0.0
  0
LINE
  5
1EF
  8
LAYER0006
  6
CONTINUOUS
 62
     3
 10
372.2581080924551
 20
687.6721341720415
 30
0.0
 11
372.2581080924551
 21
673.6721341720415
 31
0.0
  0
LINE
  5
1F0
  8
LAYER0006
  6
CONTINUOUS
 62
     3
 10
362.2581080924546
 20
691.3633841720414
 30
0.0
 11
362.2581080924552
 21
669.9808841720417
 31
0.0
  0
LINE
  5
1F1
  8
LAYER0006
  6
CONTINUOUS
 62
     3
 10
362.2581080924546
 20
691.3633841720414
 30
0.0
 11
361.6181080924543
 21
691.3433841720414
 31
0.0
  0
LINE
  5
1F2
  8
LAYER0006
  6
CONTINUOUS
 62
     3
 10
362.2581080924552
 20
669.9808841720417
 30
0.0
 11
361.6181080924544
 21
670.0008841720417
 31
0.0
  0
ENDBLK
  5
EC
  8
0
  0
BLOCK
  8
0
  2
DC_HIDE_GROUP_15
 70
     0
 10
0.0
 20
0.0
 30
0.0
  3
DC_HIDE_GROUP_15
  1

  0
LINE
  5
1F3
  8
LAYER0006
  6
CONTINUOUS
 62
     3
 10
372.2581080924551
 20
-779.5241751425456
 30
0.0
 11
362.2581080924551
 21
-779.5241751425456
 31
0.0
  0
LINE
  5
1F4
  8
LAYER0006
  6
CONTINUOUS
 62
     3
 10
372.2581080924551
 20
-765.5241751425456
 30
0.0
 11
362.2581080924551
 21
-765.5241751425456
 31
0.0
  0
LINE
  5
1F5
  8
LAYER0006
  6
CONTINUOUS
 62
     3
 10
372.2581080924551
 20
-765.5241751425456
 30
0.0
 11
372.2581080924551
 21
-779.5241751425456
 31
0.0
  0
LINE
  5
1F6
  8
LAYER0006
  6
CONTINUOUS
 62
     3
 10
362.2581080924546
 20
-761.8329251425457
 30
0.0
 11
362.2581080924552
 21
-783.2154251425454
 31
0.0
  0
LINE
  5
1F7
  8
LAYER0006
  6
CONTINUOUS
 62
     3
 10
362.2581080924546
 20
-761.8329251425457
 30
0.0
 11
361.6181080924542
 21
-761.8529251425457
 31
0.0
  0
LINE
  5
1F8
  8
LAYER0006
  6
CONTINUOUS
 62
     3
 10
362.2581080924552
 20
-783.2154251425454
 30
0.0
 11
361.6181080924542
 21
-783.1954251425454
 31
0.0
  0
ENDBLK
  5
EF
  8
0
  0
BLOCK
  8
0
  2
*D21
 70
     1
 10
0.0
 20
0.0
 30
0.0
  3
*D21
  1

  0
LINE
  5
1F9
  8
LAYER0001
  6
CONTINUOUS
 62
     4
 10
-1820.181891907544
 20
-986.5241751425456
 30
0.0
 11
-1640.999134345365
 21
-986.5241751425456
 31
0.0
  0
LINE
  5
1FA
  8
LAYER0001
  6
CONTINUOUS
 62
     4
 10
-1655.999134345365
 20
-886.5241751425458
 30
0.0
 11
-1655.999134345365
 21
-986.5241751425456
 31
0.0
  0
LINE
  5
1FB
  8
LAYER0001
  6
CONTINUOUS
 62
     4
 10
-1655.999134345365
 20
-1241.524175142546
 30
0.0
 11
-1655.999134345365
 21
-986.5241751425456
 31
0.0
  0
INSERT
  5
1FC
  8
LAYER0001
 62
     4
  2
_OPEN30
 10
-1655.999134345365
 20
-986.5241751425456
 30
0.0
 41
45.00004211422929
 42
44.99984052335464
 50
90.0
  0
LINE
  5
1FD
  8
LAYER0001
  6
CONTINUOUS
 62
     4
 10
-1655.999134345365
 20
-811.5241751425458
 30
0.0
 11
-1655.999134345365
 21
-886.5241751425458
 31
0.0
  0
INSERT
  5
1FE
  8
LAYER0001
 62
     4
  2
_OPEN30
 10
-1655.999134345365
 20
-886.5241751425458
 30
0.0
 41
45.00004211422929
 42
44.99984052335464
 50
270.0
  0
TEXT
  5
1FF
  8
LAYER0001
 62
     2
 10
-1670.999134345365
 20
-1226.524175142546
 30
0.0
 40
75.0
  1
100
 50
90.0
 41
1.230769230769231
  7
DCSTYLE1
 72
     5
 11
-1670.999134345365
 21
-1046.524175142546
 31
0.0
  0
ENDBLK
  5
F2
  8
0
  0
BLOCK
  8
0
  2
DC_HIDE_GROUP_16
 70
     0
 10
0.0
 20
0.0
 30
0.0
  3
DC_HIDE_GROUP_16
  1

  0
LINE
  5
200
  8
LAYER0004
  6
CONTINUOUS
 62
     3
 10
984.3268008057173
 20
53.27213417204189
 30
0.0
 11
984.3268008057173
 21
49.27213417204192
 31
0.0
  0
ENDBLK
  5
F5
  8
0
  0
BLOCK
  8
0
  2
DC_HIDE_GROUP_17
 70
     0
 10
0.0
 20
0.0
 30
0.0
  3
DC_HIDE_GROUP_17
  1

  0
LINE
  5
201
  8
LAYER0004
  6
CONTINUOUS
 62
     3
 10
984.3268008057173
 20
1308.072134172042
 30
0.0
 11
984.3268008057173
 21
1312.072134172042
 31
0.0
  0
ENDBLK
  5
F8
  8
0
  0
BLOCK
  8
0
  2
DA_IMAGEDIMGROUP_1
 70
     0
 10
0.0
 20
0.0
 30
0.0
  3
DA_IMAGEDIMGROUP_1
  1

  0
LINE
  5
202
  8
LAYER0001
  6
CONTINUOUS
 62
     4
 10
1462.126800805717
 20
-57.10769949012612
 30
0.0
 11
1462.126800805717
 21
-199.1659520204764
 31
0.0
  0
LINE
  5
203
  8
LAYER0001
  6
CONTINUOUS
 62
     4
 10
1448.126800805717
 20
636.4001312075079
 30
0.0
 11
1448.126800805717
 21
-199.1659520204764
 31
0.0
  0
LINE
  5
204
  8
LAYER0001
  6
CONTINUOUS
 62
     4
 10
1448.126800805717
 20
-184.1659520204764
 30
0.0
 11
1462.126800805717
 21
-184.1659520204764
 31
0.0
  0
LINE
  5
205
  8
LAYER0001
  6
CONTINUOUS
 62
     4
 10
1225.061085214405
 20
-184.1659520204764
 30
0.0
 11
1448.126800805717
 21
-184.1659520204764
 31
0.0
  0
INSERT
  5
206
  8
LAYER0001
 62
     4
  2
_OPEN30
 10
1448.126800805717
 20
-184.1659520204764
 30
0.0
 41
45.00004211422929
 42
44.99984052335464
 50
360.0
  0
LINE
  5
207
  8
LAYER0001
  6
CONTINUOUS
 62
     4
 10
1537.126800805717
 20
-184.1659520204764
 30
0.0
 11
1462.126800805717
 21
-184.1659520204764
 31
0.0
  0
INSERT
  5
208
  8
LAYER0001
 62
     4
  2
_OPEN30
 10
1462.126800805717
 20
-184.1659520204764
 30
0.0
 41
45.00004211422929
 42
44.99984052335464
 50
180.0
  0
TEXT
  5
209
  8
LAYER0001
 62
     2
 10
1240.061085214405
 20
-169.1659520204764
 30
0.0
 40
75.0
  1
14
 41
1.230769230769231
  7
DCSTYLE1
 72
     5
 11
1360.061085214405
 21
-169.1659520204764
 31
0.0
  0
ENDBLK
  5
FB
  8
0
  0
BLOCK
  8
0
  2
DC_HIDE_GROUP_18
 70
     0
 10
0.0
 20
0.0
 30
0.0
  3
DC_HIDE_GROUP_18
  1

  0
ENDBLK
  5
FE
  8
0
  0
BLOCK
  8
0
  2
DC_HIDE_GROUP_19
 70
     0
 10
0.0
 20
0.0
 30
0.0
  3
DC_HIDE_GROUP_19
  1

  0
LINE
  5
20A
  8
LAYER0006
  6
CONTINUOUS
 62
     3
 10
1441.126800805717
 20
687.6721341720418
 30
0.0
 11
1441.126800805717
 21
673.6721341720418
 31
0.0
  0
LINE
  5
20B
  8
LAYER0006
  6
CONTINUOUS
 62
     3
 10
1455.126800805717
 20
687.6721341720418
 30
0.0
 11
1455.126800805717
 21
673.6721341720418
 31
0.0
  0
LINE
  5
20C
  8
LAYER0006
  6
CONTINUOUS
 62
     3
 10
1441.126800805717
 20
687.6721341720418
 30
0.0
 11
1455.126800805717
 21
687.6721341720418
 31
0.0
  0
LINE
  5
20D
  8
LAYER0006
  6
CONTINUOUS
 62
     3
 10
1455.126800805717
 20
673.6721341720418
 30
0.0
 11
1441.126800805717
 21
673.6721341720418
 31
0.0
  0
CIRCLE
  5
20E
  8
LAYER0006
  6
CONTINUOUS
 62
     3
 10
1448.126800805717
 20
680.6721341720418
 30
0.0
 40
10.69124999999985
  0
ENDBLK
  5
101
  8
0
  0
BLOCK
  8
0
  2
DC_HIDE_GROUP_20
 70
     0
 10
0.0
 20
0.0
 30
0.0
  3
DC_HIDE_GROUP_20
  1

  0
LINE
  5
20F
  8
LAYER0002
  6
CONTINUOUS
 62
     3
 10
983.1268008057177
 20
65.17213417204246
 30
0.0
 11
983.1268008057177
 21
51.37213417204137
 31
0.0
  0
LINE
  5
210
  8
LAYER0002
  6
CONTINUOUS
 62
     3
 10
986.2268008057181
 20
48.27213417204192
 30
0.0
 11
1559.226800805718
 21
48.27213417204189
 31
0.0
  0
LINE
  5
211
  8
LAYER0002
  6
CONTINUOUS
 62
     3
 10
984.3268008057175
 20
53.27213417204189
 30
0.0
 11
984.3268008057175
 21
48.92264442925833
 31
0.0
  0
ARC
  5
212
  8
LAYER0002
  6
CONTINUOUS
 62
     3
 10
986.2268008057181
 20
51.37213417204137
 30
0.0
 40
3.1
 50
180.0
 51
232.200277564561
  0
ENDBLK
  5
104
  8
0
  0
BLOCK
  8
0
  2
DC_HIDE_GROUP_21
 70
     0
 10
0.0
 20
0.0
 30
0.0
  3
DC_HIDE_GROUP_21
  1

  0
LINE
  5
213
  8
LAYER0002
  6
CONTINUOUS
 62
     3
 10
983.1268008057177
 20
1296.172134172041
 30
0.0
 11
983.1268008057177
 21
1309.972134172042
 31
0.0
  0
LINE
  5
214
  8
LAYER0002
  6
CONTINUOUS
 62
     3
 10
986.2268008057181
 20
1313.072134172042
 30
0.0
 11
1559.226800805718
 21
1313.072134172042
 31
0.0
  0
LINE
  5
215
  8
LAYER0002
  6
CONTINUOUS
 62
     3
 10
984.3268008057175
 20
1308.072134172042
 30
0.0
 11
984.3268008057175
 21
1312.421623914825
 31
0.0
  0
ARC
  5
216
  8
LAYER0002
  6
CONTINUOUS
 62
     3
 10
986.2268008057181
 20
1309.972134172042
 30
0.0
 40
3.1
 50
127.7997224354393
 51
180.0
  0
ENDBLK
  5
107
  8
0
  0
BLOCK
  8
0
  2
DA_IMAGEDIMGROUP_2
 70
     0
 10
0.0
 20
0.0
 30
0.0
  3
DA_IMAGEDIMGROUP_2
  1

  0
LINE
  5
217
  8
LAYER0001
  6
CONTINUOUS
 62
     4
 10
1662.126800805717
 20
133.272134172042
 30
0.0
 11
1662.126800805717
 21
299.2700369797712
 31
0.0
  0
LINE
  5
218
  8
LAYER0001
  6
CONTINUOUS
 62
     4
 10
1562.126800805717
 20
284.2700369797712
 30
0.0
 11
1662.126800805717
 21
284.2700369797712
 31
0.0
  0
LINE
  5
219
  8
LAYER0001
  6
CONTINUOUS
 62
     4
 10
1947.126800805717
 20
284.2700369797712
 30
0.0
 11
1662.126800805717
 21
284.2700369797712
 31
0.0
  0
INSERT
  5
21A
  8
LAYER0001
 62
     4
  2
_OPEN30
 10
1662.126800805717
 20
284.2700369797712
 30
0.0
 41
45.00004211422929
 42
44.99984052335464
 50
180.0
  0
LINE
  5
21B
  8
LAYER0001
  6
CONTINUOUS
 62
     4
 10
1487.126800805717
 20
284.2700369797712
 30
0.0
 11
1562.126800805717
 21
284.2700369797712
 31
0.0
  0
INSERT
  5
21C
  8
LAYER0001
 62
     4
  2
_OPEN30
 10
1562.126800805717
 20
284.2700369797712
 30
0.0
 41
45.00004211422929
 42
44.99984052335464
 50
360.0
  0
TEXT
  5
21D
  8
LAYER0001
 62
     2
 10
1752.126800805717
 20
299.2700369797712
 30
0.0
 40
75.0
  1
100
 41
1.230769230769231
  7
DCSTYLE1
 72
     5
 11
1932.126800805717
 21
299.2700369797712
 31
0.0
  0
ENDBLK
  5
10A
  8
0
  0
BLOCK
  8
0
  2
*D30
 70
     1
 10
0.0
 20
0.0
 30
0.0
  3
*D30
  1

  0
LINE
  5
21E
  8
LAYER0001
  6
CONTINUOUS
 62
     4
 10
-1868.181891907544
 20
314.4556874061727
 30
0.0
 11
336.6181080924551
 21
314.4556874061724
 31
0.0
  0
INSERT
  5
21F
  8
LAYER0001
 62
     4
  2
_OPEN30
 10
-1868.181891907544
 20
314.4556874061727
 30
0.0
 41
45.00004211422929
 42
44.99984052335464
 50
180.0
  0
INSERT
  5
220
  8
LAYER0001
 62
     4
  2
_OPEN30
 10
336.6181080924551
 20
314.4556874061724
 30
0.0
 41
45.00004211422929
 42
44.99984052335464
 50
360.0
  0
TEXT
  5
221
  8
LAYER0001
 62
     2
 10
-945.7818919075446
 20
329.4556874061726
 30
0.0
 40
75.0
  1
2204.8
 41
1.230769230769231
  7
DCSTYLE1
 72
     5
 11
-585.7818919075446
 21
329.4556874061726
 31
0.0
  0
ENDBLK
  5
10D
  8
0
  0
BLOCK
  8
0
  2
*D31
 70
     1
 10
0.0
 20
0.0
 30
0.0
  3
*D31
  1

  0
LINE
  5
222
  8
LAYER0001
  6
CONTINUOUS
 62
     4
 10
-410.4008211635269
 20
1293.072134172042
 30
0.0
 11
-410.4008211635269
 21
68.27213417204186
 31
0.0
  0
INSERT
  5
223
  8
LAYER0001
 62
     4
  2
_OPEN30
 10
-410.4008211635269
 20
1293.072134172042
 30
0.0
 41
45.00004211422929
 42
44.99984052335464
 50
90.0
  0
INSERT
  5
224
  8
LAYER0001
 62
     4
  2
_OPEN30
 10
-410.4008211635269
 20
68.27213417204186
 30
0.0
 41
45.00004211422929
 42
44.99984052335464
 50
270.0
  0
TEXT
  5
225
  8
LAYER0001
 62
     2
 10
-425.4008211635269
 20
500.6721341720418
 30
0.0
 40
75.0
  1
1224.8
 50
90.0
 41
1.230769230769231
  7
DCSTYLE1
 72
     5
 11
-425.4008211635269
 21
860.6721341720418
 31
0.0
  0
ENDBLK
  5
110
  8
0
  0
BLOCK
  8
0
  2
DC_GROUP_22
 70
     0
 10
0.0
 20
0.0
 30
0.0
  3
DC_GROUP_22
  1

  0
LINE
  5
226
  8
LAYER0001
  6
CONTINUOUS
 62
     4
 10
1034.013142757961
 20
845.2656605083537
 30
0.0
 11
915.2259020936327
 21
936.1029621928403
 31
0.0
  0
CIRCLE
  5
227
  8
LAYER0001
  6
CONTINUOUS
 62
     4
 10
872.3305791128641
 20
968.9052680016633
 30
0.0
 40
54.0
  0
TEXT
  5
229
  8
LAYER0001
 62
     4
 10
856.5805791128641
 20
946.4052680016633
 30
0.0
 40
45.0
  1
1
 41
1.336363636363636
  7
DCSTYLE0
 72
     5
 11
888.0805791128641
 21
946.4052680016633
 31
0.0
  0
ENDBLK
  5
113
  8
0
  0
BLOCK
  8
0
  2
DC_GROUP_23
 70
     0
 10
0.0
 20
0.0
 30
0.0
  3
DC_GROUP_23
  1

  0
LINE
  5
22A
  8
LAYER0001
  6
CONTINUOUS
 62
     4
 10
339.3732974983608
 20
974.7585255528189
 30
0.0
 11
228.327275486237
 21
1065.472177337371
 31
0.0
  0
CIRCLE
  5
22B
  8
LAYER0001
  6
CONTINUOUS
 62
     4
 10
186.5073504826556
 20
1099.634932974099
 30
0.0
 40
54.0
  0
TEXT
  5
22C
  8
LAYER0001
 62
     4
 10
170.7573504826556
 20
1077.134932974099
 30
0.0
 40
45.0
  1
1
 41
1.336363636363636
  7
DCSTYLE0
 72
     5
 11
202.2573504826556
 21
1077.134932974099
 31
0.0
  0
ENDBLK
  5
116
  8
0
  0
BLOCK
  8
0
  2
DC_GROUP_24
 70
     0
 10
0.0
 20
0.0
 30
0.0
  3
DC_GROUP_24
  1

  0
LINE
  5
22D
  8
LAYER0001
  6
CONTINUOUS
 62
     4
 10
-1881.477658877207
 20
915.8035542923823
 30
0.0
 11
-1776.723977392405
 21
994.813171861021
 31
0.0
  0
CIRCLE
  5
22E
  8
LAYER0001
  6
CONTINUOUS
 62
     4
 10
-1733.611917284584
 20
1027.330094736035
 30
0.0
 40
54.0
  0
TEXT
  5
22F
  8
LAYER0001
 62
     4
 10
-1749.361917284584
 20
1004.830094736035
 30
0.0
 40
45.0
  1
2
 41
0.8647058823529411
  7
DCSTYLE0
 72
     5
 11
-1717.861917284584
 21
1004.830094736035
 31
0.0
  0
ENDBLK
  5
119
  8
0
  0
BLOCK
  8
0
  2
DC_GROUP_25
 70
     0
 10
0.0
 20
0.0
 30
0.0
  3
DC_GROUP_25
  1

  0
LINE
  5
230
  8
LAYER0001
  6
CONTINUOUS
 62
     4
 10
-1214.378066707585
 20
1302.242953827602
 30
0.0
 11
-1135.597146126907
 21
1220.544221373565
 31
0.0
  0
CIRCLE
  5
231
  8
LAYER0001
  6
CONTINUOUS
 62
     4
 10
-1098.113825315359
 20
1181.672629420848
 30
0.0
 40
54.0
  0
TEXT
  5
232
  8
LAYER0001
 62
     4
 10
-1113.863825315359
 20
1159.172629420848
 30
0.0
 40
45.0
  1
3
 41
0.8647058823529411
  7
DCSTYLE0
 72
     5
 11
-1082.363825315359
 21
1159.172629420848
 31
0.0
  0
ENDBLK
  5
11C
  8
0
  0
BLOCK
  8
0
  2
DC_GROUP_26
 70
     0
 10
0.0
 20
0.0
 30
0.0
  3
DC_GROUP_26
  1

  0
LINE
  5
233
  8
LAYER0001
  6
CONTINUOUS
 62
     4
 10
-1336.856596717493
 20
62.22752087223213
 30
0.0
 11
-1239.346156937799
 21
163.1042861836568
 31
0.0
  0
CIRCLE
  5
234
  8
LAYER0001
  6
CONTINUOUS
 62
     4
 10
-1201.815713153482
 20
201.9303829402483
 30
0.0
 40
54.0
  0
TEXT
  5
235
  8
LAYER0001
 62
     4
 10
-1217.565713153482
 20
179.4303829402483
 30
0.0
 40
45.0
  1
3
 41
0.8647058823529411
  7
DCSTYLE0
 72
     5
 11
-1186.065713153482
 21
179.4303829402483
 31
0.0
  0
ENDBLK
  5
11F
  8
0
  0
BLOCK
  8
0
  2
DC_GROUP_27
 70
     0
 10
0.0
 20
0.0
 30
0.0
  3
DC_GROUP_27
  1

  0
LINE
  5
236
  8
LAYER0001
  6
CONTINUOUS
 62
     4
 10
-1243.808856830319
 20
-382.9800678934856
 30
0.0
 11
-1108.24481750089
 21
-228.5876897683027
 31
0.0
  0
CIRCLE
  5
237
  8
LAYER0001
  6
CONTINUOUS
 62
     4
 10
-1072.615554147275
 20
-188.0099176155744
 30
0.0
 40
54.0
  0
TEXT
  5
238
  8
LAYER0001
 62
     4
 10
-1088.365554147275
 20
-210.5099176155744
 30
0.0
 40
45.0
  1
3
 41
0.8647058823529411
  7
DCSTYLE0
 72
     5
 11
-1056.865554147275
 21
-210.5099176155744
 31
0.0
  0
ENDBLK
  5
122
  8
0
  0
BLOCK
  8
0
  2
DC_GROUP_28
 70
     0
 10
0.0
 20
0.0
 30
0.0
  3
DC_GROUP_28
  1

  0
LINE
  5
239
  8
LAYER0001
  6
CONTINUOUS
 62
     4
 10
306.6181080924553
 20
49.27213417204189
 30
0.0
 11
235.611713959037
 21
-50.68842680708086
 31
0.0
  0
CIRCLE
  5
23A
  8
LAYER0001
  6
CONTINUOUS
 62
     4
 10
204.3398598505144
 20
-94.71195620461184
 30
0.0
 40
54.0
  0
TEXT
  5
23B
  8
LAYER0001
 62
     4
 10
188.5898598505144
 20
-117.2119562046118
 30
0.0
 40
45.0
  1
4
 41
0.8166666666666668
  7
DCSTYLE0
 72
     5
 11
220.0898598505144
 21
-117.2119562046118
 31
0.0
  0
ENDBLK
  5
125
  8
0
  0
BLOCK
  8
0
  2
DC_GROUP_29
 70
     0
 10
0.0
 20
0.0
 30
0.0
  3
DC_GROUP_29
  1

  0
LINE
  5
23C
  8
LAYER0001
  6
CONTINUOUS
 62
     4
 10
-1838.181891907545
 20
49.27213417204189
 30
0.0
 11
-1893.480720928779
 21
-46.58320675056042
 31
0.0
  0
CIRCLE
  5
23D
  8
LAYER0001
  6
CONTINUOUS
 62
     4
 10
-1920.464880661659
 20
-93.35772036118367
 30
0.0
 40
54.0
  0
TEXT
  5
23E
  8
LAYER0001
 62
     4
 10
-1936.214880661659
 20
-115.8577203611837
 30
0.0
 40
45.0
  1
4
 41
0.8166666666666668
  7
DCSTYLE0
 72
     5
 11
-1904.714880661659
 21
-115.8577203611837
 31
0.0
  0
ENDBLK
  5
128
  8
0
  0
BLOCK
  8
0
  2
DC_GROUP_30
 70
     0
 10
0.0
 20
0.0
 30
0.0
  3
DC_GROUP_30
  1

  0
LINE
  5
23F
  8
LAYER0001
  6
CONTINUOUS
 62
     4
 10
-1839.681891907545
 20
1312.072134172042
 30
0.0
 11
-1776.885389211489
 21
1400.565041425167
 31
0.0
  0
CIRCLE
  5
240
  8
LAYER0001
  6
CONTINUOUS
 62
     4
 10
-1745.634677714535
 20
1444.60358171585
 30
0.0
 40
54.0
  0
TEXT
  5
241
  8
LAYER0001
 62
     4
 10
-1761.384677714535
 20
1422.10358171585
 30
0.0
 40
45.0
  1
4
 41
0.8166666666666668
  7
DCSTYLE0
 72
     5
 11
-1729.884677714535
 21
1422.10358171585
 31
0.0
  0
ENDBLK
  5
12B
  8
0
  0
BLOCK
  8
0
  2
DC_GROUP_31
 70
     0
 10
0.0
 20
0.0
 30
0.0
  3
DC_GROUP_31
  1

  0
LINE
  5
242
  8
LAYER0001
  6
CONTINUOUS
 62
     4
 10
306.6181080924553
 20
1312.072134172042
 30
0.0
 11
244.7766715100387
 21
1404.223630047702
 31
0.0
  0
CIRCLE
  5
243
  8
LAYER0001
  6
CONTINUOUS
 62
     4
 10
214.6858614440079
 20
1449.062710653465
 30
0.0
 40
54.0
  0
TEXT
  5
244
  8
LAYER0001
 62
     4
 10
198.9358614440079
 20
1426.562710653465
 30
0.0
 40
45.0
  1
4
 41
0.8166666666666668
  7
DCSTYLE0
 72
     5
 11
230.4358614440079
 21
1426.562710653465
 31
0.0
  0
ENDBLK
  5
12E
  8
0
  0
BLOCK
  8
0
  2
DC_GROUP_32
 70
     0
 10
0.0
 20
0.0
 30
0.0
  3
DC_GROUP_32
  1

  0
LINE
  5
245
  8
LAYER0001
  6
CONTINUOUS
 62
     4
 10
-1840.576343363909
 20
-372.5985227462899
 30
0.0
 11
-1721.869498228179
 21
-242.4943253325855
 31
0.0
  0
CIRCLE
  5
246
  8
LAYER0001
  6
CONTINUOUS
 62
     4
 10
-1685.472991252593
 20
-202.6032952634567
 30
0.0
 40
54.0
  0
TEXT
  5
247
  8
LAYER0001
 62
     4
 10
-1701.222991252593
 20
-225.1032952634567
 30
0.0
 40
45.0
  1
4
 41
0.8166666666666668
  7
DCSTYLE0
 72
     5
 11
-1669.722991252593
 21
-225.1032952634567
 31
0.0
  0
ENDBLK
  5
131
  8
0
  0
BLOCK
  8
0
  2
DC_GROUP_33
 70
     0
 10
0.0
 20
0.0
 30
0.0
  3
DC_GROUP_33
  1

  0
LINE
  5
248
  8
LAYER0001
  6
CONTINUOUS
 62
     4
 10
308.1272980514851
 20
-414.5796758817188
 30
0.0
 11
449.5079263555932
 21
-249.2392116117278
 31
0.0
  0
CIRCLE
  5
249
  8
LAYER0001
  6
CONTINUOUS
 62
     4
 10
484.6020168370352
 20
-208.197710502724
 30
0.0
 40
54.0
  0
TEXT
  5
24A
  8
LAYER0001
 62
     4
 10
468.8520168370352
 20
-230.697710502724
 30
0.0
 40
45.0
  1
4
 41
0.8166666666666668
  7
DCSTYLE0
 72
     5
 11
500.3520168370352
 21
-230.697710502724
 31
0.0
  0
ENDBLK
  5
134
  8
0
  0
BLOCK
  8
0
  2
DC_GROUP_34
 70
     0
 10
0.0
 20
0.0
 30
0.0
  3
DC_GROUP_34
  1

  0
LINE
  5
24B
  8
LAYER0001
  6
CONTINUOUS
 62
     4
 10
1454.273225803226
 20
687.6721341720418
 30
0.0
 11
1640.598912087967
 21
805.8916076921348
 31
0.0
  0
CIRCLE
  5
24C
  8
LAYER0001
  6
CONTINUOUS
 62
     4
 10
1686.195542925878
 20
834.8216484150786
 30
0.0
 40
54.0
  0
TEXT
  5
24D
  8
LAYER0001
 62
     4
 10
1670.445542925878
 20
812.3216484150786
 30
0.0
 40
45.0
  1
5
 41
0.8647058823529411
  7
DCSTYLE0
 72
     5
 11
1701.945542925878
 21
812.3216484150786
 31
0.0
  0
ENDBLK
  5
137
  8
0
  0
BLOCK
  8
0
  2
DC_GROUP_35
 70
     0
 10
0.0
 20
0.0
 30
0.0
  3
DC_GROUP_35
  1

  0
CIRCLE
  5
24E
  8
LAYER0001
  6
CONTINUOUS
 62
     4
 10
1806.195542925878
 20
834.8216484150786
 30
0.0
 40
54.0
  0
TEXT
  5
24F
  8
LAYER0001
 62
     4
 10
1790.445542925878
 20
812.3216484150786
 30
0.0
 40
45.0
  1
6
 41
0.8647058823529411
  7
DCSTYLE0
 72
     5
 11
1821.945542925878
 21
812.3216484150786
 31
0.0
  0
ENDBLK
  5
13A
  8
0
  0
BLOCK
  8
0
  2
DC_HIDE_GROUP_36
 70
     0
 10
0.0
 20
0.0
 30
0.0
  3
DC_HIDE_GROUP_36
  1

  0
LINE
  5
250
  8
0
  6
CONTINUOUS
 62
     3
 10
312.5181080924556
 20
48.27213417204169
 30
0.0
 11
353.7181080924554
 21
48.27213417204169
 31
0.0
  0
LINE
  5
251
  8
0
  6
CONTINUOUS
 62
     3
 10
309.6181080924559
 20
51.17213417204132
 30
0.0
 11
309.6181080924559
 21
70.57213417204142
 31
0.0
  0
LINE
  5
252
  8
0
  6
CONTINUOUS
 62
     3
 10
312.5181080924556
 20
49.47213417204151
 30
0.0
 11
353.7181080924554
 21
49.47213417204151
 31
0.0
  0
LINE
  5
253
  8
0
  6
CONTINUOUS
 62
     3
 10
310.8181080924558
 20
70.57213417204142
 30
0.0
 11
310.8181080924558
 21
51.17213417204132
 31
0.0
  0
ARC
  5
254
  8
0
  6
CONTINUOUS
 62
     3
 10
312.5181080924556
 20
51.17213417204132
 30
0.0
 40
2.899999999999999
 50
180.0
 51
270.0
  0
ARC
  5
255
  8
0
  6
CONTINUOUS
 62
     3
 10
353.7181080924554
 20
51.17213417204132
 30
0.0
 40
2.899999999999999
 50
270.0
 51
0.0
  0
ARC
  5
256
  8
0
  6
CONTINUOUS
 62
     3
 10
353.7181080924554
 20
51.17213417204132
 30
0.0
 40
1.7
 50
270.0
 51
0.0
  0
ARC
  5
257
  8
0
  6
CONTINUOUS
 62
     3
 10
312.5181080924556
 20
51.17213417204132
 30
0.0
 40
1.7
 50
180.0
 51
270.0
  0
LINE
  5
258
  8
0
  6
CONTINUOUS
 62
     3
 10
307.9181080924552
 20
72.27213417204169
 30
0.0
 11
298.6181080924559
 21
72.27213417204169
 31
0.0
  0
LINE
  5
259
  8
0
  6
CONTINUOUS
 62
     3
 10
298.6181080924559
 20
73.4721341720415
 30
0.0
 11
298.6181080924559
 21
72.27213417204169
 31
0.0
  0
LINE
  5
25A
  8
0
  6
CONTINUOUS
 62
     3
 10
307.9181080924552
 20
73.4721341720415
 30
0.0
 11
298.6181080924559
 21
73.4721341720415
 31
0.0
  0
ARC
  5
25B
  8
0
  6
CONTINUOUS
 62
     3
 10
307.9181080924552
 20
70.57213417204142
 30
0.0
 40
2.899999999999999
 50
0.0
 51
90.0
  0
ARC
  5
25C
  8
0
  6
CONTINUOUS
 62
     3
 10
307.9181080924552
 20
70.57213417204142
 30
0.0
 40
1.7
 50
0.0
 51
90.0
  0
LINE
  5
25D
  8
0
  6
CONTINUOUS
 62
     3
 10
356.618108092455
 20
1310.172134172041
 30
0.0
 11
356.618108092455
 21
51.17213417204132
 31
0.0
  0
LINE
  5
25E
  8
0
  6
CONTINUOUS
 62
     3
 10
336.618108092455
 20
1308.072134172041
 30
0.0
 11
336.6181080924559
 21
53.27213417204169
 31
0.0
  0
LINE
  5
25F
  8
0
  6
CONTINUOUS
 62
     3
 10
336.618108092455
 20
53.27213417204169
 30
0.0
 11
356.618108092455
 21
53.27213417204169
 31
0.0
  0
LINE
  5
260
  8
0
  6
CONTINUOUS
 62
     3
 10
355.4181080924552
 20
53.27213417204169
 30
0.0
 11
355.4181080924552
 21
51.17213417204132
 31
0.0
  0
LINE
  5
261
  8
0
  6
CONTINUOUS
 62
     3
 10
312.5181080924556
 20
1313.072134172041
 30
0.0
 11
353.7181080924554
 21
1313.072134172041
 31
0.0
  0
LINE
  5
262
  8
0
  6
CONTINUOUS
 62
     3
 10
309.6181080924559
 20
1310.172134172041
 30
0.0
 11
309.6181080924559
 21
1290.772134172042
 31
0.0
  0
LINE
  5
263
  8
0
  6
CONTINUOUS
 62
     3
 10
312.5181080924556
 20
1311.872134172041
 30
0.0
 11
353.7181080924554
 21
1311.872134172041
 31
0.0
  0
LINE
  5
264
  8
0
  6
CONTINUOUS
 62
     3
 10
310.8181080924558
 20
1290.772134172042
 30
0.0
 11
310.8181080924558
 21
1310.172134172041
 31
0.0
  0
ARC
  5
265
  8
0
  6
CONTINUOUS
 62
     3
 10
312.5181080924556
 20
1310.172134172041
 30
0.0
 40
2.899999999999999
 50
90.0
 51
180.0
  0
ARC
  5
266
  8
0
  6
CONTINUOUS
 62
     3
 10
353.7181080924554
 20
1310.172134172041
 30
0.0
 40
2.899999999999999
 50
0.0
 51
90.0
  0
ARC
  5
267
  8
0
  6
CONTINUOUS
 62
     3
 10
353.7181080924554
 20
1310.172134172041
 30
0.0
 40
1.7
 50
0.0
 51
90.0
  0
ARC
  5
268
  8
0
  6
CONTINUOUS
 62
     3
 10
312.5181080924556
 20
1310.172134172041
 30
0.0
 40
1.7
 50
90.0
 51
180.0
  0
LINE
  5
269
  8
0
  6
CONTINUOUS
 62
     3
 10
307.9181080924561
 20
1289.072134172041
 30
0.0
 11
298.6181080924559
 21
1289.072134172041
 31
0.0
  0
LINE
  5
26A
  8
0
  6
CONTINUOUS
 62
     3
 10
298.6181080924559
 20
1287.872134172041
 30
0.0
 11
298.6181080924559
 21
1289.072134172041
 31
0.0
  0
LINE
  5
26B
  8
0
  6
CONTINUOUS
 62
     3
 10
307.9181080924561
 20
1287.872134172041
 30
0.0
 11
298.6181080924559
 21
1287.872134172041
 31
0.0
  0
ARC
  5
26C
  8
0
  6
CONTINUOUS
 62
     3
 10
307.9181080924561
 20
1290.772134172042
 30
0.0
 40
2.899999999999999
 50
270.0
 51
0.0
  0
ARC
  5
26D
  8
0
  6
CONTINUOUS
 62
     3
 10
307.9181080924561
 20
1290.772134172042
 30
0.0
 40
1.7
 50
270.0
 51
0.0
  0
LINE
  5
26E
  8
0
  6
CONTINUOUS
 62
     3
 10
336.618108092455
 20
1308.072134172041
 30
0.0
 11
356.618108092455
 21
1308.072134172041
 31
0.0
  0
LINE
  5
26F
  8
0
  6
CONTINUOUS
 62
     3
 10
355.4181080924552
 20
1308.072134172041
 30
0.0
 11
355.4181080924552
 21
1310.172134172041
 31
0.0
  0
ARC
  5
270
  8
0
  6
CONTINUOUS
 62
     3
 10
358.3181080924548
 20
648.6845805870773
 30
0.0
 40
1.7
 50
147.9946167919149
 51
180.0
  0
ARC
  5
271
  8
0
  6
CONTINUOUS
 62
     3
 10
358.3181080924558
 20
712.6596877569333
 30
0.0
 40
1.7
 50
180.0
 51
212.0053832080766
  0
LINE
  5
272
  8
0
  6
CONTINUOUS
 62
     3
 10
361.618108092455
 20
703.3404251154413
 30
0.0
 11
361.6181080924541
 21
658.0038432285696
 31
0.0
  0
LINE
  5
273
  8
0
  6
CONTINUOUS
 62
     3
 10
361.1773031740693
 20
704.8774220414504
 30
0.0
 11
356.8765109756466
 21
711.7586895589279
 31
0.0
  0
LINE
  5
274
  8
0
  6
CONTINUOUS
 62
     3
 10
356.8765109756466
 20
649.5855787850828
 30
0.0
 11
361.1773031740693
 21
656.4668463025606
 31
0.0
  0
ARC
  5
275
  8
0
  6
CONTINUOUS
 62
     3
 10
358.7181080924545
 20
703.3404251154413
 30
0.0
 40
2.9
 50
0.0
 51
32.0053832080791
  0
ARC
  5
276
  8
0
  6
CONTINUOUS
 62
     3
 10
358.7181080924545
 20
658.0038432285696
 30
0.0
 40
2.9
 50
327.9946167919215
 51
0.0
  0
ENDBLK
  5
13D
  8
0
  0
BLOCK
  8
0
  2
DC_HIDE_GROUP_37
 70
     0
 10
0.0
 20
0.0
 30
0.0
  3
DC_HIDE_GROUP_37
  1

  0
LINE
  5
277
  8
0
  6
CONTINUOUS
 62
     3
 10
339.7181080924554
 20
-307.5241751425455
 30
0.0
 11
353.5181080924556
 21
-307.5241751425455
 31
0.0
  0
LINE
  5
278
  8
0
  6
CONTINUOUS
 62
     3
 10
356.618108092455
 20
-310.6241751425456
 30
0.0
 11
356.618108092455
 21
-986.5241751425458
 31
0.0
  0
LINE
  5
279
  8
0
  6
CONTINUOUS
 62
     3
 10
298.618108092455
 20
-308.7241751425455
 30
0.0
 11
355.9675978352386
 21
-308.7241751425455
 31
0.0
  0
LINE
  5
27A
  8
0
  6
CONTINUOUS
 62
     3
 10
308.618108092455
 20
-986.5241751425458
 30
0.0
 11
356.618108092455
 21
-986.5241751425458
 31
0.0
  0
ARC
  5
27B
  8
0
  6
CONTINUOUS
 62
     3
 10
353.5181080924556
 20
-310.6241751425456
 30
0.0
 40
3.1
 50
0.0
 51
90.0
  0
ARC
  5
27C
  8
0
  6
CONTINUOUS
 62
     3
 10
339.7181080924554
 20
-310.6241751425456
 30
0.0
 40
3.1
 50
90.0
 51
142.2002775645707
  0
LINE
  5
27D
  8
0
  6
CONTINUOUS
 62
     3
 10
309.618108092455
 20
-308.7241751425455
 30
0.0
 11
309.618108092455
 21
-986.5241751425453
 31
0.0
  0
LINE
  5
27E
  8
0
  6
CONTINUOUS
 62
     3
 10
298.618108092455
 20
-308.7241751425455
 30
0.0
 11
298.618108092455
 21
-976.5241751425458
 31
0.0
  0
LINE
  5
27F
  8
0
  6
CONTINUOUS
 62
     3
 10
308.618108092455
 20
-986.5241751425458
 30
0.0
 11
298.618108092455
 21
-976.5241751425458
 31
0.0
  0
ARC
  5
280
  8
0
  6
CONTINUOUS
 62
     3
 10
358.3181080924548
 20
-740.5366215576543
 30
0.0
 40
1.7
 50
180.0
 51
212.0053832080819
  0
ARC
  5
281
  8
0
  6
CONTINUOUS
 62
     3
 10
358.3181080924548
 20
-804.51172872751
 30
0.0
 40
1.7
 50
147.9946167919224
 51
180.0
  0
LINE
  5
282
  8
0
  6
CONTINUOUS
 62
     3
 10
361.6181080924541
 20
-749.8558841991461
 30
0.0
 11
361.6181080924541
 21
-795.1924660860179
 31
0.0
  0
LINE
  5
283
  8
0
  6
CONTINUOUS
 62
     3
 10
361.1773031740693
 20
-748.3188872731372
 30
0.0
 11
356.8765109756466
 21
-741.4376197556595
 31
0.0
  0
LINE
  5
284
  8
0
  6
CONTINUOUS
 62
     3
 10
356.8765109756466
 20
-803.6107305295047
 30
0.0
 11
361.1773031740693
 21
-796.729463012027
 31
0.0
  0
ARC
  5
285
  8
0
  6
CONTINUOUS
 62
     3
 10
358.7181080924545
 20
-749.8558841991461
 30
0.0
 40
2.9
 50
0.0
 51
32.0053832080791
  0
ARC
  5
286
  8
0
  6
CONTINUOUS
 62
     3
 10
358.7181080924545
 20
-795.1924660860179
 30
0.0
 40
2.9
 50
327.9946167919215
 51
0.0
  0
ENDBLK
  5
140
  8
0
  0
BLOCK
  8
0
  2
DC_HIDE_GROUP_38
 70
     0
 10
0.0
 20
0.0
 30
0.0
  3
DC_HIDE_GROUP_38
  1

  0
LINE
  5
287
  8
0
  6
CONTINUOUS
 62
     3
 10
983.1268008057175
 20
1308.072134172042
 30
0.0
 11
983.1268008057175
 21
53.27213417204177
 31
0.0
  0
LINE
  5
288
  8
0
  6
CONTINUOUS
 62
     3
 10
983.1268008057175
 20
53.27213417204177
 30
0.0
 11
984.3268008057173
 21
53.27213417204177
 31
0.0
  0
LINE
  5
289
  8
0
  6
CONTINUOUS
 62
     3
 10
984.3268008057173
 20
53.27213417204177
 30
0.0
 11
984.3268008057173
 21
48.27213417204186
 31
0.0
  0
LINE
  5
28A
  8
0
  6
CONTINUOUS
 62
     3
 10
984.3268008057173
 20
48.27213417204186
 30
0.0
 11
1662.126800805717
 21
48.27213417204186
 31
0.0
  0
LINE
  5
28B
  8
0
  6
CONTINUOUS
 62
     3
 10
1562.126800805717
 20
1213.072134172042
 30
0.0
 11
1562.126800805717
 21
148.2721341720419
 31
0.0
  0
LINE
  5
28C
  8
0
  6
CONTINUOUS
 62
     3
 10
1582.126800805717
 20
128.2721341720419
 30
0.0
 11
1652.126800805717
 21
128.2721341720419
 31
0.0
  0
LINE
  5
28D
  8
0
  6
CONTINUOUS
 62
     3
 10
1662.126800805717
 20
118.2721341720419
 30
0.0
 11
1662.126800805717
 21
48.27213417204186
 31
0.0
  0
ARC
  5
28E
  8
0
  6
CONTINUOUS
 62
     3
 10
1582.126800805717
 20
148.2721341720419
 30
0.0
 40
20.0
 50
180.0
 51
270.0
  0
LINE
  5
28F
  8
0
  6
CONTINUOUS
 62
     3
 10
1652.126800805717
 20
128.2721341720419
 30
0.0
 11
1662.126800805717
 21
118.2721341720419
 31
0.0
  0
LINE
  5
290
  8
0
  6
CONTINUOUS
 62
     3
 10
983.1268008057175
 20
1308.072134172042
 30
0.0
 11
984.3268008057173
 21
1308.072134172042
 31
0.0
  0
LINE
  5
291
  8
0
  6
CONTINUOUS
 62
     3
 10
984.3268008057173
 20
1308.072134172042
 30
0.0
 11
984.3268008057173
 21
1313.072134172042
 31
0.0
  0
LINE
  5
292
  8
0
  6
CONTINUOUS
 62
     3
 10
984.3268008057173
 20
1313.072134172042
 30
0.0
 11
1662.126800805717
 21
1313.072134172042
 31
0.0
  0
LINE
  5
293
  8
0
  6
CONTINUOUS
 62
     3
 10
1582.126800805717
 20
1233.072134172042
 30
0.0
 11
1652.126800805717
 21
1233.072134172042
 31
0.0
  0
LINE
  5
294
  8
0
  6
CONTINUOUS
 62
     3
 10
1662.126800805717
 20
1243.072134172042
 30
0.0
 11
1662.126800805717
 21
1313.072134172042
 31
0.0
  0
ARC
  5
295
  8
0
  6
CONTINUOUS
 62
     3
 10
1582.126800805717
 20
1213.072134172042
 30
0.0
 40
20.0
 50
90.0
 51
180.0
  0
LINE
  5
296
  8
0
  6
CONTINUOUS
 62
     3
 10
1652.126800805717
 20
1233.072134172042
 30
0.0
 11
1662.126800805717
 21
1243.072134172042
 31
0.0
  0
CIRCLE
  5
297
  8
0
  6
CONTINUOUS
 62
     3
 10
1448.126800805717
 20
680.6721341720418
 30
0.0
 40
31.4999999999925
  0
ENDBLK
  5
143
  8
0
  0
BLOCK
  8
0
  2
DC_GROUP_39
 70
     0
 10
0.0
 20
0.0
 30
0.0
  3
DC_GROUP_39
  1

  0
TEXT
  5
299
  8
0
 62
     7
 10
1832.986425339367
 20
1509.977375565611
 30
0.0
 40
75.0
  1
重量43kg 容積1360L
 41
0.8787759905845431
  7
DCSTYLE2
 72
     5
 11
2672.986425339367
 21
1509.977375565611
 31
0.0
  0
LINE
  5
29A
  8
0
  6
CONTINUOUS
 62
     4
 10
1825.486425339367
 20
1502.477375565611
 30
0.0
 11
2680.486425339367
 21
1502.477375565611
 31
0.0
  0
LINE
  5
29B
  8
0
  6
CONTINUOUS
 62
     4
 10
2680.486425339367
 20
1502.477375565611
 30
0.0
 11
2680.486425339367
 21
1592.477375565611
 31
0.0
  0
LINE
  5
29C
  8
0
  6
CONTINUOUS
 62
     4
 10
1825.486425339367
 20
1592.477375565611
 30
0.0
 11
2680.486425339367
 21
1592.477375565611
 31
0.0
  0
LINE
  5
29D
  8
0
  6
CONTINUOUS
 62
     4
 10
1825.486425339367
 20
1502.477375565611
 30
0.0
 11
1825.486425339367
 21
1592.477375565611
 31
0.0
  0
ENDBLK
  5
146
  8
0
  0
BLOCK
  8
0
  2
_OPEN30
 70
     0
 10
0.0
 20
0.0
 30
0.0
  3
_OPEN30
  1

  0
LINE
  5
14D
  8
0
  6
BYBLOCK
 62
     0
 10
-1.0
 20
0.267949
 30
0.0
 11
0.0
 21
0.0
 31
0.0
  0
LINE
  5
14E
  8
0
  6
BYBLOCK
 62
     0
 10
0.0
 20
0.0
 30
0.0
 11
-1.0
 21
-0.267949
 31
0.0
  0
LINE
  5
14F
  8
0
  6
BYBLOCK
 62
     0
 10
0.0
 20
0.0
 30
0.0
 11
-1.0
 21
0.0
 31
0.0
  0
ENDBLK
  5
14C
  8
0
  0
ENDSEC
  0
SECTION
  2
ENTITIES
  0
LINE
  5
29E
  8
ZUWAKU
  6
CONTINUOUS
 62
     5
 10
2987.499999999982
 20
-2077.500000000032
 30
0.0
 11
-2835.000000000016
 21
-2077.500000000034
 31
0.0
  0
LINE
  5
29F
  8
ZUWAKU
  6
CONTINUOUS
 62
     5
 10
2987.499999999982
 20
2083.749999999967
 30
0.0
 11
2987.499999999982
 21
-2077.500000000032
 31
0.0
  0
LINE
  5
2A0
  8
ZUWAKU
  6
CONTINUOUS
 62
     5
 10
-2835.000000000016
 20
2083.749999999965
 30
0.0
 11
2987.499999999982
 21
2083.749999999967
 31
0.0
  0
LINE
  5
2A1
  8
ZUWAKU
  6
CONTINUOUS
 62
     5
 10
-2835.000000000016
 20
-2077.500000000034
 30
0.0
 11
-2835.000000000016
 21
2083.749999999965
 31
0.0
  0
TEXT
  5
2A2
  8
LAYER0001
 62
     4
 10
-2075.765487198913
 20
-769.1509054318597
 30
0.0
 40
60.0
  1
Ｇ．Ｌ
 41
0.988235294117647
  7
DCSTYLE0
 72
     5
 11
-1931.765487198913
 21
-769.1509054318597
 31
0.0
  0
DIMENSION
  5
2A3
  8
LAYER0001
  6
CONTINUOUS
  2
*D1
 10
-2168.198547308412
 20
-786.5241751425453
 30
0.0
 11
-2168.198547308412
 21
-525.3241751425453
 31
0.0
 70
   160
  3
DC_ROTATED
 13
-1889.581891907545
 23
-307.5241751425453
 33
0.0
 14
-2015.608781187012
 24
-786.5241751425453
 34
0.0
 50
90.0
1001
ACAD
1000
DSTYLE
1002
{
1070
     7
1000
OPEN30
1070
     6
1000
OPEN30
1070
   274
1070
     4
1070
    41
1040
45.00002861022949
1070
    79
1070
     2
1070
   176
1070
     4
1070
   177
1070
     4
1070
   178
1070
     2
1070
   271
1070
     1
1070
    44
1040
15.0
1070
    42
1040
15.0
1070
   147
1040
15.0
1070
   173
1070
     1
1070
    77
1070
     3
1070
    73
1070
     0
1070
   174
1070
     1
1070
   172
1070
     1
1070
    74
1070
     0
1070
   283
1070
     0
1070
   140
1040
75.0
1070
   284
1070
     8
1070
   288
1070
     1
1070
    78
1070
     8
1070
    90
1070
     1
1002
}
  0
DIMENSION
  5
2A5
  8
LAYER0001
  6
CONTINUOUS
  2
*D2
 10
509.2181080924878
 20
-307.5241751425453
 30
0.0
 11
509.2181080924878
 21
-547.0241751425453
 31
0.0
 70
   160
  1
479
  3
DC_ROTATED
 13
409.9445363013854
 23
-786.5241751425453
 33
0.0
 14
358.0181080924553
 24
-307.5241751425453
 34
0.0
 50
90.0
1001
ACAD
1000
DSTYLE
1002
{
1070
     7
1000
OPEN30
1070
     6
1000
OPEN30
1070
   274
1070
     4
1070
    41
1040
45.00002861022949
1070
    79
1070
     2
1070
   176
1070
     4
1070
   177
1070
     4
1070
   178
1070
     2
1070
   271
1070
     1
1070
    44
1040
15.0
1070
    42
1040
15.0
1070
   147
1040
15.0
1070
   173
1070
     1
1070
    77
1070
     3
1070
    73
1070
     0
1070
   172
1070
     1
1070
    74
1070
     0
1070
   283
1070
     0
1070
   140
1040
75.0
1070
   284
1070
     8
1070
   288
1070
     1
1070
    78
1070
     8
1070
    90
1070
     1
1002
}
  0
DIMENSION
  5
2A6
  8
LAYER0001
  6
CONTINUOUS
  2
*D3
 10
356.6181080924554
 20
1562.283971805095
 30
0.0
 11
-765.7818919075444
 21
1562.283971805095
 31
0.0
 70
   160
  1
2245
  3
DC_ROTATED
 13
-1888.181891907544
 23
1310.172134172042
 33
0.0
 14
356.6181080924554
 24
1310.172134172041
 34
0.0
1001
ACAD
1000
DSTYLE
1002
{
1070
     7
1000
OPEN30
1070
     6
1000
OPEN30
1070
   274
1070
     4
1070
    41
1040
45.00002861022949
1070
    79
1070
     2
1070
   176
1070
     4
1070
   177
1070
     4
1070
   178
1070
     2
1070
   271
1070
     1
1070
    44
1040
15.0
1070
    42
1040
15.0
1070
   147
1040
15.0
1070
   173
1070
     1
1070
    77
1070
     3
1070
    73
1070
     0
1070
   172
1070
     1
1070
    74
1070
     0
1070
   283
1070
     0
1070
   140
1040
75.0
1070
   284
1070
     8
1070
   288
1070
     1
1070
    78
1070
     8
1070
    90
1070
     1
1002
}
  0
DIMENSION
  5
2A7
  8
LAYER0001
  6
CONTINUOUS
  2
*D4
 10
596.9518553319077
 20
1313.072134172041
 30
0.0
 11
596.9518553319077
 21
680.6721341720414
 31
0.0
 70
   160
  1
1265
  3
DC_ROTATED
 13
353.7181080924554
 23
48.27213417204133
 33
0.0
 14
353.7181080924554
 24
1313.072134172041
 34
0.0
 50
90.0
1001
ACAD
1000
DSTYLE
1002
{
1070
     7
1000
OPEN30
1070
     6
1000
OPEN30
1070
   274
1070
     4
1070
    41
1040
45.00002861022949
1070
    79
1070
     2
1070
   176
1070
     4
1070
   177
1070
     4
1070
   178
1070
     2
1070
   271
1070
     1
1070
    44
1040
15.0
1070
    42
1040
15.0
1070
   147
1040
15.0
1070
   173
1070
     1
1070
    77
1070
     3
1070
    73
1070
     0
1070
   172
1070
     1
1070
    74
1070
     0
1070
   283
1070
     0
1070
   140
1040
75.0
1070
   284
1070
     8
1070
   288
1070
     1
1070
    78
1070
     8
1070
    90
1070
     1
1002
}
  0
DIMENSION
  5
2A8
  8
LAYER0001
  6
CONTINUOUS
  2
*D5
 10
659.2181080924877
 20
-986.5241751425458
 30
0.0
 11
659.2181080924877
 21
-647.0241751425456
 31
0.0
 70
   160
  3
DC_ROTATED
 13
358.0181080924553
 23
-307.5241751425453
 33
0.0
 14
356.6181080924551
 24
-986.5241751425458
 34
0.0
 50
90.0
1001
ACAD
1000
DSTYLE
1002
{
1070
     7
1000
OPEN30
1070
     6
1000
OPEN30
1070
   274
1070
     4
1070
    41
1040
45.00002861022949
1070
    79
1070
     2
1070
   176
1070
     4
1070
   177
1070
     4
1070
   178
1070
     2
1070
   271
1070
     1
1070
    44
1040
15.0
1070
    42
1040
15.0
1070
   147
1040
15.0
1070
   173
1070
     1
1070
    77
1070
     3
1070
    73
1070
     0
1070
   172
1070
     1
1070
    74
1070
     0
1070
   283
1070
     0
1070
   140
1040
75.0
1070
   284
1070
     8
1070
   288
1070
     1
1070
    78
1070
     8
1070
    90
1070
     1
1002
}
  0
DIMENSION
  5
2A9
  8
LAYER0001
  6
CONTINUOUS
  2
*D21
 10
-1655.999134345365
 20
-986.5241751425456
 30
0.0
 11
-1655.999134345365
 21
-1136.524175142546
 31
0.0
 70
   160
  3
DC_ROTATED
 13
-1655.999134345365
 23
-886.5241751425458
 33
0.0
 14
-1835.181891907544
 24
-986.5241751425456
 34
0.0
 50
90.0
1001
ACAD
1000
DSTYLE
1002
{
1070
     7
1000
OPEN30
1070
     6
1000
OPEN30
1070
   274
1070
     4
1070
    41
1040
45.00002861022949
1070
    79
1070
     2
1070
   176
1070
     4
1070
   177
1070
     4
1070
   178
1070
     2
1070
   271
1070
     1
1070
    44
1040
0.0
1070
    42
1040
15.0
1070
   147
1040
15.0
1070
   173
1070
     1
1070
    75
1070
     1
1070
    77
1070
     3
1070
    73
1070
     0
1070
   172
1070
     1
1070
    74
1070
     0
1070
   283
1070
     0
1070
   140
1040
75.0
1070
   284
1070
     8
1070
   288
1070
     1
1070
    78
1070
     8
1070
    90
1070
     1
1002
}
  0
INSERT
  5
2AA
  8
LAYER0001
  6
CONTINUOUS
  2
DA_IMAGEDIMGROUP_1
 10
0.0
 20
0.0
 30
0.0
  0
INSERT
  5
2AB
  8
LAYER0001
  6
CONTINUOUS
  2
DA_IMAGEDIMGROUP_2
 10
0.0
 20
0.0
 30
0.0
  0
DIMENSION
  5
2AC
  8
LAYER0001
  6
CONTINUOUS
  2
*D30
 10
336.6181080924551
 20
314.4556874061724
 30
0.0
 11
-765.7818919075446
 21
314.4556874061725
 31
0.0
 70
   160
  3
DC_ROTATED_F1
 13
-1868.181891907544
 23
314.4556874061727
 33
0.0
 14
336.6181080924551
 24
314.4556874061724
 34
0.0
1001
ACAD
1000
DSTYLE
1002
{
1070
     7
1000
OPEN30
1070
     6
1000
OPEN30
1070
   274
1070
     4
1070
    41
1040
45.00002861022949
1070
    79
1070
     2
1070
   176
1070
     4
1070
   177
1070
     7
1070
   178
1070
     2
1070
   271
1070
     1
1070
    44
1040
0.0
1070
    42
1040
15.0
1070
   147
1040
15.00000000000017
1070
   173
1070
     1
1070
    75
1070
     1
1070
    76
1070
     1
1070
    77
1070
     3
1070
    73
1070
     0
1070
   172
1070
     1
1070
    74
1070
     0
1070
   283
1070
     0
1070
   140
1040
75.0
1070
   284
1070
     8
1070
   288
1070
     1
1070
    78
1070
     8
1070
    90
1070
     1
1002
}
  0
DIMENSION
  5
2AE
  8
LAYER0001
  6
CONTINUOUS
  2
*D31
 10
-410.4008211635269
 20
68.27213417204186
 30
0.0
 11
-410.4008211635269
 21
680.6721341720418
 31
0.0
 70
   160
  3
DC_ROTATED_F1
 13
-410.4008211635269
 23
1293.072134172042
 33
0.0
 14
-410.4008211635269
 24
68.27213417204186
 34
0.0
 50
90.0
1001
ACAD
1000
DSTYLE
1002
{
1070
     7
1000
OPEN30
1070
     6
1000
OPEN30
1070
   274
1070
     4
1070
    41
1040
45.00002861022949
1070
    79
1070
     2
1070
   176
1070
     4
1070
   177
1070
     7
1070
   178
1070
     2
1070
   271
1070
     1
1070
    44
1040
0.0
1070
    42
1040
15.0
1070
   147
1040
15.0
1070
   173
1070
     1
1070
    75
1070
     1
1070
    76
1070
     1
1070
    77
1070
     3
1070
    73
1070
     0
1070
   172
1070
     1
1070
    74
1070
     0
1070
   283
1070
     0
1070
   140
1040
75.0
1070
   284
1070
     8
1070
   288
1070
     1
1070
    78
1070
     8
1070
    90
1070
     1
1002
}
  0
INSERT
  5
2AF
  8
LAYER0001
  6
CONTINUOUS
  2
DC_GROUP_22
 10
0.0
 20
0.0
 30
0.0
  0
INSERT
  5
2B0
  8
LAYER0001
  6
CONTINUOUS
  2
DC_GROUP_23
 10
0.0
 20
0.0
 30
0.0
  0
INSERT
  5
2B1
  8
LAYER0001
  6
CONTINUOUS
  2
DC_GROUP_24
 10
0.0
 20
0.0
 30
0.0
  0
INSERT
  5
2B2
  8
LAYER0001
  6
CONTINUOUS
  2
DC_GROUP_25
 10
0.0
 20
0.0
 30
0.0
  0
INSERT
  5
2B3
  8
LAYER0001
  6
CONTINUOUS
  2
DC_GROUP_26
 10
0.0
 20
0.0
 30
0.0
  0
INSERT
  5
2B4
  8
LAYER0001
  6
CONTINUOUS
  2
DC_GROUP_27
 10
0.0
 20
0.0
 30
0.0
  0
INSERT
  5
2B5
  8
LAYER0001
  6
CONTINUOUS
  2
DC_GROUP_28
 10
0.0
 20
0.0
 30
0.0
  0
INSERT
  5
2B6
  8
LAYER0001
  6
CONTINUOUS
  2
DC_GROUP_29
 10
0.0
 20
0.0
 30
0.0
  0
INSERT
  5
2B7
  8
LAYER0001
  6
CONTINUOUS
  2
DC_GROUP_30
 10
0.0
 20
0.0
 30
0.0
  0
INSERT
  5
2B8
  8
LAYER0001
  6
CONTINUOUS
  2
DC_GROUP_31
 10
0.0
 20
0.0
 30
0.0
  0
INSERT
  5
2B9
  8
LAYER0001
  6
CONTINUOUS
  2
DC_GROUP_32
 10
0.0
 20
0.0
 30
0.0
  0
INSERT
  5
2BA
  8
LAYER0001
  6
CONTINUOUS
  2
DC_GROUP_33
 10
0.0
 20
0.0
 30
0.0
  0
INSERT
  5
2BB
  8
LAYER0001
  6
CONTINUOUS
  2
DC_GROUP_34
 10
0.0
 20
0.0
 30
0.0
  0
INSERT
  5
2BC
  8
LAYER0001
  6
CONTINUOUS
  2
DC_GROUP_35
 10
0.0
 20
0.0
 30
0.0
  0
INSERT
  5
2BD
  8
0
  6
CONTINUOUS
  2
DC_HIDE_GROUP_1
 10
0.0
 20
0.0
 30
0.0
  0
INSERT
  5
2BE
  8
0
  6
CONTINUOUS
  2
DC_HIDE_GROUP_2
 10
0.0
 20
0.0
 30
0.0
  0
INSERT
  5
2BF
  8
0
  6
CONTINUOUS
  2
DC_HIDE_GROUP_36
 10
0.0
 20
0.0
 30
0.0
  0
INSERT
  5
2C0
  8
0
  6
CONTINUOUS
  2
DC_HIDE_GROUP_37
 10
0.0
 20
0.0
 30
0.0
  0
INSERT
  5
2C1
  8
0
  6
CONTINUOUS
  2
DC_HIDE_GROUP_38
 10
0.0
 20
0.0
 30
0.0
  0
INSERT
  5
2C2
  8
0
  6
CONTINUOUS
  2
DC_GROUP_39
 10
0.0
 20
0.0
 30
0.0
  0
INSERT
  5
2C3
  8
LAYER0002
  6
CONTINUOUS
  2
DC_HIDE_GROUP_3
 10
0.0
 20
0.0
 30
0.0
  0
INSERT
  5
2C4
  8
LAYER0002
  6
CONTINUOUS
  2
DC_HIDE_GROUP_4
 10
0.0
 20
0.0
 30
0.0
  0
INSERT
  5
2C5
  8
LAYER0002
  6
CONTINUOUS
  2
DC_HIDE_GROUP_5
 10
0.0
 20
0.0
 30
0.0
  0
INSERT
  5
2C6
  8
LAYER0002
  6
CONTINUOUS
  2
DC_HIDE_GROUP_20
 10
0.0
 20
0.0
 30
0.0
  0
INSERT
  5
2C7
  8
LAYER0002
  6
CONTINUOUS
  2
DC_HIDE_GROUP_21
 10
0.0
 20
0.0
 30
0.0
  0
INSERT
  5
2C8
  8
LAYER0004
  6
CONTINUOUS
  2
DC_HIDE_GROUP_6
 10
0.0
 20
0.0
 30
0.0
  0
INSERT
  5
2C9
  8
LAYER0004
  6
CONTINUOUS
  2
DC_HIDE_GROUP_7
 10
0.0
 20
0.0
 30
0.0
  0
INSERT
  5
2CA
  8
LAYER0004
  6
CONTINUOUS
  2
DC_HIDE_GROUP_8
 10
0.0
 20
0.0
 30
0.0
  0
INSERT
  5
2CB
  8
LAYER0004
  6
CONTINUOUS
  2
DC_HIDE_GROUP_9
 10
0.0
 20
0.0
 30
0.0
  0
INSERT
  5
2CC
  8
LAYER0004
  6
CONTINUOUS
  2
DC_HIDE_GROUP_10
 10
0.0
 20
0.0
 30
0.0
  0
INSERT
  5
2CD
  8
LAYER0004
  6
CONTINUOUS
  2
DC_HIDE_GROUP_11
 10
0.0
 20
0.0
 30
0.0
  0
INSERT
  5
2CE
  8
LAYER0004
  6
CONTINUOUS
  2
DC_HIDE_GROUP_16
 10
0.0
 20
0.0
 30
0.0
  0
INSERT
  5
2CF
  8
LAYER0004
  6
CONTINUOUS
  2
DC_HIDE_GROUP_17
 10
0.0
 20
0.0
 30
0.0
  0
INSERT
  5
2D0
  8
LAYER0005
  6
CONTINUOUS
  2
DC_HIDE_GROUP_12
 10
0.0
 20
0.0
 30
0.0
  0
INSERT
  5
2D1
  8
LAYER0005
  6
CONTINUOUS
  2
DC_HIDE_GROUP_13
 10
0.0
 20
0.0
 30
0.0
  0
INSERT
  5
2D2
  8
LAYER0005
  6
CONTINUOUS
  2
DC_HIDE_GROUP_18
 10
0.0
 20
0.0
 30
0.0
  0
INSERT
  5
2D3
  8
LAYER0006
  6
CONTINUOUS
  2
DC_HIDE_GROUP_14
 10
0.0
 20
0.0
 30
0.0
  0
INSERT
  5
2D4
  8
LAYER0006
  6
CONTINUOUS
  2
DC_HIDE_GROUP_15
 10
0.0
 20
0.0
 30
0.0
  0
INSERT
  5
2D5
  8
LAYER0006
  6
CONTINUOUS
  2
DC_HIDE_GROUP_19
 10
0.0
 20
0.0
 30
0.0
  0
LINE
  5
2D6
  8
0
  6
CENTER
 62
     4
 10
-2015.608781187012
 20
-786.5241751425453
 30
0.0
 11
453.5211445824027
 21
-786.5241751425453
 31
0.0
  0
LINE
  5
2D7
  8
0
  6
CENTER
 62
     4
 10
-765.7818919075446
 20
-1052.961095521264
 30
0.0
 11
-765.7818919075446
 21
-213.4517674096805
 31
0.0
  0
LINE
  5
2D8
  8
0
  6
CENTER
 62
     4
 10
953.3516268286863
 20
680.6721341720418
 30
0.0
 11
1661.365339182066
 21
680.6721341720418
 31
0.0
  0
LINE
  5
2D9
  8
0
  6
CENTER
 62
     4
 10
1462.126800805717
 20
-38.74258055372746
 30
0.0
 11
1462.126800805717
 21
1400.817486204737
 31
0.0
  0
LINE
  5
2DA
  8
0
  6
CENTER
 62
     4
 10
-1947.771778805213
 20
680.6721341720418
 30
0.0
 11
-546.1935021393206
 21
680.6721341720418
 31
0.0
  0
LINE
  5
2DB
  8
0
  6
CENTER
 62
     4
 10
-371.5213402809468
 20
680.6721341720418
 30
0.0
 11
446.6572799841717
 21
680.6721341720418
 31
0.0
  0
LINE
  5
2DC
  8
0
  6
CENTER
 62
     4
 10
-765.7818919075446
 20
-18.14836757444169
 30
0.0
 11
-765.7818919075446
 21
288.602978807556
 31
0.0
  0
LINE
  5
2DD
  8
0
  6
CENTER
 62
     4
 10
-765.7818919075446
 20
429.6843403085504
 30
0.0
 11
-765.7818919075446
 21
1400.817486204737
 31
0.0
  0
LINE
  5
2DE
  8
LAYER0001
  6
CONTINUOUS
 62
     4
 10
509.2181080924877
 20
-1101.524175142546
 30
0.0
 11
1034.569025716373
 21
-1101.524175142546
 31
0.0
  0
TEXT
  5
2DF
  8
LAYER0001
 62
     2
 10
524.2181080924878
 20
-1101.524175142546
 30
0.0
 40
75.0
  1
200(埋設寸法)
 41
0.8520710059171599
  7
DCSTYLE1
 72
     5
 11
1064.218108092488
 21
-1101.524175142546
 31
0.0
  0
LINE
  5
2E0
  8
ZUWAKU
  6
CONTINUOUS
 62
     3
 10
1502.499999999983
 20
-1740.000000000033
 30
0.0
 11
1502.499999999983
 21
-2077.500000000033
 31
0.0
  0
LINE
  5
2E1
  8
ZUWAKU
  6
CONTINUOUS
 62
     3
 10
1502.499999999983
 20
-1740.000000000033
 30
0.0
 11
2987.499999999983
 21
-1740.000000000032
 31
0.0
  0
LINE
  5
2E2
  8
ZUWAKU
  6
CONTINUOUS
 62
     4
 10
2585.31249999999
 20
-1740.000000000032
 30
0.0
 11
2585.312499999986
 21
-1920.000000000033
 31
0.0
  0
LINE
  5
2E3
  8
ZUWAKU
  6
CONTINUOUS
 62
     4
 10
1502.499999999983
 20
-1920.000000000034
 30
0.0
 11
2987.499999999983
 21
-1920.000000000032
 31
0.0
  0
LINE
  5
2E4
  8
ZUWAKU
  6
CONTINUOUS
 62
     4
 10
1581.249999999983
 20
-1740.000000000032
 30
0.0
 11
1581.249999999983
 21
-1920.000000000034
 31
0.0
  0
LINE
  5
2E5
  8
ZUWAKU
  6
CONTINUOUS
 62
     4
 10
2664.062499999983
 20
-1740.000000000032
 30
0.0
 11
2664.062499999985
 21
-1920.000000000033
 31
0.0
  0
LINE
  5
2E6
  8
ZUWAKU
  6
CONTINUOUS
 62
     4
 10
1877.49999999999
 20
-1083.750000000033
 30
0.0
 11
1877.499999999986
 21
-1740.000000000032
 31
0.0
  0
LINE
  5
2E7
  8
ZUWAKU
  6
CONTINUOUS
 62
     4
 10
2327.499999999983
 20
-1083.750000000034
 30
0.0
 11
2327.499999999986
 21
-1740.000000000032
 31
0.0
  0
LINE
  5
2E8
  8
ZUWAKU
  6
CONTINUOUS
 62
     4
 10
2477.499999999981
 20
-1083.750000000036
 30
0.0
 11
2477.499999999983
 21
-1740.000000000032
 31
0.0
  0
LINE
  5
2E9
  8
ZUWAKU
  6
CONTINUOUS
 62
     4
 10
1727.499999999988
 20
-1083.750000000032
 30
0.0
 11
1727.499999999985
 21
-1740.000000000033
 31
0.0
  0
LINE
  5
2EA
  8
ZUWAKU
  6
CONTINUOUS
 62
     4
 10
2244.999999999986
 20
-1920.000000000033
 30
0.0
 11
2244.999999999986
 21
-2077.500000000031
 31
0.0
  0
LINE
  5
2EB
  8
ZUWAKU
  6
CONTINUOUS
 62
     4
 10
1626.249999999983
 20
-1920.000000000034
 30
0.0
 11
1626.249999999983
 21
-2077.500000000031
 31
0.0
  0
ARC
  5
2EC
  8
ZUWAKU
  6
CONTINUOUS
 62
     4
 10
2391.191701170571
 20
-1965.697160894262
 30
0.0
 40
0.9762050030506856
 50
90.0
 51
270.0
  0
LINE
  5
2ED
  8
ZUWAKU
  6
CONTINUOUS
 62
     4
 10
2391.191701170571
 20
-1966.673365897303
 30
0.0
 11
2400.46564869955
 21
-1966.673365897303
 31
0.0
  0
ARC
  5
2EE
  8
ZUWAKU
  6
CONTINUOUS
 62
     4
 10
2400.46564869955
 20
-1981.804543444604
 30
0.0
 40
15.13117754728492
 50
0.0
 51
89.99999999999828
  0
LINE
  5
2EF
  8
ZUWAKU
  6
CONTINUOUS
 62
     4
 10
2415.59682624684
 20
-1981.804543444604
 30
0.0
 11
2415.59682624684
 21
-2043.793561138317
 31
0.0
  0
LINE
  5
2F0
  8
ZUWAKU
  6
CONTINUOUS
 62
     4
 10
2415.59682624684
 20
-2043.793561138317
 30
0.0
 11
2274.047100804488
 21
-2043.793561138317
 31
0.0
  0
LINE
  5
2F1
  8
ZUWAKU
  6
CONTINUOUS
 62
     4
 10
2274.047100804488
 20
-2043.793561138317
 30
0.0
 11
2274.047100804488
 21
-1981.804543444604
 31
0.0
  0
ARC
  5
2F2
  8
ZUWAKU
  6
CONTINUOUS
 62
     4
 10
2289.178278351778
 20
-1981.804543444604
 30
0.0
 40
15.13117754728492
 50
90.0
 51
180.0
  0
LINE
  5
2F3
  8
ZUWAKU
  6
CONTINUOUS
 62
     4
 10
2289.178278351778
 20
-1966.673365897303
 30
0.0
 11
2298.452225880756
 21
-1966.673365897303
 31
0.0
  0
ARC
  5
2F4
  8
ZUWAKU
  6
CONTINUOUS
 62
     4
 10
2298.452225880756
 20
-1965.697160894262
 30
0.0
 40
0.9762050030506765
 50
270.0
 51
90.0
  0
LINE
  5
2F5
  8
ZUWAKU
  6
CONTINUOUS
 62
     4
 10
2298.452225880756
 20
-1964.72095589122
 30
0.0
 11
2289.178278351778
 21
-1964.72095589122
 31
0.0
  0
ARC
  5
2F6
  8
ZUWAKU
  6
CONTINUOUS
 62
     4
 10
2289.178278351778
 20
-1981.804543444604
 30
0.0
 40
17.08358755338621
 50
90.00000000000152
 51
180.0
  0
LINE
  5
2F7
  8
ZUWAKU
  6
CONTINUOUS
 62
     4
 10
2272.094690798394
 20
-1981.804543444604
 30
0.0
 11
2272.094690798394
 21
-2045.745971144421
 31
0.0
  0
LINE
  5
2F8
  8
ZUWAKU
  6
CONTINUOUS
 62
     4
 10
2272.094690798394
 20
-2045.745971144421
 30
0.0
 11
2417.549236252933
 21
-2045.745971144421
 31
0.0
  0
LINE
  5
2F9
  8
ZUWAKU
  6
CONTINUOUS
 62
     4
 10
2417.549236252933
 20
-2045.745971144421
 30
0.0
 11
2417.549236252933
 21
-1981.804543444604
 31
0.0
  0
ARC
  5
2FA
  8
ZUWAKU
  6
CONTINUOUS
 62
     4
 10
2400.46564869955
 20
-1981.804543444604
 30
0.0
 40
17.08358755338621
 50
0.0
 51
89.99999999999847
  0
LINE
  5
2FB
  8
ZUWAKU
  6
CONTINUOUS
 62
     4
 10
2400.46564869955
 20
-1964.72095589122
 30
0.0
 11
2391.191701170571
 21
-1964.72095589122
 31
0.0
  0
LINE
  5
2FC
  8
ZUWAKU
  6
CONTINUOUS
 62
     4
 10
2376.480723927739
 20
-2017.841228112485
 30
0.0
 11
2376.723545085091
 21
-2015.988499703834
 31
0.0
  0
LINE
  5
2FD
  8
ZUWAKU
  6
CONTINUOUS
 62
     4
 10
2376.723545085091
 20
-2015.988499703834
 30
0.0
 11
2376.738434963124
 21
-2014.105925542373
 31
0.0
  0
LINE
  5
2FE
  8
ZUWAKU
  6
CONTINUOUS
 62
     4
 10
2376.738434963124
 20
-2014.105925542373
 30
0.0
 11
2376.525280240861
 21
-2012.207833154213
 31
0.0
  0
LINE
  5
2FF
  8
ZUWAKU
  6
CONTINUOUS
 62
     4
 10
2376.525280240861
 20
-2012.207833154213
 30
0.0
 11
2376.085703154461
 21
-2010.308668168549
 31
0.0
  0
LINE
  5
300
  8
ZUWAKU
  6
CONTINUOUS
 62
     4
 10
2376.085703154461
 20
-2010.308668168549
 30
0.0
 11
2375.423049150957
 21
-2008.422884377661
 31
0.0
  0
LINE
  5
301
  8
ZUWAKU
  6
CONTINUOUS
 62
     4
 10
2375.423049150957
 20
-2008.422884377661
 30
0.0
 11
2375.287062409592
 21
-2008.135983305382
 31
0.0
  0
LINE
  5
302
  8
ZUWAKU
  6
CONTINUOUS
 62
     4
 10
2370.936228632107
 20
-2001.602663216005
 30
0.0
 11
2370.667100127726
 21
-2001.296790939281
 31
0.0
  0
LINE
  5
303
  8
ZUWAKU
  6
CONTINUOUS
 62
     4
 10
2370.667100127726
 20
-2001.296790939281
 30
0.0
 11
2368.99705873971
 21
-1999.687372144546
 31
0.0
  0
LINE
  5
304
  8
ZUWAKU
  6
CONTINUOUS
 62
     4
 10
2368.99705873971
 20
-1999.687372144546
 30
0.0
 11
2367.15788929884
 21
-1998.172169020621
 31
0.0
  0
LINE
  5
305
  8
ZUWAKU
  6
CONTINUOUS
 62
     4
 10
2367.15788929884
 20
-1998.172169020621
 30
0.0
 11
2365.163588995082
 21
-1996.762713178215
 31
0.0
  0
LINE
  5
306
  8
ZUWAKU
  6
CONTINUOUS
 62
     4
 10
2365.163588995082
 20
-1996.762713178215
 30
0.0
 11
2363.029335657934
 21
-1995.469731427323
 31
0.0
  0
LINE
  5
307
  8
ZUWAKU
  6
CONTINUOUS
 62
     4
 10
2363.029335657934
 20
-1995.469731427323
 30
0.0
 11
2360.771372243985
 21
-1994.303064139787
 31
0.0
  0
LINE
  5
308
  8
ZUWAKU
  6
CONTINUOUS
 62
     4
 10
2360.771372243985
 20
-1994.303064139787
 30
0.0
 11
2358.406883218229
 21
-1993.27159035813
 31
0.0
  0
LINE
  5
309
  8
ZUWAKU
  6
CONTINUOUS
 62
     4
 10
2358.406883218229
 20
-1993.27159035813
 30
0.0
 11
2355.953863769846
 21
-1992.383160220644
 31
0.0
  0
LINE
  5
30A
  8
ZUWAKU
  6
CONTINUOUS
 62
     4
 10
2355.953863769846
 20
-1992.383160220644
 30
0.0
 11
2353.430982858033
 21
-1991.644535217139
 31
0.0
  0
LINE
  5
30B
  8
ZUWAKU
  6
CONTINUOUS
 62
     4
 10
2353.430982858033
 20
-1991.644535217139
 30
0.0
 11
2350.857441129873
 21
-1991.061336729871
 31
0.0
  0
LINE
  5
30C
  8
ZUWAKU
  6
CONTINUOUS
 62
     4
 10
2350.857441129873
 20
-1991.061336729871
 30
0.0
 11
2348.25282479186
 21
-1990.638003251478
 31
0.0
  0
LINE
  5
30D
  8
ZUWAKU
  6
CONTINUOUS
 62
     4
 10
2348.25282479186
 20
-1990.638003251478
 30
0.0
 11
2345.636956547055
 21
-1990.377756605336
 31
0.0
  0
LINE
  5
30E
  8
ZUWAKU
  6
CONTINUOUS
 62
     4
 10
2345.636956547055
 20
-1990.377756605336
 30
0.0
 11
2343.029744732292
 21
-1990.282577425588
 31
0.0
  0
LINE
  5
30F
  8
ZUWAKU
  6
CONTINUOUS
 62
     4
 10
2343.029744732292
 20
-1990.282577425588
 30
0.0
 11
2340.451031803756
 21
-1990.353190083223
 31
0.0
  0
LINE
  5
310
  8
ZUWAKU
  6
CONTINUOUS
 62
     4
 10
2340.451031803756
 20
-1990.353190083223
 30
0.0
 11
2337.920443323911
 21
-1990.589057173317
 31
0.0
  0
LINE
  5
311
  8
ZUWAKU
  6
CONTINUOUS
 62
     4
 10
2337.920443323911
 20
-1990.589057173317
 30
0.0
 11
2335.457238599106
 21
-1990.988383604894
 31
0.0
  0
LINE
  5
312
  8
ZUWAKU
  6
CONTINUOUS
 62
     4
 10
2335.457238599106
 20
-1990.988383604894
 30
0.0
 11
2333.080164104606
 21
-1991.548130262653
 31
0.0
  0
LINE
  5
313
  8
ZUWAKU
  6
CONTINUOUS
 62
     4
 10
2333.080164104606
 20
-1991.548130262653
 30
0.0
 11
2330.807310812634
 21
-1992.264037136578
 31
0.0
  0
LINE
  5
314
  8
ZUWAKU
  6
CONTINUOUS
 62
     4
 10
2330.807310812634
 20
-1992.264037136578
 30
0.0
 11
2328.655976509131
 21
-1993.130655743081
 31
0.0
  0
LINE
  5
315
  8
ZUWAKU
  6
CONTINUOUS
 62
     4
 10
2328.655976509131
 20
-1993.130655743081
 30
0.0
 11
2326.642534147159
 21
-1994.141390591259
 31
0.0
  0
LINE
  5
316
  8
ZUWAKU
  6
CONTINUOUS
 62
     4
 10
2326.642534147159
 20
-1994.141390591259
 30
0.0
 11
2324.782307238838
 21
-1995.288549378642
 31
0.0
  0
LINE
  5
317
  8
ZUWAKU
  6
CONTINUOUS
 62
     4
 10
2324.782307238838
 20
-1995.288549378642
 30
0.0
 11
2323.089453234181
 21
-1996.563401534203
 31
0.0
  0
LINE
  5
318
  8
ZUWAKU
  6
CONTINUOUS
 62
     4
 10
2323.089453234181
 20
-1996.563401534203
 30
0.0
 11
2321.576855774334
 21
-1997.956244663218
 31
0.0
  0
LINE
  5
319
  8
ZUWAKU
  6
CONTINUOUS
 62
     4
 10
2321.576855774334
 20
-1997.956244663218
 30
0.0
 11
2320.256026639293
 21
-1999.456478388473
 31
0.0
  0
LINE
  5
31A
  8
ZUWAKU
  6
CONTINUOUS
 62
     4
 10
2320.256026639293
 20
-1999.456478388473
 30
0.0
 11
2319.937485408791
 21
-1999.910860660774
 31
0.0
  0
LINE
  5
31B
  8
ZUWAKU
  6
CONTINUOUS
 62
     4
 10
2318.719866175544
 20
-2001.823952071144
 30
0.0
 11
2318.228346595808
 21
-2002.732716477862
 31
0.0
  0
LINE
  5
31C
  8
ZUWAKU
  6
CONTINUOUS
 62
     4
 10
2318.228346595808
 20
-2002.732716477862
 30
0.0
 11
2318.200048601701
 21
-2002.80438325557
 31
0.0
  0
LINE
  5
31D
  8
ZUWAKU
  6
CONTINUOUS
 62
     4
 10
2317.499825399625
 20
-2004.626906955342
 30
0.0
 11
2317.068023135787
 21
-2006.292568965843
 31
0.0
  0
LINE
  5
31E
  8
ZUWAKU
  6
CONTINUOUS
 62
     4
 10
2317.068023135787
 20
-2006.292568965843
 30
0.0
 11
2316.825201978435
 21
-2008.145297374514
 31
0.0
  0
LINE
  5
31F
  8
ZUWAKU
  6
CONTINUOUS
 62
     4
 10
2316.825201978435
 20
-2008.145297374514
 30
0.0
 11
2316.810312100411
 21
-2010.027871535955
 31
0.0
  0
LINE
  5
320
  8
ZUWAKU
  6
CONTINUOUS
 62
     4
 10
2316.810312100411
 20
-2010.027871535955
 30
0.0
 11
2317.023466822675
 21
-2011.925963924115
 31
0.0
  0
LINE
  5
321
  8
ZUWAKU
  6
CONTINUOUS
 62
     4
 10
2317.023466822675
 20
-2011.925963924115
 30
0.0
 11
2317.463043909075
 21
-2013.825128909779
 31
0.0
  0
LINE
  5
322
  8
ZUWAKU
  6
CONTINUOUS
 62
     4
 10
2317.463043909075
 20
-2013.825128909779
 30
0.0
 11
2318.125697912578
 21
-2015.710912700687
 31
0.0
  0
LINE
  5
323
  8
ZUWAKU
  6
CONTINUOUS
 62
     4
 10
2318.125697912578
 20
-2015.710912700687
 30
0.0
 11
2319.006385636081
 21
-2017.568963343496
 31
0.0
  0
LINE
  5
324
  8
ZUWAKU
  6
CONTINUOUS
 62
     4
 10
2319.006385636081
 20
-2017.568963343496
 30
0.0
 11
2320.098404514236
 21
-2019.385139950904
 31
0.0
  0
LINE
  5
325
  8
ZUWAKU
  6
CONTINUOUS
 62
     4
 10
2320.098404514236
 20
-2019.385139950904
 30
0.0
 11
2321.393443624012
 21
-2021.145620322301
 31
0.0
  0
LINE
  5
326
  8
ZUWAKU
  6
CONTINUOUS
 62
     4
 10
2321.393443624012
 20
-2021.145620322301
 30
0.0
 11
2322.881646935809
 21
-2022.837006139046
 31
0.0
  0
LINE
  5
327
  8
ZUWAKU
  6
CONTINUOUS
 62
     4
 10
2322.881646935809
 20
-2022.837006139046
 30
0.0
 11
2324.551688323816
 21
-2024.446424933802
 31
0.0
  0
LINE
  5
328
  8
ZUWAKU
  6
CONTINUOUS
 62
     4
 10
2324.551688323816
 20
-2024.446424933802
 30
0.0
 11
2326.390857764686
 21
-2025.961628057706
 31
0.0
  0
LINE
  5
329
  8
ZUWAKU
  6
CONTINUOUS
 62
     4
 10
2326.390857764686
 20
-2025.961628057706
 30
0.0
 11
2328.385158068454
 21
-2027.371083900112
 31
0.0
  0
LINE
  5
32A
  8
ZUWAKU
  6
CONTINUOUS
 62
     4
 10
2328.385158068454
 20
-2027.371083900112
 30
0.0
 11
2330.519411405602
 21
-2028.664065651024
 31
0.0
  0
LINE
  5
32B
  8
ZUWAKU
  6
CONTINUOUS
 62
     4
 10
2330.519411405602
 20
-2028.664065651024
 30
0.0
 11
2332.777374819541
 21
-2029.830732938541
 31
0.0
  0
LINE
  5
32C
  8
ZUWAKU
  6
CONTINUOUS
 62
     4
 10
2332.777374819541
 20
-2029.830732938541
 30
0.0
 11
2335.141863845307
 21
-2030.862206720197
 31
0.0
  0
LINE
  5
32D
  8
ZUWAKU
  6
CONTINUOUS
 62
     4
 10
2335.141863845307
 20
-2030.862206720197
 30
0.0
 11
2337.59488329368
 21
-2031.750636857683
 31
0.0
  0
LINE
  5
32E
  8
ZUWAKU
  6
CONTINUOUS
 62
     4
 10
2337.59488329368
 20
-2031.750636857683
 30
0.0
 11
2340.117764205503
 21
-2032.489261861188
 31
0.0
  0
LINE
  5
32F
  8
ZUWAKU
  6
CONTINUOUS
 62
     4
 10
2340.117764205503
 20
-2032.489261861188
 30
0.0
 11
2342.691305933663
 21
-2033.072460348456
 31
0.0
  0
LINE
  5
330
  8
ZUWAKU
  6
CONTINUOUS
 62
     4
 10
2342.691305933663
 20
-2033.072460348456
 30
0.0
 11
2345.295922271665
 21
-2033.49579382687
 31
0.0
  0
LINE
  5
331
  8
ZUWAKU
  6
CONTINUOUS
 62
     4
 10
2345.295922271665
 20
-2033.49579382687
 30
0.0
 11
2347.911790516481
 21
-2033.756040472991
 31
0.0
  0
LINE
  5
332
  8
ZUWAKU
  6
CONTINUOUS
 62
     4
 10
2347.911790516481
 20
-2033.756040472991
 30
0.0
 11
2350.519002331243
 21
-2033.851219652759
 31
0.0
  0
LINE
  5
333
  8
ZUWAKU
  6
CONTINUOUS
 62
     4
 10
2350.519002331243
 20
-2033.851219652759
 30
0.0
 11
2353.09771525977
 21
-2033.780606995104
 31
0.0
  0
LINE
  5
334
  8
ZUWAKU
  6
CONTINUOUS
 62
     4
 10
2353.09771525977
 20
-2033.780606995104
 30
0.0
 11
2355.628303739614
 21
-2033.544739905011
 31
0.0
  0
LINE
  5
335
  8
ZUWAKU
  6
CONTINUOUS
 62
     4
 10
2355.628303739614
 20
-2033.544739905011
 30
0.0
 11
2358.09150846443
 21
-2033.145413473454
 31
0.0
  0
LINE
  5
336
  8
ZUWAKU
  6
CONTINUOUS
 62
     4
 10
2358.09150846443
 20
-2033.145413473454
 30
0.0
 11
2360.46858295893
 21
-2032.585666815674
 31
0.0
  0
LINE
  5
337
  8
ZUWAKU
  6
CONTINUOUS
 62
     4
 10
2360.46858295893
 20
-2032.585666815674
 30
0.0
 11
2362.741436250902
 21
-2031.86975994175
 31
0.0
  0
LINE
  5
338
  8
ZUWAKU
  6
CONTINUOUS
 62
     4
 10
2362.741436250902
 20
-2031.86975994175
 30
0.0
 11
2364.892770554405
 21
-2031.003141335267
 31
0.0
  0
LINE
  5
339
  8
ZUWAKU
  6
CONTINUOUS
 62
     4
 10
2364.892770554405
 20
-2031.003141335267
 30
0.0
 11
2366.906212916377
 21
-2029.992406487068
 31
0.0
  0
LINE
  5
33A
  8
ZUWAKU
  6
CONTINUOUS
 62
     4
 10
2366.906212916377
 20
-2029.992406487068
 30
0.0
 11
2368.766439824697
 21
-2028.845247699686
 31
0.0
  0
LINE
  5
33B
  8
ZUWAKU
  6
CONTINUOUS
 62
     4
 10
2368.766439824697
 20
-2028.845247699686
 30
0.0
 11
2370.459293829354
 21
-2027.570395544145
 31
0.0
  0
LINE
  5
33C
  8
ZUWAKU
  6
CONTINUOUS
 62
     4
 10
2370.459293829354
 20
-2027.570395544145
 30
0.0
 11
2371.971891289202
 21
-2026.177552415109
 31
0.0
  0
LINE
  5
33D
  8
ZUWAKU
  6
CONTINUOUS
 62
     4
 10
2371.971891289202
 20
-2026.177552415109
 30
0.0
 11
2372.393541697174
 21
-2025.698630391422
 31
0.0
  0
LINE
  5
33E
  8
ZUWAKU
  6
CONTINUOUS
 62
     4
 10
2373.693115715917
 20
-2024.106175914525
 30
0.0
 11
2374.411728927197
 21
-2023.081112052877
 31
0.0
  0
LINE
  5
33F
  8
ZUWAKU
  6
CONTINUOUS
 62
     4
 10
2374.411728927197
 20
-2023.081112052877
 30
0.0
 11
2374.990859958405
 21
-2022.010363928722
 31
0.0
  0
LINE
  5
340
  8
ZUWAKU
  6
CONTINUOUS
 62
     4
 10
2375.836256787804
 20
-2020.094636048192
 30
0.0
 11
2376.011819506691
 21
-2019.650010386469
 31
0.0
  0
LINE
  5
341
  8
ZUWAKU
  6
CONTINUOUS
 62
     4
 10
2376.011819506691
 20
-2019.650010386469
 30
0.0
 11
2376.480723927739
 21
-2017.841228112485
 31
0.0
  0
LINE
  5
342
  8
ZUWAKU
  6
CONTINUOUS
 62
     4
 10
2374.564185192517
 20
-2017.468690720656
 30
0.0
 11
2374.791340468753
 21
-2015.735493177073
 31
0.0
  0
LINE
  5
343
  8
ZUWAKU
  6
CONTINUOUS
 62
     4
 10
2374.791340468753
 20
-2015.735493177073
 30
0.0
 11
2374.805269709489
 21
-2013.97437541314
 31
0.0
  0
LINE
  5
344
  8
ZUWAKU
  6
CONTINUOUS
 62
     4
 10
2374.805269709489
 20
-2013.97437541314
 30
0.0
 11
2374.605866904791
 21
-2012.1987405984
 31
0.0
  0
LINE
  5
345
  8
ZUWAKU
  6
CONTINUOUS
 62
     4
 10
2374.605866904791
 20
-2012.1987405984
 30
0.0
 11
2374.194649630415
 21
-2010.422102386011
 31
0.0
  0
LINE
  5
346
  8
ZUWAKU
  6
CONTINUOUS
 62
     4
 10
2374.194649630415
 20
-2010.422102386011
 30
0.0
 11
2373.657174161488
 21
-2008.892552240765
 31
0.0
  0
LINE
  5
347
  8
ZUWAKU
  6
CONTINUOUS
 62
     4
 10
2372.839396373417
 20
-2007.106558566046
 30
0.0
 11
2372.750878337406
 21
-2006.919805657705
 31
0.0
  0
LINE
  5
348
  8
ZUWAKU
  6
CONTINUOUS
 62
     4
 10
2372.750878337406
 20
-2006.919805657705
 30
0.0
 11
2371.729312290097
 21
-2005.220801734642
 31
0.0
  0
LINE
  5
349
  8
ZUWAKU
  6
CONTINUOUS
 62
     4
 10
2371.729312290097
 20
-2005.220801734642
 30
0.0
 11
2370.493971939973
 21
-2003.541476050961
 31
0.0
  0
LINE
  5
34A
  8
ZUWAKU
  6
CONTINUOUS
 62
     4
 10
2368.643071631893
 20
-2001.526591363485
 30
0.0
 11
2367.563337113395
 21
-2000.486051266775
 31
0.0
  0
LINE
  5
34B
  8
ZUWAKU
  6
CONTINUOUS
 62
     4
 10
2367.563337113395
 20
-2000.486051266775
 30
0.0
 11
2365.842823765486
 21
-1999.068603183106
 31
0.0
  0
LINE
  5
34C
  8
ZUWAKU
  6
CONTINUOUS
 62
     4
 10
2365.842823765486
 20
-1999.068603183106
 30
0.0
 11
2363.97718799745
 21
-1997.750079975684
 31
0.0
  0
LINE
  5
34D
  8
ZUWAKU
  6
CONTINUOUS
 62
     4
 10
2363.97718799745
 20
-1997.750079975684
 30
0.0
 11
2361.98062842398
 21
-1996.540516402282
 31
0.0
  0
LINE
  5
34E
  8
ZUWAKU
  6
CONTINUOUS
 62
     4
 10
2361.98062842398
 20
-1996.540516402282
 30
0.0
 11
2359.868340069006
 21
-1995.449117971999
 31
0.0
  0
LINE
  5
34F
  8
ZUWAKU
  6
CONTINUOUS
 62
     4
 10
2359.868340069006
 20
-1995.449117971999
 30
0.0
 11
2357.65639872232
 21
-1994.484190885936
 31
0.0
  0
LINE
  5
350
  8
ZUWAKU
  6
CONTINUOUS
 62
     4
 10
2357.65639872232
 20
-1994.484190885936
 30
0.0
 11
2355.361638593197
 21
-1993.653078821846
 31
0.0
  0
LINE
  5
351
  8
ZUWAKU
  6
CONTINUOUS
 62
     4
 10
2355.361638593197
 20
-1993.653078821846
 30
0.0
 11
2353.001524191818
 21
-1992.962107044356
 31
0.0
  0
LINE
  5
352
  8
ZUWAKU
  6
CONTINUOUS
 62
     4
 10
2353.001524191818
 20
-1992.962107044356
 30
0.0
 11
2350.594017413865
 21
-1992.416534265957
 31
0.0
  0
LINE
  5
353
  8
ZUWAKU
  6
CONTINUOUS
 62
     4
 10
2350.594017413865
 20
-1992.416534265957
 30
0.0
 11
2348.157440839599
 21
-1992.020512624867
 31
0.0
  0
LINE
  5
354
  8
ZUWAKU
  6
CONTINUOUS
 62
     4
 10
2348.157440839599
 20
-1992.020512624867
 30
0.0
 11
2345.710338288007
 21
-1991.777056084947
 31
0.0
  0
LINE
  5
355
  8
ZUWAKU
  6
CONTINUOUS
 62
     4
 10
2345.710338288007
 20
-1991.777056084947
 30
0.0
 11
2343.271333687096
 21
-1991.688017497428
 31
0.0
  0
LINE
  5
356
  8
ZUWAKU
  6
CONTINUOUS
 62
     4
 10
2343.271333687096
 20
-1991.688017497428
 30
0.0
 11
2340.858989334593
 21
-1991.754074499749
 31
0.0
  0
LINE
  5
357
  8
ZUWAKU
  6
CONTINUOUS
 62
     4
 10
2340.858989334593
 20
-1991.754074499749
 30
0.0
 11
2338.491664627646
 21
-1991.974724358228
 31
0.0
  0
LINE
  5
358
  8
ZUWAKU
  6
CONTINUOUS
 62
     4
 10
2338.491664627646
 20
-1991.974724358228
 30
0.0
 11
2336.187376336696
 21
-1992.348287794192
 31
0.0
  0
LINE
  5
359
  8
ZUWAKU
  6
CONTINUOUS
 62
     4
 10
2336.187376336696
 20
-1992.348287794192
 30
0.0
 11
2333.963661487001
 21
-1992.871921764373
 31
0.0
  0
LINE
  5
35A
  8
ZUWAKU
  6
CONTINUOUS
 62
     4
 10
2333.963661487001
 20
-1992.871921764373
 30
0.0
 11
2331.837443891289
 21
-1993.541641098044
 31
0.0
  0
LINE
  5
35B
  8
ZUWAKU
  6
CONTINUOUS
 62
     4
 10
2331.837443891289
 20
-1993.541641098044
 30
0.0
 11
2329.824905349302
 21
-1994.3523488267
 31
0.0
  0
LINE
  5
35C
  8
ZUWAKU
  6
CONTINUOUS
 62
     4
 10
2329.824905349302
 20
-1994.3523488267
 30
0.0
 11
2327.941362494555
 21
-1995.297874974998
 31
0.0
  0
LINE
  5
35D
  8
ZUWAKU
  6
CONTINUOUS
 62
     4
 10
2327.941362494555
 20
-1995.297874974998
 30
0.0
 11
2326.20115022548
 21
-1996.371023518037
 31
0.0
  0
LINE
  5
35E
  8
ZUWAKU
  6
CONTINUOUS
 62
     4
 10
2326.20115022548
 20
-1996.371023518037
 30
0.0
 11
2324.617512608222
 21
-1997.563627147416
 31
0.0
  0
LINE
  5
35F
  8
ZUWAKU
  6
CONTINUOUS
 62
     4
 10
2324.617512608222
 20
-1997.563627147416
 30
0.0
 11
2323.202502081265
 21
-1998.866609429409
 31
0.0
  0
LINE
  5
360
  8
ZUWAKU
  6
CONTINUOUS
 62
     4
 10
2323.202502081265
 20
-1998.866609429409
 30
0.0
 11
2322.216563388703
 21
-1999.986465464073
 31
0.0
  0
LINE
  5
361
  8
ZUWAKU
  6
CONTINUOUS
 62
     4
 10
2320.849054891897
 20
-2001.894584535445
 30
0.0
 11
2320.070025752972
 21
-2003.334921772138
 31
0.0
  0
LINE
  5
362
  8
ZUWAKU
  6
CONTINUOUS
 62
     4
 10
2320.070025752972
 20
-2003.334921772138
 30
0.0
 11
2320.005810972826
 21
-2003.49755048566
 31
0.0
  0
LINE
  5
363
  8
ZUWAKU
  6
CONTINUOUS
 62
     4
 10
2319.330741699288
 20
-2005.329729873946
 30
0.0
 11
2318.984561871019
 21
-2006.665106357672
 31
0.0
  0
LINE
  5
364
  8
ZUWAKU
  6
CONTINUOUS
 62
     4
 10
2318.984561871019
 20
-2006.665106357672
 30
0.0
 11
2318.757406594783
 21
-2008.398303901255
 31
0.0
  0
LINE
  5
365
  8
ZUWAKU
  6
CONTINUOUS
 62
     4
 10
2318.757406594783
 20
-2008.398303901255
 30
0.0
 11
2318.743477354046
 21
-2010.159421665209
 31
0.0
  0
LINE
  5
366
  8
ZUWAKU
  6
CONTINUOUS
 62
     4
 10
2318.743477354046
 20
-2010.159421665209
 30
0.0
 11
2318.942880158745
 21
-2011.935056479928
 31
0.0
  0
LINE
  5
367
  8
ZUWAKU
  6
CONTINUOUS
 62
     4
 10
2318.942880158745
 20
-2011.935056479928
 30
0.0
 11
2319.354097433121
 21
-2013.711694692317
 31
0.0
  0
LINE
  5
368
  8
ZUWAKU
  6
CONTINUOUS
 62
     4
 10
2319.354097433121
 20
-2013.711694692317
 30
0.0
 11
2319.973999565425
 21
-2015.475815012845
 31
0.0
  0
LINE
  5
369
  8
ZUWAKU
  6
CONTINUOUS
 62
     4
 10
2319.973999565425
 20
-2015.475815012845
 30
0.0
 11
2320.79786872612
 21
-2017.213991420644
 31
0.0
  0
LINE
  5
36A
  8
ZUWAKU
  6
CONTINUOUS
 62
     4
 10
2320.79786872612
 20
-2017.213991420644
 30
0.0
 11
2321.819434773429
 21
-2018.912995343707
 31
0.0
  0
LINE
  5
36B
  8
ZUWAKU
  6
CONTINUOUS
 62
     4
 10
2321.819434773429
 20
-2018.912995343707
 30
0.0
 11
2323.030922972896
 21
-2020.559896336298
 31
0.0
  0
LINE
  5
36C
  8
ZUWAKU
  6
CONTINUOUS
 62
     4
 10
2323.030922972896
 20
-2020.559896336298
 30
0.0
 11
2324.4231131678
 21
-2022.142160487443
 31
0.0
  0
LINE
  5
36D
  8
ZUWAKU
  6
CONTINUOUS
 62
     4
 10
2324.4231131678
 20
-2022.142160487443
 30
0.0
 11
2325.985409950141
 21
-2023.647745811553
 31
0.0
  0
LINE
  5
36E
  8
ZUWAKU
  6
CONTINUOUS
 62
     4
 10
2325.985409950141
 20
-2023.647745811553
 30
0.0
 11
2327.70592329805
 21
-2025.065193895221
 31
0.0
  0
LINE
  5
36F
  8
ZUWAKU
  6
CONTINUOUS
 62
     4
 10
2327.70592329805
 20
-2025.065193895221
 30
0.0
 11
2329.571559066086
 21
-2026.383717102643
 31
0.0
  0
LINE
  5
370
  8
ZUWAKU
  6
CONTINUOUS
 62
     4
 10
2329.571559066086
 20
-2026.383717102643
 30
0.0
 11
2331.568118639545
 21
-2027.593280676066
 31
0.0
  0
LINE
  5
371
  8
ZUWAKU
  6
CONTINUOUS
 62
     4
 10
2331.568118639545
 20
-2027.593280676066
 30
0.0
 11
2333.68040699453
 21
-2028.684679106328
 31
0.0
  0
LINE
  5
372
  8
ZUWAKU
  6
CONTINUOUS
 62
     4
 10
2333.68040699453
 20
-2028.684679106328
 30
0.0
 11
2335.892348341206
 21
-2029.649606192391
 31
0.0
  0
LINE
  5
373
  8
ZUWAKU
  6
CONTINUOUS
 62
     4
 10
2335.892348341206
 20
-2029.649606192391
 30
0.0
 11
2338.187108470339
 21
-2030.480718256482
 31
0.0
  0
LINE
  5
374
  8
ZUWAKU
  6
CONTINUOUS
 62
     4
 10
2338.187108470339
 20
-2030.480718256482
 30
0.0
 11
2340.547222871708
 21
-2031.171690033972
 31
0.0
  0
LINE
  5
375
  8
ZUWAKU
  6
CONTINUOUS
 62
     4
 10
2340.547222871708
 20
-2031.171690033972
 30
0.0
 11
2342.954729649671
 21
-2031.71726281237
 31
0.0
  0
LINE
  5
376
  8
ZUWAKU
  6
CONTINUOUS
 62
     4
 10
2342.954729649671
 20
-2031.71726281237
 30
0.0
 11
2345.391306223937
 21
-2032.113284453461
 31
0.0
  0
LINE
  5
377
  8
ZUWAKU
  6
CONTINUOUS
 62
     4
 10
2345.391306223937
 20
-2032.113284453461
 30
0.0
 11
2347.838408775528
 21
-2032.356740993401
 31
0.0
  0
LINE
  5
378
  8
ZUWAKU
  6
CONTINUOUS
 62
     4
 10
2347.838408775528
 20
-2032.356740993401
 30
0.0
 11
2350.27741337644
 21
-2032.445779580899
 31
0.0
  0
LINE
  5
379
  8
ZUWAKU
  6
CONTINUOUS
 62
     4
 10
2350.27741337644
 20
-2032.445779580899
 30
0.0
 11
2352.689757728932
 21
-2032.379722578599
 31
0.0
  0
LINE
  5
37A
  8
ZUWAKU
  6
CONTINUOUS
 62
     4
 10
2352.689757728932
 20
-2032.379722578599
 30
0.0
 11
2355.057082435879
 21
-2032.15907272012
 31
0.0
  0
LINE
  5
37B
  8
ZUWAKU
  6
CONTINUOUS
 62
     4
 10
2355.057082435879
 20
-2032.15907272012
 30
0.0
 11
2357.36137072684
 21
-2031.785509284135
 31
0.0
  0
LINE
  5
37C
  8
ZUWAKU
  6
CONTINUOUS
 62
     4
 10
2357.36137072684
 20
-2031.785509284135
 30
0.0
 11
2359.585085576535
 21
-2031.261875313975
 31
0.0
  0
LINE
  5
37D
  8
ZUWAKU
  6
CONTINUOUS
 62
     4
 10
2359.585085576535
 20
-2031.261875313975
 30
0.0
 11
2361.711303172247
 21
-2030.592155980283
 31
0.0
  0
LINE
  5
37E
  8
ZUWAKU
  6
CONTINUOUS
 62
     4
 10
2361.711303172247
 20
-2030.592155980283
 30
0.0
 11
2363.723841714234
 21
-2029.781448251648
 31
0.0
  0
LINE
  5
37F
  8
ZUWAKU
  6
CONTINUOUS
 62
     4
 10
2363.723841714234
 20
-2029.781448251648
 30
0.0
 11
2365.607384568981
 21
-2028.835922103329
 31
0.0
  0
LINE
  5
380
  8
ZUWAKU
  6
CONTINUOUS
 62
     4
 10
2365.607384568981
 20
-2028.835922103329
 30
0.0
 11
2367.347596838056
 21
-2027.76277356029
 31
0.0
  0
LINE
  5
381
  8
ZUWAKU
  6
CONTINUOUS
 62
     4
 10
2367.347596838056
 20
-2027.76277356029
 30
0.0
 11
2368.931234455314
 21
-2026.570169930911
 31
0.0
  0
LINE
  5
382
  8
ZUWAKU
  6
CONTINUOUS
 62
     4
 10
2368.931234455314
 20
-2026.570169930911
 30
0.0
 11
2370.346244982271
 21
-2025.267187648918
 31
0.0
  0
LINE
  5
383
  8
ZUWAKU
  6
CONTINUOUS
 62
     4
 10
2370.346244982271
 20
-2025.267187648918
 30
0.0
 11
2370.579477112175
 21
-2025.002276240008
 31
0.0
  0
LINE
  5
384
  8
ZUWAKU
  6
CONTINUOUS
 62
     4
 10
2371.895619001137
 20
-2023.416181572619
 30
0.0
 11
2372.628673740403
 21
-2022.37051763262
 31
0.0
  0
LINE
  5
385
  8
ZUWAKU
  6
CONTINUOUS
 62
     4
 10
2372.628673740403
 20
-2022.37051763262
 30
0.0
 11
2373.478721310564
 21
-2020.79887530619
 31
0.0
  0
LINE
  5
386
  8
ZUWAKU
  6
CONTINUOUS
 62
     4
 10
2373.478721310564
 20
-2020.79887530619
 30
0.0
 11
2373.563829218946
 21
-2020.583333189253
 31
0.0
  0
LINE
  5
387
  8
ZUWAKU
  6
CONTINUOUS
 62
     4
 10
2374.285464954137
 20
-2018.543844214525
 30
0.0
 11
2374.564185192517
 21
-2017.468690720656
 31
0.0
  0
LINE
  5
388
  8
ZUWAKU
  6
CONTINUOUS
 62
     4
 10
2316.136679656224
 20
-2011.083915803898
 30
0.0
 11
2315.893858498872
 21
-2012.93664421257
 31
0.0
  0
LINE
  5
389
  8
ZUWAKU
  6
CONTINUOUS
 62
     4
 10
2315.893858498872
 20
-2012.93664421257
 30
0.0
 11
2315.878968620839
 21
-2014.819218374031
 31
0.0
  0
LINE
  5
38A
  8
ZUWAKU
  6
CONTINUOUS
 62
     4
 10
2315.878968620839
 20
-2014.819218374031
 30
0.0
 11
2316.092123343102
 21
-2016.717310762171
 31
0.0
  0
LINE
  5
38B
  8
ZUWAKU
  6
CONTINUOUS
 62
     4
 10
2316.092123343102
 20
-2016.717310762171
 30
0.0
 11
2316.531700429503
 21
-2018.616475747835
 31
0.0
  0
LINE
  5
38C
  8
ZUWAKU
  6
CONTINUOUS
 62
     4
 10
2316.531700429503
 20
-2018.616475747835
 30
0.0
 11
2317.194354433005
 21
-2020.502259538743
 31
0.0
  0
LINE
  5
38D
  8
ZUWAKU
  6
CONTINUOUS
 62
     4
 10
2317.194354433005
 20
-2020.502259538743
 30
0.0
 11
2318.075042156509
 21
-2022.360310181551
 31
0.0
  0
LINE
  5
38E
  8
ZUWAKU
  6
CONTINUOUS
 62
     4
 10
2318.075042156509
 20
-2022.360310181551
 30
0.0
 11
2319.167061034664
 21
-2024.17648678898
 31
0.0
  0
LINE
  5
38F
  8
ZUWAKU
  6
CONTINUOUS
 62
     4
 10
2319.167061034664
 20
-2024.17648678898
 30
0.0
 11
2320.462100144439
 21
-2025.936967160377
 31
0.0
  0
LINE
  5
390
  8
ZUWAKU
  6
CONTINUOUS
 62
     4
 10
2320.462100144439
 20
-2025.936967160377
 30
0.0
 11
2321.950303456236
 21
-2027.628352977102
 31
0.0
  0
LINE
  5
391
  8
ZUWAKU
  6
CONTINUOUS
 62
     4
 10
2321.950303456236
 20
-2027.628352977102
 30
0.0
 11
2323.620344844253
 21
-2029.237771771858
 31
0.0
  0
LINE
  5
392
  8
ZUWAKU
  6
CONTINUOUS
 62
     4
 10
2323.620344844253
 20
-2029.237771771858
 30
0.0
 11
2325.459514285124
 21
-2030.752974895762
 31
0.0
  0
LINE
  5
393
  8
ZUWAKU
  6
CONTINUOUS
 62
     4
 10
2325.459514285124
 20
-2030.752974895762
 30
0.0
 11
2327.453814588881
 21
-2032.162430738189
 31
0.0
  0
LINE
  5
394
  8
ZUWAKU
  6
CONTINUOUS
 62
     4
 10
2327.453814588881
 20
-2032.162430738189
 30
0.0
 11
2329.588067926029
 21
-2033.45541248908
 31
0.0
  0
LINE
  5
395
  8
ZUWAKU
  6
CONTINUOUS
 62
     4
 10
2329.588067926029
 20
-2033.45541248908
 30
0.0
 11
2331.846031339978
 21
-2034.622079776617
 31
0.0
  0
LINE
  5
396
  8
ZUWAKU
  6
CONTINUOUS
 62
     4
 10
2331.846031339978
 20
-2034.622079776617
 30
0.0
 11
2334.210520365734
 21
-2035.653553558273
 31
0.0
  0
LINE
  5
397
  8
ZUWAKU
  6
CONTINUOUS
 62
     4
 10
2334.210520365734
 20
-2035.653553558273
 30
0.0
 11
2336.663539814117
 21
-2036.541983695739
 31
0.0
  0
LINE
  5
398
  8
ZUWAKU
  6
CONTINUOUS
 62
     4
 10
2336.663539814117
 20
-2036.541983695739
 30
0.0
 11
2339.18642072593
 21
-2037.280608699265
 31
0.0
  0
LINE
  5
399
  8
ZUWAKU
  6
CONTINUOUS
 62
     4
 10
2339.18642072593
 20
-2037.280608699265
 30
0.0
 11
2341.75996245409
 21
-2037.863807186533
 31
0.0
  0
LINE
  5
39A
  8
ZUWAKU
  6
CONTINUOUS
 62
     4
 10
2341.75996245409
 20
-2037.863807186533
 30
0.0
 11
2344.364578792102
 21
-2038.287140664926
 31
0.0
  0
LINE
  5
39B
  8
ZUWAKU
  6
CONTINUOUS
 62
     4
 10
2344.364578792102
 20
-2038.287140664926
 30
0.0
 11
2346.980447036908
 21
-2038.547387311047
 31
0.0
  0
LINE
  5
39C
  8
ZUWAKU
  6
CONTINUOUS
 62
     4
 10
2346.980447036908
 20
-2038.547387311047
 30
0.0
 11
2349.58765885167
 21
-2038.642566490815
 31
0.0
  0
LINE
  5
39D
  8
ZUWAKU
  6
CONTINUOUS
 62
     4
 10
2349.58765885167
 20
-2038.642566490815
 30
0.0
 11
2352.166371780207
 21
-2038.57195383316
 31
0.0
  0
LINE
  5
39E
  8
ZUWAKU
  6
CONTINUOUS
 62
     4
 10
2352.166371780207
 20
-2038.57195383316
 30
0.0
 11
2354.696960260052
 21
-2038.336086743067
 31
0.0
  0
LINE
  5
39F
  8
ZUWAKU
  6
CONTINUOUS
 62
     4
 10
2354.696960260052
 20
-2038.336086743067
 30
0.0
 11
2357.160164984857
 21
-2037.93676031151
 31
0.0
  0
LINE
  5
3A0
  8
ZUWAKU
  6
CONTINUOUS
 62
     4
 10
2357.160164984857
 20
-2037.93676031151
 30
0.0
 11
2359.537239479357
 21
-2037.37701365373
 31
0.0
  0
LINE
  5
3A1
  8
ZUWAKU
  6
CONTINUOUS
 62
     4
 10
2359.537239479357
 20
-2037.37701365373
 30
0.0
 11
2361.810092771329
 21
-2036.661106779805
 31
0.0
  0
LINE
  5
3A2
  8
ZUWAKU
  6
CONTINUOUS
 62
     4
 10
2361.810092771329
 20
-2036.661106779805
 30
0.0
 11
2363.961427074832
 21
-2035.794488173322
 31
0.0
  0
LINE
  5
3A3
  8
ZUWAKU
  6
CONTINUOUS
 62
     4
 10
2363.961427074832
 20
-2035.794488173322
 30
0.0
 11
2365.974869436805
 21
-2034.783753325124
 31
0.0
  0
LINE
  5
3A4
  8
ZUWAKU
  6
CONTINUOUS
 62
     4
 10
2365.974869436805
 20
-2034.783753325124
 30
0.0
 11
2367.835096345125
 21
-2033.636594537742
 31
0.0
  0
LINE
  5
3A5
  8
ZUWAKU
  6
CONTINUOUS
 62
     4
 10
2367.835096345125
 20
-2033.636594537742
 30
0.0
 11
2369.527950349782
 21
-2032.361742382201
 31
0.0
  0
LINE
  5
3A6
  8
ZUWAKU
  6
CONTINUOUS
 62
     4
 10
2369.527950349782
 20
-2032.361742382201
 30
0.0
 11
2371.025201520044
 21
-2030.983030556837
 31
0.0
  0
LINE
  5
3A7
  8
ZUWAKU
  6
CONTINUOUS
 62
     4
 10
2367.494698802851
 20
-2011.753078063229
 30
0.0
 11
2374.285464954137
 21
-2018.543844214525
 31
0.0
  0
LINE
  5
3A8
  8
ZUWAKU
  6
CONTINUOUS
 62
     4
 10
2375.836256787804
 20
-2020.094636048192
 30
0.0
 11
2385.777510405108
 21
-2030.035889665486
 31
0.0
  0
LINE
  5
3A9
  8
ZUWAKU
  6
CONTINUOUS
 62
     4
 10
2366.114136447876
 20
-2013.133640418204
 30
0.0
 11
2373.563829218946
 21
-2020.583333189253
 31
0.0
  0
LINE
  5
3AA
  8
ZUWAKU
  6
CONTINUOUS
 62
     4
 10
2374.990859958405
 20
-2022.010363928722
 30
0.0
 11
2377.901912826931
 21
-2024.921416797239
 31
0.0
  0
LINE
  5
3AB
  8
ZUWAKU
  6
CONTINUOUS
 62
     4
 10
2377.431863603001
 20
-2020.309680508414
 30
0.0
 11
2388.599428173035
 21
-2031.477245078437
 31
0.0
  0
LINE
  5
3AC
  8
ZUWAKU
  6
CONTINUOUS
 62
     4
 10
2302.315858560687
 20
-1999.171811465132
 30
0.0
 11
2301.594002591758
 21
-2002.885438489078
 31
0.0
  0
LINE
  5
3AD
  8
ZUWAKU
  6
CONTINUOUS
 62
     4
 10
2319.734608029255
 20
-1998.571420226828
 30
0.0
 11
2320.877958331109
 21
-1997.272771796737
 31
0.0
  0
LINE
  5
3AE
  8
ZUWAKU
  6
CONTINUOUS
 62
     4
 10
2320.877958331109
 20
-1997.272771796737
 30
0.0
 11
2322.463666039916
 21
-1995.81260665335
 31
0.0
  0
LINE
  5
3AF
  8
ZUWAKU
  6
CONTINUOUS
 62
     4
 10
2322.463666039916
 20
-1995.81260665335
 30
0.0
 11
2324.231288094716
 21
-1994.481448277881
 31
0.0
  0
LINE
  5
3B0
  8
ZUWAKU
  6
CONTINUOUS
 62
     4
 10
2324.231288094716
 20
-1994.481448277881
 30
0.0
 11
2326.166442559036
 21
-1993.288083404608
 31
0.0
  0
LINE
  5
3B1
  8
ZUWAKU
  6
CONTINUOUS
 62
     4
 10
2326.166442559036
 20
-1993.288083404608
 30
0.0
 11
2328.253934545633
 21
-1992.24017613096
 31
0.0
  0
LINE
  5
3B2
  8
ZUWAKU
  6
CONTINUOUS
 62
     4
 10
2328.253934545633
 20
-1992.24017613096
 30
0.0
 11
2330.477791424407
 21
-1991.344343369782
 31
0.0
  0
LINE
  5
3B3
  8
ZUWAKU
  6
CONTINUOUS
 62
     4
 10
2330.477791424407
 20
-1991.344343369782
 30
0.0
 11
2332.821293050359
 21
-1990.606183573465
 31
0.0
  0
LINE
  5
3B4
  8
ZUWAKU
  6
CONTINUOUS
 62
     4
 10
2332.821293050359
 20
-1990.606183573465
 30
0.0
 11
2335.267015217442
 21
-1990.030271959407
 31
0.0
  0
LINE
  5
3B5
  8
ZUWAKU
  6
CONTINUOUS
 62
     4
 10
2335.267015217442
 20
-1990.030271959407
 30
0.0
 11
2337.7968937718
 21
-1989.620136591758
 31
0.0
  0
LINE
  5
3B6
  8
ZUWAKU
  6
CONTINUOUS
 62
     4
 10
2337.7968937718
 20
-1989.620136591758
 30
0.0
 11
2340.39231011694
 21
-1989.378227128499
 31
0.0
  0
LINE
  5
3B7
  8
ZUWAKU
  6
CONTINUOUS
 62
     4
 10
2340.39231011694
 20
-1989.378227128499
 30
0.0
 11
2343.034195477161
 21
-1989.305884625986
 31
0.0
  0
LINE
  5
3B8
  8
ZUWAKU
  6
CONTINUOUS
 62
     4
 10
2343.034195477161
 20
-1989.305884625986
 30
0.0
 11
2345.703150020766
 21
-1989.403317793036
 31
0.0
  0
LINE
  5
3B9
  8
ZUWAKU
  6
CONTINUOUS
 62
     4
 10
2345.703150020766
 20
-1989.403317793036
 30
0.0
 11
2348.379572778267
 21
-1989.669588866763
 31
0.0
  0
LINE
  5
3BA
  8
ZUWAKU
  6
CONTINUOUS
 62
     4
 10
2348.379572778267
 20
-1989.669588866763
 30
0.0
 11
2351.04379857462
 21
-1990.102610789087
 31
0.0
  0
LINE
  5
3BB
  8
ZUWAKU
  6
CONTINUOUS
 62
     4
 10
2351.04379857462
 20
-1990.102610789087
 30
0.0
 11
2353.676238585102
 21
-1990.699156403688
 31
0.0
  0
LINE
  5
3BC
  8
ZUWAKU
  6
CONTINUOUS
 62
     4
 10
2353.676238585102
 20
-1990.699156403688
 30
0.0
 11
2356.257521453701
 21
-1991.45487977493
 31
0.0
  0
LINE
  5
3BD
  8
ZUWAKU
  6
CONTINUOUS
 62
     4
 10
2356.257521453701
 20
-1991.45487977493
 30
0.0
 11
2358.768632121911
 21
-1992.364349285105
 31
0.0
  0
LINE
  5
3BE
  8
ZUWAKU
  6
CONTINUOUS
 62
     4
 10
2358.768632121911
 20
-1992.364349285105
 30
0.0
 11
2361.191045595093
 21
-1993.421091760405
 31
0.0
  0
LINE
  5
3BF
  8
ZUWAKU
  6
CONTINUOUS
 62
     4
 10
2361.191045595093
 20
-1993.421091760405
 30
0.0
 11
2363.506852846247
 21
-1994.617646384569
 31
0.0
  0
LINE
  5
3C0
  8
ZUWAKU
  6
CONTINUOUS
 62
     4
 10
2363.506852846247
 20
-1994.617646384569
 30
0.0
 11
2365.698875982947
 21
-1995.945626462641
 31
0.0
  0
LINE
  5
3C1
  8
ZUWAKU
  6
CONTINUOUS
 62
     4
 10
2365.698875982947
 20
-1995.945626462641
 30
0.0
 11
2367.750769801174
 21
-1997.395786062299
 31
0.0
  0
LINE
  5
3C2
  8
ZUWAKU
  6
CONTINUOUS
 62
     4
 10
2367.750769801174
 20
-1997.395786062299
 30
0.0
 11
2369.647107145204
 21
-1998.958087068303
 31
0.0
  0
LINE
  5
3C3
  8
ZUWAKU
  6
CONTINUOUS
 62
     4
 10
2369.647107145204
 20
-1998.958087068303
 30
0.0
 11
2371.123390405194
 21
-2000.380781165612
 31
0.0
  0
LINE
  5
3C4
  8
ZUWAKU
  6
CONTINUOUS
 62
     4
 10
2316.136679656224
 20
-2011.083915803898
 30
0.0
 11
2316.29728714018
 21
-2010.257661927291
 31
0.0
  0
LINE
  5
3C5
  8
ZUWAKU
  6
CONTINUOUS
 62
     4
 10
2377.506694508638
 20
-2012.19957851915
 30
0.0
 11
2377.715072235309
 21
-2014.055132891448
 31
0.0
  0
LINE
  5
3C6
  8
ZUWAKU
  6
CONTINUOUS
 62
     4
 10
2377.715072235309
 20
-2014.055132891448
 30
0.0
 11
2377.699246410219
 21
-2016.056041787857
 31
0.0
  0
LINE
  5
3C7
  8
ZUWAKU
  6
CONTINUOUS
 62
     4
 10
2377.699246410219
 20
-2016.056041787857
 30
0.0
 11
2377.44865124003
 21
-2017.9680860098
 31
0.0
  0
LINE
  5
3C8
  8
ZUWAKU
  6
CONTINUOUS
 62
     4
 10
2377.44865124003
 20
-2017.9680860098
 30
0.0
 11
2377.163875412878
 21
-2019.433130635022
 31
0.0
  0
ARC
  5
3C9
  8
ZUWAKU
  6
CONTINUOUS
 62
     4
 10
2378.122144780489
 20
-2019.619399330926
 30
0.0
 40
0.9762050030506406
 50
169.0000000000113
 51
225.0
  0
LINE
  5
3CA
  8
ZUWAKU
  6
CONTINUOUS
 62
     4
 10
2388.203643225052
 20
-2035.768611715165
 30
0.0
 11
2388.867416363158
 21
-2032.353794951829
 31
0.0
  0
ARC
  5
3CB
  8
ZUWAKU
  6
CONTINUOUS
 62
     4
 10
2387.909146995547
 20
-2032.167526255924
 30
0.0
 40
0.9762050030506406
 50
349.0000000000113
 51
45.0
  0
ARC
  5
3CC
  8
ZUWAKU
  6
CONTINUOUS
 62
     4
 10
2367.494698802851
 20
-2011.753078063229
 30
0.0
 40
1.952410006101281
 50
114.9999999999999
 51
225.0
  0
ARC
  5
3CD
  8
ZUWAKU
  6
CONTINUOUS
 62
     4
 10
2367.494698802851
 20
-2011.753078063229
 30
0.0
 40
2.928615009151896
 50
138.0853946908589
 51
168.9999999999982
  0
ARC
  5
3CE
  8
ZUWAKU
  6
CONTINUOUS
 62
     4
 10
2364.588961023759
 20
-2009.144571347328
 30
0.0
 40
0.9762050030506406
 50
318.0853946908589
 51
88.09999999999539
  0
LINE
  5
3CF
  8
ZUWAKU
  6
CONTINUOUS
 62
     4
 10
2320.069259109381
 20
-2012.47237212758
 30
0.0
 11
2320.29298861921
 21
-2013.438981317342
 31
0.0
  0
LINE
  5
3D0
  8
ZUWAKU
  6
CONTINUOUS
 62
     4
 10
2320.29298861921
 20
-2013.438981317342
 30
0.0
 11
2320.87803943299
 21
-2015.103921596355
 31
0.0
  0
LINE
  5
3D1
  8
ZUWAKU
  6
CONTINUOUS
 62
     4
 10
2320.87803943299
 20
-2015.103921596355
 30
0.0
 11
2321.659341221712
 21
-2016.752290538067
 31
0.0
  0
LINE
  5
3D2
  8
ZUWAKU
  6
CONTINUOUS
 62
     4
 10
2321.659341221712
 20
-2016.752290538067
 30
0.0
 11
2322.632676221316
 21
-2018.371079638529
 31
0.0
  0
LINE
  5
3D3
  8
ZUWAKU
  6
CONTINUOUS
 62
     4
 10
2322.632676221316
 20
-2018.371079638529
 30
0.0
 11
2323.792001905027
 21
-2019.947070737816
 31
0.0
  0
LINE
  5
3D4
  8
ZUWAKU
  6
CONTINUOUS
 62
     4
 10
2323.792001905027
 20
-2019.947070737816
 30
0.0
 11
2325.129459519223
 21
-2021.467129738634
 31
0.0
  0
LINE
  5
3D5
  8
ZUWAKU
  6
CONTINUOUS
 62
     4
 10
2325.129459519223
 20
-2021.467129738634
 30
0.0
 11
2326.635458355634
 21
-2022.91846073533
 31
0.0
  0
LINE
  5
3D6
  8
ZUWAKU
  6
CONTINUOUS
 62
     4
 10
2326.635458355634
 20
-2022.91846073533
 30
0.0
 11
2328.298803800385
 21
-2024.288810936899
 31
0.0
  0
LINE
  5
3D7
  8
ZUWAKU
  6
CONTINUOUS
 62
     4
 10
2328.298803800385
 20
-2024.288810936899
 30
0.0
 11
2330.106846053951
 21
-2025.566630387069
 31
0.0
  0
LINE
  5
3D8
  8
ZUWAKU
  6
CONTINUOUS
 62
     4
 10
2330.106846053951
 20
-2025.566630387069
 30
0.0
 11
2332.045635827858
 21
-2026.741195633311
 31
0.0
  0
LINE
  5
3D9
  8
ZUWAKU
  6
CONTINUOUS
 62
     4
 10
2332.045635827858
 20
-2026.741195633311
 30
0.0
 11
2334.100080345648
 21
-2027.802706726967
 31
0.0
  0
LINE
  5
3DA
  8
ZUWAKU
  6
CONTINUOUS
 62
     4
 10
2334.100080345648
 20
-2027.802706726967
 30
0.0
 11
2336.254097244898
 21
-2028.742365119366
 31
0.0
  0
LINE
  5
3DB
  8
ZUWAKU
  6
CONTINUOUS
 62
     4
 10
2336.254097244898
 20
-2028.742365119366
 30
0.0
 11
2338.490766154194
 21
-2029.552437810768
 31
0.0
  0
LINE
  5
3DC
  8
ZUWAKU
  6
CONTINUOUS
 62
     4
 10
2338.490766154194
 20
-2029.552437810768
 30
0.0
 11
2340.792478598787
 21
-2030.226311220521
 31
0.0
  0
LINE
  5
3DD
  8
ZUWAKU
  6
CONTINUOUS
 62
     4
 10
2340.792478598787
 20
-2030.226311220521
 30
0.0
 11
2343.141087094418
 21
-2030.758536871607
 31
0.0
  0
LINE
  5
3DE
  8
ZUWAKU
  6
CONTINUOUS
 62
     4
 10
2343.141087094418
 20
-2030.758536871607
 30
0.0
 11
2345.518054210344
 21
-2031.144870068746
 31
0.0
  0
LINE
  5
3DF
  8
ZUWAKU
  6
CONTINUOUS
 62
     4
 10
2345.518054210344
 20
-2031.144870068746
 30
0.0
 11
2347.90460224925
 21
-2031.382302181101
 31
0.0
  0
LINE
  5
3E0
  8
ZUWAKU
  6
CONTINUOUS
 62
     4
 10
2347.90460224925
 20
-2031.382302181101
 30
0.0
 11
2350.281864121308
 21
-2031.469086781318
 31
0.0
  0
LINE
  5
3E1
  8
ZUWAKU
  6
CONTINUOUS
 62
     4
 10
2350.281864121308
 20
-2031.469086781318
 30
0.0
 11
2352.631036042127
 21
-2031.404759623855
 31
0.0
  0
LINE
  5
3E2
  8
ZUWAKU
  6
CONTINUOUS
 62
     4
 10
2352.631036042127
 20
-2031.404759623855
 30
0.0
 11
2354.933532883758
 21
-2031.190152138562
 31
0.0
  0
LINE
  5
3E3
  8
ZUWAKU
  6
CONTINUOUS
 62
     4
 10
2354.933532883758
 20
-2031.190152138562
 30
0.0
 11
2357.171147345176
 21
-2030.827397638649
 31
0.0
  0
LINE
  5
3E4
  8
ZUWAKU
  6
CONTINUOUS
 62
     4
 10
2357.171147345176
 20
-2030.827397638649
 30
0.0
 11
2359.326214522278
 21
-2030.319928624766
 31
0.0
  0
LINE
  5
3E5
  8
ZUWAKU
  6
CONTINUOUS
 62
     4
 10
2359.326214522278
 20
-2030.319928624766
 30
0.0
 11
2361.38178378402
 21
-2029.672462213488
 31
0.0
  0
LINE
  5
3E6
  8
ZUWAKU
  6
CONTINUOUS
 62
     4
 10
2362.858126420145
 20
-2029.077749436441
 30
0.0
 11
2361.38178378402
 21
-2029.672462213488
 31
0.0
  0
LINE
  5
3E7
  8
ZUWAKU
  6
CONTINUOUS
 62
     4
 10
2364.717192435081
 20
-2017.459386723027
 30
0.0
 11
2366.916760515943
 21
-2019.658954803889
 31
0.0
  0
LINE
  5
3E8
  8
ZUWAKU
  6
CONTINUOUS
 62
     4
 10
2364.619890700008
 20
-2011.194271975475
 30
0.0
 11
2363.9132278647
 21
-2014.829737102831
 31
0.0
  0
ARC
  5
3E9
  8
ZUWAKU
  6
CONTINUOUS
 62
     4
 10
2366.788035967534
 20
-2015.388543190565
 30
0.0
 40
2.928615009151921
 50
168.9999999999982
 51
225.0000000000031
  0
LINE
  5
3EA
  8
ZUWAKU
  6
CONTINUOUS
 62
     4
 10
2306.141061465804
 20
-1999.45318614166
 30
0.0
 11
2319.937485408791
 21
-1999.910860660774
 31
0.0
  0
LINE
  5
3EB
  8
ZUWAKU
  6
CONTINUOUS
 62
     4
 10
2322.216563388703
 20
-1999.986465464073
 30
0.0
 11
2368.643071631893
 21
-2001.526591363485
 31
0.0
  0
LINE
  5
3EC
  8
ZUWAKU
  6
CONTINUOUS
 62
     4
 10
2370.936228632107
 20
-2001.602663216005
 30
0.0
 11
2386.49474627564
 21
-2002.118792403527
 31
0.0
  0
LINE
  5
3ED
  8
ZUWAKU
  6
CONTINUOUS
 62
     4
 10
2386.646206682225
 20
-2002.863244085876
 30
0.0
 11
2375.287062409592
 21
-2008.135983305382
 31
0.0
  0
LINE
  5
3EE
  8
ZUWAKU
  6
CONTINUOUS
 62
     4
 10
2373.657174161488
 20
-2008.892552240765
 30
0.0
 11
2367.494698802851
 21
-2011.753078063229
 31
0.0
  0
ARC
  5
3EF
  8
ZUWAKU
  6
CONTINUOUS
 62
     4
 10
2386.481799775233
 20
-2002.509059723965
 30
0.0
 40
0.3904820012202561
 50
294.899999999965
 51
88.10000000000846
  0
LINE
  5
3F0
  8
ZUWAKU
  6
CONTINUOUS
 62
     4
 10
2385.361461699999
 20
-2030.67654848972
 30
0.0
 11
2372.393541697174
 21
-2025.698630391422
 31
0.0
  0
LINE
  5
3F1
  8
ZUWAKU
  6
CONTINUOUS
 62
     4
 10
2370.579477112185
 20
-2025.002276240008
 30
0.0
 11
2319.330741699288
 21
-2005.329729873946
 31
0.0
  0
LINE
  5
3F2
  8
ZUWAKU
  6
CONTINUOUS
 62
     4
 10
2317.499825399625
 20
-2004.626906955342
 30
0.0
 11
2305.988178731287
 21
-2000.207999815333
 31
0.0
  0
ARC
  5
3F3
  8
ZUWAKU
  6
CONTINUOUS
 62
     4
 10
2306.128114965397
 20
-1999.843453462098
 30
0.0
 40
0.3904820012202561
 50
90.0
 51
248.9999999999916
  0
ARC
  5
3F4
  8
ZUWAKU
  6
CONTINUOUS
 62
     4
 10
2385.501397934109
 20
-2030.312002136485
 30
0.0
 40
0.3904820012202561
 50
248.9999999999916
 51
45.0
  0
LINE
  5
3F5
  8
ZUWAKU
  6
CONTINUOUS
 62
     4
 10
2371.768429381205
 20
-2000.653528157913
 30
0.0
 11
2389.153388048991
 21
-2001.230246634454
 31
0.0
  0
ARC
  5
3F6
  8
ZUWAKU
  6
CONTINUOUS
 62
     4
 10
2371.800795632228
 20
-1999.677859856808
 30
0.0
 40
0.9762050030506406
 50
226.0590228224439
 51
268.0999999999954
  0
LINE
  5
3F7
  8
ZUWAKU
  6
CONTINUOUS
 62
     4
 10
2303.30649417932
 20
-1998.382411859931
 30
0.0
 11
2318.96954251677
 21
-1998.902008687718
 31
0.0
  0
ARC
  5
3F8
  8
ZUWAKU
  6
CONTINUOUS
 62
     4
 10
2303.274127928298
 20
-1999.358080161036
 30
0.0
 40
0.9762050030506406
 50
88.09999999999538
 51
169.0000000000113
  0
ARC
  5
3F9
  8
ZUWAKU
  6
CONTINUOUS
 62
     4
 10
2319.001908767792
 20
-1997.926340386633
 30
0.0
 40
0.9762050030506406
 50
268.0999999999954
 51
318.6388065951959
  0
LINE
  5
3FA
  8
ZUWAKU
  6
CONTINUOUS
 62
     4
 10
2390.07929116559
 20
-2002.392183631463
 30
0.0
 11
2389.482897855429
 21
-2005.460361230297
 31
0.0
  0
ARC
  5
3FB
  8
ZUWAKU
  6
CONTINUOUS
 62
     4
 10
2389.121021797969
 20
-2002.205914935559
 30
0.0
 40
0.9762050030506406
 50
349.0000000000113
 51
88.09999999999539
  0
LINE
  5
3FC
  8
ZUWAKU
  6
CONTINUOUS
 62
     4
 10
2388.935645755291
 20
-2006.159553439119
 30
0.0
 11
2378.065784319047
 21
-2011.205175127699
 31
0.0
  0
ARC
  5
3FD
  8
ZUWAKU
  6
CONTINUOUS
 62
     4
 10
2388.524628487818
 20
-2005.274092534393
 30
0.0
 40
0.9762050030506406
 50
294.8999999999948
 51
349.0000000000113
  0
ARC
  5
3FE
  8
ZUWAKU
  6
CONTINUOUS
 62
     4
 10
2378.47680158652
 20
-2012.090636032446
 30
0.0
 40
0.9762050030506406
 50
114.8999999999948
 51
186.4074391525633
  0
LINE
  5
3FF
  8
ZUWAKU
  6
CONTINUOUS
 62
     4
 10
2377.485864121822
 20
-2025.562075621473
 30
0.0
 11
2373.693115715917
 21
-2024.106175914525
 31
0.0
  0
ARC
  5
400
  8
ZUWAKU
  6
CONTINUOUS
 62
     4
 10
2377.625800355932
 20
-2025.197529268238
 30
0.0
 40
0.3904820012202561
 50
248.9999999999916
 51
45.0
  0
LINE
  5
401
  8
ZUWAKU
  6
CONTINUOUS
 62
     4
 10
2371.895619001137
 20
-2023.416181572619
 30
0.0
 11
2320.005810972826
 21
-2003.49755048566
 31
0.0
  0
LINE
  5
402
  8
ZUWAKU
  6
CONTINUOUS
 62
     4
 10
2318.200048601701
 20
-2002.80438325557
 30
0.0
 11
2315.355161236816
 21
-2001.712333312456
 31
0.0
  0
LINE
  5
403
  8
ZUWAKU
  6
CONTINUOUS
 62
     4
 10
2366.500711810844
 20
-2020.299613628123
 30
0.0
 11
2337.504636208938
 21
-2009.169063047388
 31
0.0
  0
ARC
  5
404
  8
ZUWAKU
  6
CONTINUOUS
 62
     4
 10
2366.640648044954
 20
-2019.935067274888
 30
0.0
 40
0.3904820012202561
 50
248.9999999999916
 51
45.0
  0
LINE
  5
405
  8
ZUWAKU
  6
CONTINUOUS
 62
     4
 10
2302.202431374088
 20
-2003.98307306809
 30
0.0
 11
2315.688858357849
 21
-2009.160027348279
 31
0.0
  0
ARC
  5
406
  8
ZUWAKU
  6
CONTINUOUS
 62
     4
 10
2315.339017772569
 20
-2010.071393231387
 30
0.0
 40
0.9762050030506406
 50
349.0000000000113
 51
68.99999999999403
  0
LINE
  5
407
  8
ZUWAKU
  6
CONTINUOUS
 62
     4
 10
2321.370161509359
 20
-2011.340875300288
 30
0.0
 11
2362.843206772839
 21
-2027.260885800323
 31
0.0
  0
ARC
  5
408
  8
ZUWAKU
  6
CONTINUOUS
 62
     4
 10
2362.493366187559
 20
-2028.17225168343
 30
0.0
 40
0.9762050030506406
 50
291.9409771775964
 51
68.99999999999403
  0
LINE
  5
409
  8
ZUWAKU
  6
CONTINUOUS
 62
     4
 10
2372.036310312948
 20
-2030.789787619736
 30
0.0
 11
2386.89553327216
 21
-2036.493708902347
 31
0.0
  0
ARC
  5
40A
  8
ZUWAKU
  6
CONTINUOUS
 62
     4
 10
2387.24537385744
 20
-2035.58234301924
 30
0.0
 40
0.9762050030506406
 50
248.999999999994
 51
349.0000000000113
  0
ARC
  5
40B
  8
ZUWAKU
  6
CONTINUOUS
 62
     4
 10
2371.686469727667
 20
-2031.701153502823
 30
0.0
 40
0.9762050030506406
 50
68.99999999999405
 51
132.6397603242162
  0
ARC
  5
40C
  8
ZUWAKU
  6
CONTINUOUS
 62
     4
 10
2321.020320924079
 20
-2012.252241183375
 30
0.0
 40
0.9762050030506406
 50
68.99999999999405
 51
193.0320838540789
  0
ARC
  5
40D
  8
ZUWAKU
  6
CONTINUOUS
 62
     4
 10
2302.552271959369
 20
-2003.071707184983
 30
0.0
 40
0.9762050030506406
 50
169.0000000000113
 51
248.999999999994
  0
LINE
  5
40E
  8
ZUWAKU
  6
CONTINUOUS
 62
     4
 10
2320.849054891897
 20
-2001.894584535445
 30
0.0
 11
2370.493971939973
 21
-2003.541476050961
 31
0.0
  0
LINE
  5
40F
  8
ZUWAKU
  6
CONTINUOUS
 62
     4
 10
2315.355161236816
 20
-2001.712333312456
 30
0.0
 11
2318.719866175544
 21
-2001.823952071144
 31
0.0
  0
LINE
  5
410
  8
ZUWAKU
  6
CONTINUOUS
 62
     4
 10
2372.835139626542
 20
-2007.121630431292
 30
0.0
 11
2366.672664267904
 21
-2009.982156253756
 31
0.0
  0
LINE
  5
411
  8
ZUWAKU
  6
CONTINUOUS
 62
     4
 10
2337.88684304523
 20
-2007.282028863196
 30
0.0
 11
2364.621327274781
 21
-2008.168903046223
 31
0.0
  0
ARC
  5
412
  8
ZUWAKU
  6
CONTINUOUS
 62
     4
 10
2337.854476794218
 20
-2008.25769716428
 30
0.0
 40
0.9762050030506406
 50
88.09999999999538
 51
248.999999999994
  0
LINE
  5
413
  8
ZUWAKU
  6
CONTINUOUS
 62
     4
 10
2353.317870473248
 20
-1998.11874058691
 30
0.0
 11
2352.070180712255
 21
-1997.753453882432
 31
0.0
  0
LINE
  5
414
  8
ZUWAKU
  6
CONTINUOUS
 62
     4
 10
2352.070180712255
 20
-1997.753453882432
 30
0.0
 11
2349.662673934292
 21
-1997.207881104013
 31
0.0
  0
LINE
  5
415
  8
ZUWAKU
  6
CONTINUOUS
 62
     4
 10
2349.662673934292
 20
-1997.207881104013
 30
0.0
 11
2347.226097360026
 21
-1996.811859462943
 31
0.0
  0
LINE
  5
416
  8
ZUWAKU
  6
CONTINUOUS
 62
     4
 10
2347.226097360026
 20
-1996.811859462943
 30
0.0
 11
2344.778994808435
 21
-1996.568402923002
 31
0.0
  0
LINE
  5
417
  8
ZUWAKU
  6
CONTINUOUS
 62
     4
 10
2344.778994808435
 20
-1996.568402923002
 30
0.0
 11
2342.339990207523
 21
-1996.479364335484
 31
0.0
  0
LINE
  5
418
  8
ZUWAKU
  6
CONTINUOUS
 62
     4
 10
2342.339990207523
 20
-1996.479364335484
 30
0.0
 11
2339.927645855031
 21
-1996.545421337804
 31
0.0
  0
LINE
  5
419
  8
ZUWAKU
  6
CONTINUOUS
 62
     4
 10
2339.927645855031
 20
-1996.545421337804
 30
0.0
 11
2337.560321148083
 21
-1996.766071196284
 31
0.0
  0
LINE
  5
41A
  8
ZUWAKU
  6
CONTINUOUS
 62
     4
 10
2337.560321148083
 20
-1996.766071196284
 30
0.0
 11
2335.256032857124
 21
-1997.139634632248
 31
0.0
  0
LINE
  5
41B
  8
ZUWAKU
  6
CONTINUOUS
 62
     4
 10
2335.256032857124
 20
-1997.139634632248
 30
0.0
 11
2333.829952156212
 21
-1997.475444009671
 31
0.0
  0
LINE
  5
41C
  8
ZUWAKU
  6
CONTINUOUS
 62
     4
 10
2334.021340015547
 20
-1999.40132823679
 30
0.0
 11
2353.011213918195
 21
-2000.031287235026
 31
0.0
  0
ARC
  5
41D
  8
ZUWAKU
  6
CONTINUOUS
 62
     4
 10
2334.053706266569
 20
-1998.425659935685
 30
0.0
 40
0.9762050030506406
 50
103.2504547662767
 51
268.0999999999954
  0
ARC
  5
41E
  8
ZUWAKU
  6
CONTINUOUS
 62
     4
 10
2353.043580169217
 20
-1999.05561893392
 30
0.0
 40
0.9762050030506406
 50
268.0999999999954
 51
73.6815281606156
  0
LINE
  5
41F
  8
ZUWAKU
  6
CONTINUOUS
 62
     4
 10
1727.49999999999
 20
-1608.750000000033
 30
0.0
 11
2987.499999999983
 21
-1608.750000000037
 31
0.0
  0
LINE
  5
420
  8
ZUWAKU
  6
CONTINUOUS
 62
     4
 10
1727.49999999999
 20
-1533.750000000033
 30
0.0
 11
2987.499999999983
 21
-1533.750000000037
 31
0.0
  0
LINE
  5
421
  8
ZUWAKU
  6
CONTINUOUS
 62
     4
 10
1727.49999999999
 20
-1458.750000000033
 30
0.0
 11
2987.499999999983
 21
-1458.750000000037
 31
0.0
  0
LINE
  5
422
  8
ZUWAKU
  6
CONTINUOUS
 62
     4
 10
1727.499999999991
 20
-1383.750000000033
 30
0.0
 11
2987.499999999983
 21
-1383.750000000037
 31
0.0
  0
LINE
  5
423
  8
ZUWAKU
  6
CONTINUOUS
 62
     4
 10
1727.499999999991
 20
-1308.750000000033
 30
0.0
 11
2987.499999999983
 21
-1308.750000000037
 31
0.0
  0
LINE
  5
424
  8
ZUWAKU
  6
CONTINUOUS
 62
     4
 10
1727.49999999999
 20
-1233.750000000032
 30
0.0
 11
2987.499999999983
 21
-1233.750000000037
 31
0.0
  0
LINE
  5
425
  8
ZUWAKU
  6
CONTINUOUS
 62
     4
 10
1727.49999999999
 20
-1158.750000000032
 30
0.0
 11
2987.499999999983
 21
-1158.750000000037
 31
0.0
  0
LINE
  5
426
  8
ZUWAKU
  6
CONTINUOUS
 62
     4
 10
1727.49999999999
 20
-1083.750000000032
 30
0.0
 11
2987.499999999983
 21
-1083.750000000036
 31
0.0
  0
LINE
  5
427
  8
ZUWAKU
  6
CONTINUOUS
 62
     4
 10
1727.49999999999
 20
-1683.750000000038
 30
0.0
 11
2987.499999999983
 21
-1683.750000000042
 31
0.0
  0
TEXT
  5
428
  8
ZUWAKU
 62
     4
 10
1523.874999999983
 20
-1818.750000000032
 30
0.0
 40
45.0
  1
図
 41
1.12
  7
DCSTYLE0
 72
     5
 11
1559.874999999983
 21
-1818.750000000032
 31
0.0
  0
TEXT
  5
429
  8
ZUWAKU
 62
     4
 10
1523.874999999985
 20
-1886.250000000033
 30
0.0
 40
45.0
  1
名
 41
1.12
  7
DCSTYLE0
 72
     5
 11
1559.874999999985
 21
-1886.250000000033
 31
0.0
  0
TEXT
  5
42A
  8
ZUWAKU
 62
     4
 10
2606.687499999983
 20
-1818.750000000033
 30
0.0
 40
45.0
  1
図
 41
1.12
  7
DCSTYLE0
 72
     5
 11
2642.687499999983
 21
-1818.750000000033
 31
0.0
  0
TEXT
  5
42B
  8
ZUWAKU
 62
     4
 10
2606.687499999983
 20
-1886.250000000034
 30
0.0
 40
45.0
  1
番
 41
1.12
  7
DCSTYLE0
 72
     5
 11
2642.687499999983
 21
-1886.250000000034
 31
0.0
  0
TEXT
  5
42C
  8
ZUWAKU
 62
     4
 10
1748.874999999985
 20
-1734.375000000038
 30
0.0
 40
45.0
  1
番
 41
1.12
  7
DCSTYLE0
 72
     5
 11
1784.874999999985
 21
-1734.375000000038
 31
0.0
  0
TEXT
  5
42D
  8
ZUWAKU
 62
     4
 10
1820.124999999985
 20
-1734.375000000038
 30
0.0
 40
45.0
  1
号
 41
1.12
  7
DCSTYLE0
 72
     5
 11
1856.124999999985
 21
-1734.375000000038
 31
0.0
  0
TEXT
  5
42E
  8
ZUWAKU
 62
     4
 10
1938.249999999985
 20
-1734.375000000038
 30
0.0
 40
45.0
  1
品
 41
1.12
  7
DCSTYLE0
 72
     5
 11
1974.249999999985
 21
-1734.375000000038
 31
0.0
  0
TEXT
  5
42F
  8
ZUWAKU
 62
     4
 10
2230.749999999985
 20
-1734.375000000038
 30
0.0
 40
45.0
  1
名
 41
1.12
  7
DCSTYLE0
 72
     5
 11
2266.749999999985
 21
-1734.375000000038
 31
0.0
  0
TEXT
  5
430
  8
ZUWAKU
 62
     4
 10
2348.87499999998
 20
-1734.375000000038
 30
0.0
 40
45.0
  1
個
 41
1.12
  7
DCSTYLE0
 72
     5
 11
2384.87499999998
 21
-1734.375000000038
 31
0.0
  0
TEXT
  5
431
  8
ZUWAKU
 62
     4
 10
2420.124999999983
 20
-1734.375000000038
 30
0.0
 40
45.0
  1
数
 41
1.12
  7
DCSTYLE0
 72
     5
 11
2456.124999999983
 21
-1734.375000000038
 31
0.0
  0
TEXT
  5
432
  8
ZUWAKU
 62
     4
 10
2538.249999999983
 20
-1734.375000000037
 30
0.0
 40
45.0
  1
記
 41
1.12
  7
DCSTYLE0
 72
     5
 11
2574.249999999983
 21
-1734.375000000037
 31
0.0
  0
TEXT
  5
433
  8
ZUWAKU
 62
     4
 10
2890.749999999983
 20
-1734.375000000038
 30
0.0
 40
45.0
  1
事
 41
1.12
  7
DCSTYLE0
 72
     5
 11
2926.749999999983
 21
-1734.375000000038
 31
0.0
  0
TEXT
  5
434
  8
ZUWAKU
 62
     4
 10
1523.874999999983
 20
-1981.875000000034
 30
0.0
 40
45.0
  1
表
 41
1.12
  7
DCSTYLE0
 72
     5
 11
1559.874999999983
 21
-1981.875000000034
 31
0.0
  0
TEXT
  5
435
  8
ZUWAKU
 62
     4
 10
1568.874999999983
 20
-1981.875000000034
 30
0.0
 40
45.0
  1
面
 41
1.12
  7
DCSTYLE0
 72
     5
 11
1604.874999999983
 21
-1981.875000000034
 31
0.0
  0
TEXT
  5
436
  8
ZUWAKU
 62
     4
 10
1523.874999999983
 20
-2060.625000000032
 30
0.0
 40
45.0
  1
処
 41
1.12
  7
DCSTYLE0
 72
     5
 11
1559.874999999983
 21
-2060.625000000032
 31
0.0
  0
TEXT
  5
437
  8
ZUWAKU
 62
     4
 10
1568.874999999983
 20
-2060.625000000033
 30
0.0
 40
45.0
  1
理
 41
1.12
  7
DCSTYLE0
 72
     5
 11
1604.874999999983
 21
-2060.625000000033
 31
0.0
  0
TEXT
  5
438
  8
ZUWAKU
 62
     4
 10
1784.499999999986
 20
-1443.750000000033
 30
0.0
 40
45.0
  1
４
 41
1.12
  7
DCSTYLE0
 72
     5
 11
1820.499999999986
 21
-1443.750000000033
 31
0.0
  0
TEXT
  5
439
  8
ZUWAKU
 62
     4
 10
1784.499999999985
 20
-1518.751161000038
 30
0.0
 40
45.0
  1
３
 41
1.12
  7
DCSTYLE0
 72
     5
 11
1820.499999999985
 21
-1518.751161000038
 31
0.0
  0
TEXT
  5
43A
  8
ZUWAKU
 62
     4
 10
1784.499999999985
 20
-1368.751161000038
 30
0.0
 40
45.0
  1
５
 41
1.12
  7
DCSTYLE0
 72
     5
 11
1820.499999999985
 21
-1368.751161000038
 31
0.0
  0
TEXT
  5
43B
  8
ZUWAKU
 62
     4
 10
1784.499999999983
 20
-1668.750580500037
 30
0.0
 40
45.0
  1
１
 41
1.12
  7
DCSTYLE0
 72
     5
 11
1820.499999999983
 21
-1668.750580500037
 31
0.0
  0
TEXT
  5
43C
  8
ZUWAKU
 62
     4
 10
1784.499999999983
 20
-1593.750580500038
 30
0.0
 40
45.0
  1
２
 41
1.12
  7
DCSTYLE0
 72
     5
 11
1820.499999999983
 21
-1593.750580500038
 31
0.0
  0
TEXT
  5
43D
  8
ZUWAKU
 62
     4
 10
1784.499999999986
 20
-1293.751741500042
 30
0.0
 40
45.0
  1
６
 41
1.12
  7
DCSTYLE0
 72
     5
 11
1820.499999999986
 21
-1293.751741500042
 31
0.0
  0
TEXT
  5
43E
  8
ZUWAKU
 62
     4
 10
897.9478638026609
 20
-2037.87004453285
 30
0.0
 40
45.0
  1
更新日；2022.03.04
 41
0.9407999999999999
  7
DCSTYLE0
 72
     5
 11
1401.947863802661
 21
-2037.87004453285
 31
0.0
  0
TEXT
  5
43F
  8
ZUWAKU
 62
     4
 10
1907.49999999999
 20
-1293.751161000039
 30
0.0
 40
45.0
  1
1/2　プラグ
 41
1.389312977099213
  7
DCSTYLE0
 72
     5
 11
2297.499999999984
 21
-1293.751161000039
 31
0.0
  0
TEXT
  5
440
  8
ZUWAKU
 62
     4
 10
1892.49999999999
 20
-1218.751161000039
 30
0.0
 40
45.0
  1
フランジ付六角ボルト
 41
1.107344632768344
  7
DCSTYLE0
 72
     5
 11
2312.499999999984
 21
-1218.751161000039
 31
0.0
  0
TEXT
  5
441
  8
ZUWAKU
 62
     4
 10
1892.49999999999
 20
-1143.751161000039
 30
0.0
 40
45.0
  1
フランジ付六角ナット
 41
1.107344632768344
  7
DCSTYLE0
 72
     5
 11
2312.499999999984
 21
-1143.751161000039
 31
0.0
  0
TEXT
  5
442
  8
ZUWAKU
 62
     4
 10
1907.49999999999
 20
-1368.751161000039
 30
0.0
 40
45.0
  1
1/2　ソケット
 41
1.221476510067093
  7
DCSTYLE0
 72
     5
 11
2297.499999999984
 21
-1368.751161000039
 31
0.0
  0
TEXT
  5
443
  8
ZUWAKU
 62
     4
 10
1892.49999999999
 20
-1443.751161000039
 30
0.0
 40
45.0
  1
ゴムパッキン
 41
1.866666666666636
  7
DCSTYLE0
 72
     5
 11
2312.499999999984
 21
-1443.751161000039
 31
0.0
  0
TEXT
  5
444
  8
ZUWAKU
 62
     4
 10
1892.49999999999
 20
-1518.751741500038
 30
0.0
 40
45.0
  1
側板（大）
 41
2.252873563218354
  7
DCSTYLE0
 72
     5
 11
2312.499999999984
 21
-1518.751741500038
 31
0.0
  0
TEXT
  5
445
  8
ZUWAKU
 62
     4
 10
1892.49999999999
 20
-1593.751741500038
 30
0.0
 40
45.0
  1
側板（小）
 41
2.252873563218354
  7
DCSTYLE0
 72
     5
 11
2312.499999999984
 21
-1593.751741500038
 31
0.0
  0
TEXT
  5
446
  8
ZUWAKU
 62
     4
 10
1892.49999999999
 20
-1668.750580500037
 30
0.0
 40
45.0
  1
側板（小）ソケット側
 41
1.107344632768344
  7
DCSTYLE0
 72
     5
 11
2312.499999999984
 21
-1668.750580500037
 31
0.0
  0
TEXT
  5
447
  8
ZUWAKU
 62
     4
 10
2384.499999999983
 20
-1668.750580500041
 30
0.0
 40
45.0
  1
1
 41
1.527272727272727
  7
DCSTYLE0
 72
     5
 11
2420.499999999983
 21
-1668.750580500041
 31
0.0
  0
TEXT
  5
448
  8
ZUWAKU
 62
     4
 10
2496.999999999984
 20
-1668.750580500043
 30
0.0
 40
45.0
  1
高耐食めっき鋼板
 41
0.9531914893617023
  7
DCSTYLE0
 72
     5
 11
2784.999999999984
 21
-1668.750580500043
 31
0.0
  0
TEXT
  5
449
  8
ZUWAKU
 62
     4
 10
2384.499999999983
 20
-1518.751741500042
 30
0.0
 40
45.0
  1
2
 41
0.988235294117647
  7
DCSTYLE0
 72
     5
 11
2420.499999999983
 21
-1518.751741500042
 31
0.0
  0
TEXT
  5
44A
  8
ZUWAKU
 62
     4
 10
2496.999999999984
 20
-1518.751741500044
 30
0.0
 40
45.0
  1
高耐食めっき鋼板
 41
0.9531914893617023
  7
DCSTYLE0
 72
     5
 11
2784.999999999984
 21
-1518.751741500044
 31
0.0
  0
TEXT
  5
44B
  8
ZUWAKU
 62
     4
 10
2384.499999999983
 20
-1443.751741500042
 30
0.0
 40
45.0
  1
4
 41
0.9333333333333333
  7
DCSTYLE0
 72
     5
 11
2420.499999999983
 21
-1443.751741500042
 31
0.0
  0
TEXT
  5
44C
  8
ZUWAKU
 62
     4
 10
2496.999999999984
 20
-1443.751741500043
 30
0.0
 40
45.0
  1
ｔ3 NBRゴム
 41
0.8615384615384617
  7
DCSTYLE0
 72
     5
 11
2784.999999999984
 21
-1443.751741500043
 31
0.0
  0
TEXT
  5
44D
  8
ZUWAKU
 62
     4
 10
2348.499999999982
 20
-1218.751741500042
 30
0.0
 40
45.0
  1
16
 41
0.9081081081081082
  7
DCSTYLE0
 72
     5
 11
2420.499999999982
 21
-1218.751741500042
 31
0.0
  0
TEXT
  5
44E
  8
ZUWAKU
 62
     4
 10
2496.999999999984
 20
-1218.751741500043
 30
0.0
 40
45.0
  1
Ｍ6×16
 41
0.903225806451613
  7
DCSTYLE0
 72
     5
 11
2676.999999999984
 21
-1218.751741500043
 31
0.0
  0
TEXT
  5
44F
  8
ZUWAKU
 62
     4
 10
2348.499999999982
 20
-1143.751741500042
 30
0.0
 40
45.0
  1
16
 41
0.9081081081081082
  7
DCSTYLE0
 72
     5
 11
2420.499999999982
 21
-1143.751741500042
 31
0.0
  0
TEXT
  5
450
  8
ZUWAKU
 62
     4
 10
2496.999999999984
 20
-1143.751741500043
 30
0.0
 40
45.0
  1
Ｍ6
 41
0.96
  7
DCSTYLE0
 72
     5
 11
2568.999999999984
 21
-1143.751741500043
 31
0.0
  0
TEXT
  5
451
  8
ZUWAKU
 62
     4
 10
2384.499999999983
 20
-1593.751741500043
 30
0.0
 40
45.0
  1
1
 41
1.527272727272727
  7
DCSTYLE0
 72
     5
 11
2420.499999999983
 21
-1593.751741500043
 31
0.0
  0
TEXT
  5
452
  8
ZUWAKU
 62
     4
 10
2496.999999999984
 20
-1593.751741500044
 30
0.0
 40
45.0
  1
高耐食めっき鋼板
 41
0.9531914893617023
  7
DCSTYLE0
 72
     5
 11
2784.999999999984
 21
-1593.751741500044
 31
0.0
  0
TEXT
  5
453
  8
ZUWAKU
 62
     4
 10
2384.499999999983
 20
-1368.751741500042
 30
0.0
 40
45.0
  1
1
 41
1.527272727272727
  7
DCSTYLE0
 72
     5
 11
2420.499999999983
 21
-1368.751741500042
 31
0.0
  0
TEXT
  5
454
  8
ZUWAKU
 62
     4
 10
2386.445463275032
 20
-1293.751161000041
 30
0.0
 40
45.0
  1
1
 41
1.527272727272727
  7
DCSTYLE0
 72
     5
 11
2422.445463275032
 21
-1293.751161000041
 31
0.0
  0
LINE
  5
455
  8
ZUWAKU
  6
CONTINUOUS
 62
     6
 10
2316.525974391839
 20
-2011.869669777197
 30
0.0
 11
2316.381709161426
 21
-2012.970415254591
 31
0.0
  0
LINE
  5
456
  8
ZUWAKU
  6
CONTINUOUS
 62
     6
 10
2316.381709161426
 20
-2012.970415254591
 30
0.0
 11
2316.367287256936
 21
-2014.793822048558
 31
0.0
  0
LINE
  5
457
  8
ZUWAKU
  6
CONTINUOUS
 62
     6
 10
2316.367287256936
 20
-2014.793822048558
 30
0.0
 11
2316.57402433593
 21
-2016.634766841288
 31
0.0
  0
LINE
  5
458
  8
ZUWAKU
  6
CONTINUOUS
 62
     6
 10
2316.57402433593
 20
-2016.634766841288
 30
0.0
 11
2317.001146022552
 21
-2018.480119060347
 31
0.0
  0
LINE
  5
459
  8
ZUWAKU
  6
CONTINUOUS
 62
     6
 10
2317.001146022552
 20
-2018.480119060347
 30
0.0
 11
2317.646374366783
 21
-2020.316312830497
 31
0.0
  0
LINE
  5
45A
  8
ZUWAKU
  6
CONTINUOUS
 62
     6
 10
2317.646374366783
 20
-2020.316312830497
 30
0.0
 11
2318.505778404304
 21
-2022.129459740273
 31
0.0
  0
LINE
  5
45B
  8
ZUWAKU
  6
CONTINUOUS
 62
     6
 10
2318.505778404304
 20
-2022.129459740273
 30
0.0
 11
2319.573681758612
 21
-2023.905528936381
 31
0.0
  0
LINE
  5
45C
  8
ZUWAKU
  6
CONTINUOUS
 62
     6
 10
2319.573681758612
 20
-2023.905528936381
 30
0.0
 11
2320.84263961051
 21
-2025.630554361136
 31
0.0
  0
LINE
  5
45D
  8
ZUWAKU
  6
CONTINUOUS
 62
     6
 10
2320.84263961051
 20
-2025.630554361136
 30
0.0
 11
2322.303476631948
 21
-2027.290837602708
 31
0.0
  0
LINE
  5
45E
  8
ZUWAKU
  6
CONTINUOUS
 62
     6
 10
2322.303476631948
 20
-2027.290837602708
 30
0.0
 11
2323.945369047
 21
-2028.873129233747
 31
0.0
  0
LINE
  5
45F
  8
ZUWAKU
  6
CONTINUOUS
 62
     6
 10
2323.945369047
 20
-2028.873129233747
 30
0.0
 11
2325.755954536286
 21
-2030.364783416611
 31
0.0
  0
LINE
  5
460
  8
ZUWAKU
  6
CONTINUOUS
 62
     6
 10
2325.755954536286
 20
-2030.364783416611
 30
0.0
 11
2327.721458082814
 21
-2031.753887380401
 31
0.0
  0
LINE
  5
461
  8
ZUWAKU
  6
CONTINUOUS
 62
     6
 10
2327.721458082814
 20
-2031.753887380401
 30
0.0
 11
2329.826826520195
 21
-2033.029369967713
 31
0.0
  0
LINE
  5
462
  8
ZUWAKU
  6
CONTINUOUS
 62
     6
 10
2329.826826520195
 20
-2033.029369967713
 30
0.0
 11
2332.055868015527
 21
-2034.181093586916
 31
0.0
  0
LINE
  5
463
  8
ZUWAKU
  6
CONTINUOUS
 62
     6
 10
2332.055868015527
 20
-2034.181093586916
 30
0.0
 11
2334.39139481758
 21
-2035.19993302175
 31
0.0
  0
LINE
  5
464
  8
ZUWAKU
  6
CONTINUOUS
 62
     6
 10
2334.39139481758
 20
-2035.19993302175
 30
0.0
 11
2336.815368656044
 21
-2036.077843472882
 31
0.0
  0
LINE
  5
465
  8
ZUWAKU
  6
CONTINUOUS
 62
     6
 10
2336.815368656044
 20
-2036.077843472882
 30
0.0
 11
2339.30904858947
 21
-2036.807919292529
 31
0.0
  0
LINE
  5
466
  8
ZUWAKU
  6
CONTINUOUS
 62
     6
 10
2339.30904858947
 20
-2036.807919292529
 30
0.0
 11
2341.853141176464
 21
-2037.38444421613
 31
0.0
  0
LINE
  5
467
  8
ZUWAKU
  6
CONTINUOUS
 62
     6
 10
2341.853141176464
 20
-2037.38444421613
 30
0.0
 11
2344.427952785311
 21
-2037.802933472568
 31
0.0
  0
LINE
  5
468
  8
ZUWAKU
  6
CONTINUOUS
 62
     6
 10
2344.427952785311
 20
-2037.802933472568
 30
0.0
 11
2347.013543773769
 21
-2038.060167904897
 31
0.0
  0
LINE
  5
469
  8
ZUWAKU
  6
CONTINUOUS
 62
     6
 10
2347.013543773769
 20
-2038.060167904897
 30
0.0
 11
2349.589884224104
 21
-2038.154220091024
 31
0.0
  0
LINE
  5
46A
  8
ZUWAKU
  6
CONTINUOUS
 62
     6
 10
2349.589884224104
 20
-2038.154220091024
 30
0.0
 11
2352.137010936794
 21
-2038.084472355798
 31
0.0
  0
LINE
  5
46B
  8
ZUWAKU
  6
CONTINUOUS
 62
     6
 10
2352.137010936794
 20
-2038.084472355798
 30
0.0
 11
2354.635185483986
 21
-2037.851626452287
 31
0.0
  0
LINE
  5
46C
  8
ZUWAKU
  6
CONTINUOUS
 62
     6
 10
2354.635185483986
 20
-2037.851626452287
 30
0.0
 11
2357.06505329403
 21
-2037.457704488766
 31
0.0
  0
LINE
  5
46D
  8
ZUWAKU
  6
CONTINUOUS
 62
     6
 10
2357.06505329403
 20
-2037.457704488766
 30
0.0
 11
2359.407803952239
 21
-2036.906040309146
 31
0.0
  0
LINE
  5
46E
  8
ZUWAKU
  6
CONTINUOUS
 62
     6
 10
2359.407803952239
 20
-2036.906040309146
 30
0.0
 11
2361.645333077216
 21
-2036.201259896407
 31
0.0
  0
LINE
  5
46F
  8
ZUWAKU
  6
CONTINUOUS
 62
     6
 10
2361.645333077216
 20
-2036.201259896407
 30
0.0
 11
2363.760406093079
 21
-2035.349248367262
 31
0.0
  0
LINE
  5
470
  8
ZUWAKU
  6
CONTINUOUS
 62
     6
 10
2363.760406093079
 20
-2035.349248367262
 30
0.0
 11
2365.736823642753
 21
-2034.357099731809
 31
0.0
  0
LINE
  5
471
  8
ZUWAKU
  6
CONTINUOUS
 62
     6
 10
2365.736823642753
 20
-2034.357099731809
 30
0.0
 11
2367.559586773064
 21
-2033.233043987351
 31
0.0
  0
LINE
  5
472
  8
ZUWAKU
  6
CONTINUOUS
 62
     6
 10
2367.559586773064
 20
-2033.233043987351
 30
0.0
 11
2369.215056752649
 21
-2031.986344941764
 31
0.0
  0
LINE
  5
473
  8
ZUWAKU
  6
CONTINUOUS
 62
     6
 10
2369.215056752649
 20
-2031.986344941764
 30
0.0
 11
2370.694567416233
 21
-2030.623969083823
 31
0.0
  0
ARC
  5
474
  8
ZUWAKU
  6
CONTINUOUS
 62
     6
 10
2387.909146995547
 20
-2032.167526255924
 30
0.0
 40
0.4881025015253203
 50
348.999999999985
 51
45.0
  0
LINE
  5
475
  8
ZUWAKU
  6
CONTINUOUS
 62
     6
 10
2388.254287584291
 20
-2031.82238566717
 30
0.0
 11
2376.407883232159
 21
-2019.975981315039
 31
0.0
  0
ARC
  5
476
  8
ZUWAKU
  6
CONTINUOUS
 62
     6
 10
2378.122144780489
 20
-2019.619399330926
 30
0.0
 40
1.46430750457596
 50
168.9999999999938
 51
225.0
  0
LINE
  5
477
  8
ZUWAKU
  6
CONTINUOUS
 62
     6
 10
2376.684740729072
 20
-2019.339996287059
 30
0.0
 11
2376.966643959646
 21
-2017.889729890107
 31
0.0
  0
LINE
  5
478
  8
ZUWAKU
  6
CONTINUOUS
 62
     6
 10
2377.211395747655
 20
-2016.022270745836
 30
0.0
 11
2377.226753599221
 21
-2014.0805292169
 31
0.0
  0
LINE
  5
479
  8
ZUWAKU
  6
CONTINUOUS
 62
     6
 10
2371.189859763344
 20
-2001.122706027071
 30
0.0
 11
2369.322082942457
 21
-1999.322729606414
 31
0.0
  0
LINE
  5
47A
  8
ZUWAKU
  6
CONTINUOUS
 62
     6
 10
2369.322082942457
 20
-1999.322729606414
 30
0.0
 11
2367.454329550002
 21
-1997.78397754147
 31
0.0
  0
LINE
  5
47B
  8
ZUWAKU
  6
CONTINUOUS
 62
     6
 10
2367.454329550002
 20
-1997.78397754147
 30
0.0
 11
2365.431232489014
 21
-1996.354169820428
 31
0.0
  0
LINE
  5
47C
  8
ZUWAKU
  6
CONTINUOUS
 62
     6
 10
2365.431232489014
 20
-1996.354169820428
 30
0.0
 11
2363.26809425209
 21
-1995.043688905936
 31
0.0
  0
LINE
  5
47D
  8
ZUWAKU
  6
CONTINUOUS
 62
     6
 10
2363.26809425209
 20
-1995.043688905936
 30
0.0
 11
2360.981208919544
 21
-1993.862077950106
 31
0.0
  0
LINE
  5
47E
  8
ZUWAKU
  6
CONTINUOUS
 62
     6
 10
2360.981208919544
 20
-1993.862077950106
 30
0.0
 11
2358.587757670065
 21
-1992.817969821607
 31
0.0
  0
LINE
  5
47F
  8
ZUWAKU
  6
CONTINUOUS
 62
     6
 10
2358.587757670065
 20
-1992.817969821607
 30
0.0
 11
2356.105692611774
 21
-1991.919019997787
 31
0.0
  0
LINE
  5
480
  8
ZUWAKU
  6
CONTINUOUS
 62
     6
 10
2356.105692611774
 20
-1991.919019997787
 30
0.0
 11
2353.553610721563
 21
-1991.171845810424
 31
0.0
  0
LINE
  5
481
  8
ZUWAKU
  6
CONTINUOUS
 62
     6
 10
2353.553610721563
 20
-1991.171845810424
 30
0.0
 11
2350.950619852247
 21
-1990.581973759469
 31
0.0
  0
LINE
  5
482
  8
ZUWAKU
  6
CONTINUOUS
 62
     6
 10
2350.950619852247
 20
-1990.581973759469
 30
0.0
 11
2348.316198785059
 21
-1990.15379605912
 31
0.0
  0
LINE
  5
483
  8
ZUWAKU
  6
CONTINUOUS
 62
     6
 10
2348.316198785059
 20
-1990.15379605912
 30
0.0
 11
2345.670053283905
 21
-1989.890537199186
 31
0.0
  0
LINE
  5
484
  8
ZUWAKU
  6
CONTINUOUS
 62
     6
 10
2345.670053283905
 20
-1989.890537199186
 30
0.0
 11
2343.031970104726
 21
-1989.794231025777
 31
0.0
  0
LINE
  5
485
  8
ZUWAKU
  6
CONTINUOUS
 62
     6
 10
2343.031970104726
 20
-1989.794231025777
 30
0.0
 11
2340.421670960343
 21
-1989.865708605861
 31
0.0
  0
LINE
  5
486
  8
ZUWAKU
  6
CONTINUOUS
 62
     6
 10
2340.421670960343
 20
-1989.865708605861
 30
0.0
 11
2337.858668547866
 21
-1990.104596882537
 31
0.0
  0
LINE
  5
487
  8
ZUWAKU
  6
CONTINUOUS
 62
     6
 10
2337.858668547866
 20
-1990.104596882537
 30
0.0
 11
2335.362126908269
 21
-1990.509327782151
 31
0.0
  0
LINE
  5
488
  8
ZUWAKU
  6
CONTINUOUS
 62
     6
 10
2335.362126908269
 20
-1990.509327782151
 30
0.0
 11
2332.950728577488
 21
-1991.077156918069
 31
0.0
  0
LINE
  5
489
  8
ZUWAKU
  6
CONTINUOUS
 62
     6
 10
2332.950728577488
 20
-1991.077156918069
 30
0.0
 11
2330.64255111852
 21
-1991.80419025318
 31
0.0
  0
LINE
  5
48A
  8
ZUWAKU
  6
CONTINUOUS
 62
     6
 10
2330.64255111852
 20
-1991.80419025318
 30
0.0
 11
2328.454955527387
 21
-1992.68541593702
 31
0.0
  0
LINE
  5
48B
  8
ZUWAKU
  6
CONTINUOUS
 62
     6
 10
2328.454955527387
 20
-1992.68541593702
 30
0.0
 11
2326.404488353097
 21
-1993.714736997923
 31
0.0
  0
LINE
  5
48C
  8
ZUWAKU
  6
CONTINUOUS
 62
     6
 10
2326.404488353097
 20
-1993.714736997923
 30
0.0
 11
2324.506797666777
 21
-1994.884998828271
 31
0.0
  0
LINE
  5
48D
  8
ZUWAKU
  6
CONTINUOUS
 62
     6
 10
2324.506797666777
 20
-1994.884998828271
 30
0.0
 11
2322.776559637049
 21
-1996.188004093766
 31
0.0
  0
LINE
  5
48E
  8
ZUWAKU
  6
CONTINUOUS
 62
     6
 10
2322.776559637049
 20
-1996.188004093766
 30
0.0
 11
2321.227407052716
 21
-1997.614508229978
 31
0.0
  0
LINE
  5
48F
  8
ZUWAKU
  6
CONTINUOUS
 62
     6
 10
2321.227407052716
 20
-1997.614508229978
 30
0.0
 11
2319.644197914941
 21
-1999.412760312438
 31
0.0
  0
LINE
  5
490
  8
ZUWAKU
  6
CONTINUOUS
 62
     6
 10
2316.917954607303
 20
-2004.92637623603
 30
0.0
 11
2316.587975957013
 21
-2006.199257246823
 31
0.0
  0
LINE
  5
491
  8
ZUWAKU
  6
CONTINUOUS
 62
     6
 10
2316.587975957013
 20
-2006.199257246823
 30
0.0
 11
2316.337351315881
 21
-2008.111526332492
 31
0.0
  0
LINE
  5
492
  8
ZUWAKU
  6
CONTINUOUS
 62
     6
 10
2316.337351315881
 20
-2008.111526332492
 30
0.0
 11
2316.321993464314
 21
-2010.053267861428
 31
0.0
  0
LINE
  5
493
  8
ZUWAKU
  6
CONTINUOUS
 62
     6
 10
2316.321993464314
 20
-2010.053267861428
 30
0.0
 11
2316.541565829837
 21
-2012.008507844997
 31
0.0
  0
LINE
  5
494
  8
ZUWAKU
  6
CONTINUOUS
 62
     6
 10
2316.541565829837
 20
-2012.008507844997
 30
0.0
 11
2316.993598316026
 21
-2013.961485597266
 31
0.0
  0
LINE
  5
495
  8
ZUWAKU
  6
CONTINUOUS
 62
     6
 10
2316.993598316026
 20
-2013.961485597266
 30
0.0
 11
2317.67367797879
 21
-2015.896859408912
 31
0.0
  0
LINE
  5
496
  8
ZUWAKU
  6
CONTINUOUS
 62
     6
 10
2317.67367797879
 20
-2015.896859408912
 30
0.0
 11
2318.575649388285
 21
-2017.799813784774
 31
0.0
  0
LINE
  5
497
  8
ZUWAKU
  6
CONTINUOUS
 62
     6
 10
2318.575649388285
 20
-2017.799813784774
 30
0.0
 11
2319.691783790288
 21
-2019.656097803483
 31
0.0
  0
LINE
  5
498
  8
ZUWAKU
  6
CONTINUOUS
 62
     6
 10
2319.691783790288
 20
-2019.656097803483
 30
0.0
 11
2321.012904157951
 21
-2021.452033121542
 31
0.0
  0
LINE
  5
499
  8
ZUWAKU
  6
CONTINUOUS
 62
     6
 10
2321.012904157951
 20
-2021.452033121542
 30
0.0
 11
2322.528473760097
 21
-2023.174521513462
 31
0.0
  0
LINE
  5
49A
  8
ZUWAKU
  6
CONTINUOUS
 62
     6
 10
2322.528473760097
 20
-2023.174521513462
 30
0.0
 11
2324.226664121069
 21
-2024.811067471913
 31
0.0
  0
LINE
  5
49B
  8
ZUWAKU
  6
CONTINUOUS
 62
     6
 10
2324.226664121069
 20
-2024.811067471913
 30
0.0
 11
2326.094417513524
 21
-2026.349819536857
 31
0.0
  0
LINE
  5
49C
  8
ZUWAKU
  6
CONTINUOUS
 62
     6
 10
2326.094417513524
 20
-2026.349819536857
 30
0.0
 11
2328.117514574521
 21
-2027.779627257899
 31
0.0
  0
LINE
  5
49D
  8
ZUWAKU
  6
CONTINUOUS
 62
     6
 10
2328.117514574521
 20
-2027.779627257899
 30
0.0
 11
2330.280652811446
 21
-2029.090108172391
 31
0.0
  0
LINE
  5
49E
  8
ZUWAKU
  6
CONTINUOUS
 62
     6
 10
2330.280652811446
 20
-2029.090108172391
 30
0.0
 11
2332.567538143992
 21
-2030.271719128242
 31
0.0
  0
LINE
  5
49F
  8
ZUWAKU
  6
CONTINUOUS
 62
     6
 10
2332.567538143992
 20
-2030.271719128242
 30
0.0
 11
2334.960989393461
 21
-2031.31582725672
 31
0.0
  0
LINE
  5
4A0
  8
ZUWAKU
  6
CONTINUOUS
 62
     6
 10
2334.960989393461
 20
-2031.31582725672
 30
0.0
 11
2337.443054451752
 21
-2032.21477708054
 31
0.0
  0
LINE
  5
4A1
  8
ZUWAKU
  6
CONTINUOUS
 62
     6
 10
2337.443054451752
 20
-2032.21477708054
 30
0.0
 11
2339.995136341963
 21
-2032.961951267924
 31
0.0
  0
LINE
  5
4A2
  8
ZUWAKU
  6
CONTINUOUS
 62
     6
 10
2339.995136341963
 20
-2032.961951267924
 30
0.0
 11
2342.598127211289
 21
-2033.551823318859
 31
0.0
  0
LINE
  5
4A3
  8
ZUWAKU
  6
CONTINUOUS
 62
     6
 10
2342.598127211289
 20
-2033.551823318859
 30
0.0
 11
2345.232548278467
 21
-2033.980001019207
 31
0.0
  0
LINE
  5
4A4
  8
ZUWAKU
  6
CONTINUOUS
 62
     6
 10
2345.232548278467
 20
-2033.980001019207
 30
0.0
 11
2347.87869377962
 21
-2034.243259879141
 31
0.0
  0
LINE
  5
4A5
  8
ZUWAKU
  6
CONTINUOUS
 62
     6
 10
2347.87869377962
 20
-2034.243259879141
 30
0.0
 11
2350.516776958809
 21
-2034.33956605255
 31
0.0
  0
LINE
  5
4A6
  8
ZUWAKU
  6
CONTINUOUS
 62
     6
 10
2350.516776958809
 20
-2034.33956605255
 30
0.0
 11
2353.127076103183
 21
-2034.268088472466
 31
0.0
  0
LINE
  5
4A7
  8
ZUWAKU
  6
CONTINUOUS
 62
     6
 10
2353.127076103183
 20
-2034.268088472466
 30
0.0
 11
2355.69007851568
 21
-2034.02920019579
 31
0.0
  0
LINE
  5
4A8
  8
ZUWAKU
  6
CONTINUOUS
 62
     6
 10
2355.69007851568
 20
-2034.02920019579
 30
0.0
 11
2358.186620155257
 21
-2033.624469296177
 31
0.0
  0
LINE
  5
4A9
  8
ZUWAKU
  6
CONTINUOUS
 62
     6
 10
2358.186620155257
 20
-2033.624469296177
 30
0.0
 11
2360.598018486058
 21
-2033.056640160279
 31
0.0
  0
LINE
  5
4AA
  8
ZUWAKU
  6
CONTINUOUS
 62
     6
 10
2360.598018486058
 20
-2033.056640160279
 30
0.0
 11
2362.906195945015
 21
-2032.329606825147
 31
0.0
  0
LINE
  5
4AB
  8
ZUWAKU
  6
CONTINUOUS
 62
     6
 10
2362.906195945015
 20
-2032.329606825147
 30
0.0
 11
2365.093791536159
 21
-2031.448381141307
 31
0.0
  0
LINE
  5
4AC
  8
ZUWAKU
  6
CONTINUOUS
 62
     6
 10
2365.093791536159
 20
-2031.448381141307
 30
0.0
 11
2367.144258710428
 21
-2030.419060080404
 31
0.0
  0
LINE
  5
4AD
  8
ZUWAKU
  6
CONTINUOUS
 62
     6
 10
2367.144258710428
 20
-2030.419060080404
 30
0.0
 11
2369.041949396749
 21
-2029.248798250077
 31
0.0
  0
LINE
  5
4AE
  8
ZUWAKU
  6
CONTINUOUS
 62
     6
 10
2369.041949396749
 20
-2029.248798250077
 30
0.0
 11
2370.772187426487
 21
-2027.945792984561
 31
0.0
  0
LINE
  5
4AF
  8
ZUWAKU
  6
CONTINUOUS
 62
     6
 10
2370.772187426487
 20
-2027.945792984561
 30
0.0
 11
2372.321340010809
 21
-2026.51928884835
 31
0.0
  0
LINE
  5
4B0
  8
ZUWAKU
  6
CONTINUOUS
 62
     6
 10
2372.321340010809
 20
-2026.51928884835
 30
0.0
 11
2372.535558214039
 21
-2026.275973975506
 31
0.0
  0
ARC
  5
4B1
  8
ZUWAKU
  6
CONTINUOUS
 62
     6
 10
2385.498670638579
 20
-2030.309274840934
 30
0.0
 40
0.8785845027455758
 50
248.9511701847962
 51
45.0
  0
LINE
  5
4B2
  8
ZUWAKU
  6
CONTINUOUS
 62
     6
 10
2376.407883232159
 20
-2019.975981315039
 30
0.0
 11
2376.476797619459
 21
-2019.801450496344
 31
0.0
  0
LINE
  5
4B3
  8
ZUWAKU
  6
CONTINUOUS
 62
     6
 10
2376.476797619459
 20
-2019.801450496344
 30
0.0
 11
2376.960771106512
 21
-2017.934539831505
 31
0.0
  0
LINE
  5
4B4
  8
ZUWAKU
  6
CONTINUOUS
 62
     6
 10
2376.960771106512
 20
-2017.934539831505
 30
0.0
 11
2377.211395747655
 21
-2016.022270745836
 31
0.0
  0
LINE
  5
4B5
  8
ZUWAKU
  6
CONTINUOUS
 62
     6
 10
2377.226753599221
 20
-2014.080529216921
 30
0.0
 11
2377.007181233689
 21
-2012.12528923333
 31
0.0
  0
LINE
  5
4B6
  8
ZUWAKU
  6
CONTINUOUS
 62
     6
 10
2377.007181233689
 20
-2012.12528923333
 30
0.0
 11
2376.5551487475
 21
-2010.172311481062
 31
0.0
  0
LINE
  5
4B7
  8
ZUWAKU
  6
CONTINUOUS
 62
     6
 10
2376.5551487475
 20
-2010.172311481062
 30
0.0
 11
2375.924684477182
 21
-2008.37813337993
 31
0.0
  0
LINE
  5
4B8
  8
ZUWAKU
  6
CONTINUOUS
 62
     6
 10
2317.513456343254
 20
-2002.158297694736
 30
0.0
 11
2318.086747238141
 21
-2002.37892420986
 31
0.0
  0
LINE
  5
4B9
  8
ZUWAKU
  6
CONTINUOUS
 62
     6
 10
2318.086747238141
 20
-2002.37892420986
 30
0.0
 11
2318.193532009666
 21
-2002.181491180626
 31
0.0
  0
LINE
  5
4BA
  8
ZUWAKU
  6
CONTINUOUS
 62
     6
 10
2318.193532009666
 20
-2002.181491180626
 30
0.0
 11
2317.513456343254
 21
-2002.158297694736
 31
0.0
  0
LINE
  5
4BB
  8
ZUWAKU
  6
CONTINUOUS
 62
     6
 10
2319.666072514281
 20
-2005.981279864549
 30
0.0
 11
2319.464609049793
 21
-2006.758418076692
 31
0.0
  0
LINE
  5
4BC
  8
ZUWAKU
  6
CONTINUOUS
 62
     6
 10
2319.464609049793
 20
-2006.758418076692
 30
0.0
 11
2319.245257257347
 21
-2008.432074943277
 31
0.0
  0
LINE
  5
4BD
  8
ZUWAKU
  6
CONTINUOUS
 62
     6
 10
2319.245257257347
 20
-2008.432074943277
 30
0.0
 11
2319.231795990143
 21
-2010.134025339757
 31
0.0
  0
LINE
  5
4BE
  8
ZUWAKU
  6
CONTINUOUS
 62
     6
 10
2319.231795990143
 20
-2010.134025339757
 30
0.0
 11
2319.424781151573
 21
-2011.852512559045
 31
0.0
  0
LINE
  5
4BF
  8
ZUWAKU
  6
CONTINUOUS
 62
     6
 10
2319.424781151573
 20
-2011.852512559045
 30
0.0
 11
2319.82354302616
 21
-2013.575338004829
 31
0.0
  0
LINE
  5
4C0
  8
ZUWAKU
  6
CONTINUOUS
 62
     6
 10
2319.82354302616
 20
-2013.575338004829
 30
0.0
 11
2320.426019499203
 21
-2015.2898683046
 31
0.0
  0
LINE
  5
4C1
  8
ZUWAKU
  6
CONTINUOUS
 62
     6
 10
2320.426019499203
 20
-2015.2898683046
 30
0.0
 11
2321.228604973915
 21
-2016.983140979345
 31
0.0
  0
LINE
  5
4C2
  8
ZUWAKU
  6
CONTINUOUS
 62
     6
 10
2321.228604973915
 20
-2016.983140979345
 30
0.0
 11
2322.226055497377
 21
-2018.642037491128
 31
0.0
  0
LINE
  5
4C3
  8
ZUWAKU
  6
CONTINUOUS
 62
     6
 10
2322.226055497377
 20
-2018.642037491128
 30
0.0
 11
2323.411462438956
 21
-2020.253483537057
 31
0.0
  0
LINE
  5
4C4
  8
ZUWAKU
  6
CONTINUOUS
 62
     6
 10
2323.411462438956
 20
-2020.253483537057
 30
0.0
 11
2324.776286343511
 21
-2021.804645113049
 31
0.0
  0
LINE
  5
4C5
  8
ZUWAKU
  6
CONTINUOUS
 62
     6
 10
2324.776286343511
 20
-2021.804645113049
 30
0.0
 11
2326.310434152888
 21
-2023.283103273442
 31
0.0
  0
LINE
  5
4C6
  8
ZUWAKU
  6
CONTINUOUS
 62
     6
 10
2326.310434152888
 20
-2023.283103273442
 30
0.0
 11
2328.002363549213
 21
-2024.677002416071
 31
0.0
  0
LINE
  5
4C7
  8
ZUWAKU
  6
CONTINUOUS
 62
     6
 10
2328.002363549213
 20
-2024.677002416071
 30
0.0
 11
2329.839202560018
 21
-2025.975173744856
 31
0.0
  0
LINE
  5
4C8
  8
ZUWAKU
  6
CONTINUOUS
 62
     6
 10
2329.839202560018
 20
-2025.975173744856
 30
0.0
 11
2331.806877233701
 21
-2027.167238154678
 31
0.0
  0
LINE
  5
4C9
  8
ZUWAKU
  6
CONTINUOUS
 62
     6
 10
2331.806877233701
 20
-2027.167238154678
 30
0.0
 11
2333.890243670079
 21
-2028.243692916647
 31
0.0
  0
LINE
  5
4CA
  8
ZUWAKU
  6
CONTINUOUS
 62
     6
 10
2333.890243670079
 20
-2028.243692916647
 30
0.0
 11
2336.073222793052
 21
-2029.195985655889
 31
0.0
  0
LINE
  5
4CB
  8
ZUWAKU
  6
CONTINUOUS
 62
     6
 10
2336.073222793052
 20
-2029.195985655889
 30
0.0
 11
2338.338937312267
 21
-2030.016578033625
 31
0.0
  0
LINE
  5
4CC
  8
ZUWAKU
  6
CONTINUOUS
 62
     6
 10
2338.338937312267
 20
-2030.016578033625
 30
0.0
 11
2340.669850735247
 21
-2030.699000627236
 31
0.0
  0
LINE
  5
4CD
  8
ZUWAKU
  6
CONTINUOUS
 62
     6
 10
2340.669850735247
 20
-2030.699000627236
 30
0.0
 11
2343.047908372044
 21
-2031.237899841989
 31
0.0
  0
LINE
  5
4CE
  8
ZUWAKU
  6
CONTINUOUS
 62
     6
 10
2343.047908372044
 20
-2031.237899841989
 30
0.0
 11
2345.454680217135
 21
-2031.629077261103
 31
0.0
  0
LINE
  5
4CF
  8
ZUWAKU
  6
CONTINUOUS
 62
     6
 10
2345.454680217135
 20
-2031.629077261103
 30
0.0
 11
2347.871505512389
 21
-2031.869521587251
 31
0.0
  0
LINE
  5
4D0
  8
ZUWAKU
  6
CONTINUOUS
 62
     6
 10
2347.871505512389
 20
-2031.869521587251
 30
0.0
 11
2350.279638748864
 21
-2031.957433181109
 31
0.0
  0
LINE
  5
4D1
  8
ZUWAKU
  6
CONTINUOUS
 62
     6
 10
2350.279638748864
 20
-2031.957433181109
 30
0.0
 11
2352.660396885529
 21
-2031.892241101217
 31
0.0
  0
LINE
  5
4D2
  8
ZUWAKU
  6
CONTINUOUS
 62
     6
 10
2352.660396885529
 20
-2031.892241101217
 30
0.0
 11
2354.995307659824
 21
-2031.674612429341
 31
0.0
  0
LINE
  5
4D3
  8
ZUWAKU
  6
CONTINUOUS
 62
     6
 10
2354.995307659824
 20
-2031.674612429341
 30
0.0
 11
2357.266259036003
 21
-2031.306453461392
 31
0.0
  0
LINE
  5
4D4
  8
ZUWAKU
  6
CONTINUOUS
 62
     6
 10
2357.266259036003
 20
-2031.306453461392
 30
0.0
 11
2359.455650049407
 21
-2030.79090196937
 31
0.0
  0
LINE
  5
4D5
  8
ZUWAKU
  6
CONTINUOUS
 62
     6
 10
2359.455650049407
 20
-2030.79090196937
 30
0.0
 11
2361.546543478133
 21
-2030.132309096885
 31
0.0
  0
LINE
  5
4D6
  8
ZUWAKU
  6
CONTINUOUS
 62
     6
 10
2361.546543478133
 20
-2030.132309096885
 30
0.0
 11
2363.52282073248
 21
-2029.336208445587
 31
0.0
  0
LINE
  5
4D7
  8
ZUWAKU
  6
CONTINUOUS
 62
     6
 10
2363.52282073248
 20
-2029.336208445587
 30
0.0
 11
2365.369338774919
 21
-2028.409268509994
 31
0.0
  0
LINE
  5
4D8
  8
ZUWAKU
  6
CONTINUOUS
 62
     6
 10
2365.369338774919
 20
-2028.409268509994
 30
0.0
 11
2367.072087265994
 21
-2027.359223009899
 31
0.0
  0
LINE
  5
4D9
  8
ZUWAKU
  6
CONTINUOUS
 62
     6
 10
2367.072087265994
 20
-2027.359223009899
 30
0.0
 11
2368.618340858181
 21
-2026.194772490495
 31
0.0
  0
LINE
  5
4DA
  8
ZUWAKU
  6
CONTINUOUS
 62
     6
 10
2368.618340858181
 20
-2026.194772490495
 30
0.0
 11
2369.708618556592
 21
-2025.190813511798
 31
0.0
  0
LINE
  5
4DB
  8
ZUWAKU
  6
CONTINUOUS
 62
     6
 10
2374.45162029613
 20
-2023.874509992382
 30
0.0
 11
2374.827618250243
 21
-2023.33816873289
 31
0.0
  0
LINE
  5
4DC
  8
ZUWAKU
  6
CONTINUOUS
 62
     6
 10
2374.827618250243
 20
-2023.33816873289
 30
0.0
 11
2375.108698263053
 21
-2022.818483410848
 31
0.0
  0
LINE
  5
4DD
  8
ZUWAKU
  6
CONTINUOUS
 62
     6
 10
2375.108698263053
 20
-2022.818483410848
 30
0.0
 11
2377.232020477028
 21
-2024.941805624822
 31
0.0
  0
LINE
  5
4DE
  8
ZUWAKU
  6
CONTINUOUS
 62
     6
 10
2373.37494280521
 20
-2009.561684058644
 30
0.0
 11
2373.725204037365
 21
-2010.558459073499
 31
0.0
  0
LINE
  5
4DF
  8
ZUWAKU
  6
CONTINUOUS
 62
     6
 10
2373.725204037365
 20
-2010.558459073499
 30
0.0
 11
2374.123965911963
 21
-2012.281284519283
 31
0.0
  0
LINE
  5
4E0
  8
ZUWAKU
  6
CONTINUOUS
 62
     6
 10
2374.123965911963
 20
-2012.281284519283
 30
0.0
 11
2374.316951073392
 21
-2013.999771738592
 31
0.0
  0
LINE
  5
4E1
  8
ZUWAKU
  6
CONTINUOUS
 62
     6
 10
2374.316951073392
 20
-2013.999771738592
 30
0.0
 11
2374.303489806189
 21
-2015.701722135051
 31
0.0
  0
LINE
  5
4E2
  8
ZUWAKU
  6
CONTINUOUS
 62
     6
 10
2374.303489806189
 20
-2015.701722135051
 30
0.0
 11
2374.084138013743
 21
-2017.375379001657
 31
0.0
  0
LINE
  5
4E3
  8
ZUWAKU
  6
CONTINUOUS
 62
     6
 10
2374.084138013743
 20
-2017.375379001657
 30
0.0
 11
2374.027141800825
 21
-2017.595239883705
 31
0.0
  0
LINE
  5
4E4
  8
ZUWAKU
  6
CONTINUOUS
 62
     6
 10
2374.027141800825
 20
-2017.595239883705
 30
0.0
 11
2368.333667883273
 21
-2011.901765966174
 31
0.0
  0
LINE
  5
4E5
  8
ZUWAKU
  6
CONTINUOUS
 62
     6
 10
2323.266195650094
 20
-1999.532914352239
 30
0.0
 11
2323.551950802882
 21
-1999.20834586265
 31
0.0
  0
LINE
  5
4E6
  8
ZUWAKU
  6
CONTINUOUS
 62
     6
 10
2323.551950802882
 20
-1999.20834586265
 30
0.0
 11
2324.930406205354
 21
-1997.939024587853
 31
0.0
  0
LINE
  5
4E7
  8
ZUWAKU
  6
CONTINUOUS
 62
     6
 10
2324.930406205354
 20
-1997.939024587853
 30
0.0
 11
2326.476659797531
 21
-1996.774574068428
 31
0.0
  0
LINE
  5
4E8
  8
ZUWAKU
  6
CONTINUOUS
 62
     6
 10
2326.476659797531
 20
-1996.774574068428
 30
0.0
 11
2328.179408288606
 21
-1995.724528568334
 31
0.0
  0
LINE
  5
4E9
  8
ZUWAKU
  6
CONTINUOUS
 62
     6
 10
2328.179408288606
 20
-1995.724528568334
 30
0.0
 11
2330.025926331055
 21
-1994.79758863274
 31
0.0
  0
LINE
  5
4EA
  8
ZUWAKU
  6
CONTINUOUS
 62
     6
 10
2330.025926331055
 20
-1994.79758863274
 30
0.0
 11
2332.002203585403
 21
-1994.001487981442
 31
0.0
  0
LINE
  5
4EB
  8
ZUWAKU
  6
CONTINUOUS
 62
     6
 10
2332.002203585403
 20
-1994.001487981442
 30
0.0
 11
2334.093097014129
 21
-1993.342895108957
 31
0.0
  0
LINE
  5
4EC
  8
ZUWAKU
  6
CONTINUOUS
 62
     6
 10
2334.093097014129
 20
-1993.342895108957
 30
0.0
 11
2336.282488027523
 21
-1992.827343616936
 31
0.0
  0
LINE
  5
4ED
  8
ZUWAKU
  6
CONTINUOUS
 62
     6
 10
2336.282488027523
 20
-1992.827343616936
 30
0.0
 11
2338.553439403712
 21
-1992.459184649007
 31
0.0
  0
LINE
  5
4EE
  8
ZUWAKU
  6
CONTINUOUS
 62
     6
 10
2338.553439403712
 20
-1992.459184649007
 30
0.0
 11
2340.888350178006
 21
-1992.241555977111
 31
0.0
  0
LINE
  5
4EF
  8
ZUWAKU
  6
CONTINUOUS
 62
     6
 10
2340.888350178006
 20
-1992.241555977111
 30
0.0
 11
2343.269108314662
 21
-1992.176363897219
 31
0.0
  0
LINE
  5
4F0
  8
ZUWAKU
  6
CONTINUOUS
 62
     6
 10
2343.269108314662
 20
-1992.176363897219
 30
0.0
 11
2345.677241551146
 21
-1992.264275491097
 31
0.0
  0
LINE
  5
4F1
  8
ZUWAKU
  6
CONTINUOUS
 62
     6
 10
2345.677241551146
 20
-1992.264275491097
 30
0.0
 11
2348.09406684639
 21
-1992.504719817224
 31
0.0
  0
LINE
  5
4F2
  8
ZUWAKU
  6
CONTINUOUS
 62
     6
 10
2348.09406684639
 20
-1992.504719817224
 30
0.0
 11
2350.500838691491
 21
-1992.895897236339
 31
0.0
  0
LINE
  5
4F3
  8
ZUWAKU
  6
CONTINUOUS
 62
     6
 10
2350.500838691491
 20
-1992.895897236339
 30
0.0
 11
2352.878896328278
 21
-1993.434796451092
 31
0.0
  0
LINE
  5
4F4
  8
ZUWAKU
  6
CONTINUOUS
 62
     6
 10
2352.878896328278
 20
-1993.434796451092
 30
0.0
 11
2355.209809751269
 21
-1994.117219044703
 31
0.0
  0
LINE
  5
4F5
  8
ZUWAKU
  6
CONTINUOUS
 62
     6
 10
2355.209809751269
 20
-1994.117219044703
 30
0.0
 11
2357.475524270484
 21
-1994.937811422459
 31
0.0
  0
LINE
  5
4F6
  8
ZUWAKU
  6
CONTINUOUS
 62
     6
 10
2357.475524270484
 20
-1994.937811422459
 30
0.0
 11
2359.658503393447
 21
-1995.8901041617
 31
0.0
  0
LINE
  5
4F7
  8
ZUWAKU
  6
CONTINUOUS
 62
     6
 10
2359.658503393447
 20
-1995.8901041617
 30
0.0
 11
2361.741869829824
 21
-1996.966558923649
 31
0.0
  0
LINE
  5
4F8
  8
ZUWAKU
  6
CONTINUOUS
 62
     6
 10
2361.741869829824
 20
-1996.966558923649
 30
0.0
 11
2363.709544503517
 21
-1998.158623333471
 31
0.0
  0
LINE
  5
4F9
  8
ZUWAKU
  6
CONTINUOUS
 62
     6
 10
2363.709544503517
 20
-1998.158623333471
 30
0.0
 11
2365.546383514313
 21
-1999.456794662277
 31
0.0
  0
LINE
  5
4FA
  8
ZUWAKU
  6
CONTINUOUS
 62
     6
 10
2365.546383514313
 20
-1999.456794662277
 30
0.0
 11
2367.238312910648
 21
-2000.850693804886
 31
0.0
  0
LINE
  5
4FB
  8
ZUWAKU
  6
CONTINUOUS
 62
     6
 10
2367.238312910648
 20
-2000.850693804886
 30
0.0
 11
2367.389760406022
 21
-2000.996643747946
 31
0.0
  0
LINE
  5
4FC
  8
ZUWAKU
  6
CONTINUOUS
 62
     6
 10
2333.718075101044
 20
-1997.000336046643
 30
0.0
 11
2335.160921166297
 21
-1996.660578809525
 31
0.0
  0
LINE
  5
4FD
  8
ZUWAKU
  6
CONTINUOUS
 62
     6
 10
2335.160921166297
 20
-1996.660578809525
 30
0.0
 11
2337.498546372018
 21
-1996.281610905504
 31
0.0
  0
LINE
  5
4FE
  8
ZUWAKU
  6
CONTINUOUS
 62
     6
 10
2337.498546372018
 20
-1996.281610905504
 30
0.0
 11
2339.898285011618
 21
-1996.057939860442
 31
0.0
  0
LINE
  5
4FF
  8
ZUWAKU
  6
CONTINUOUS
 62
     6
 10
2339.898285011618
 20
-1996.057939860442
 30
0.0
 11
2342.342215579957
 21
-1995.991017935693
 31
0.0
  0
LINE
  5
500
  8
ZUWAKU
  6
CONTINUOUS
 62
     6
 10
2342.342215579957
 20
-1995.991017935693
 30
0.0
 11
2344.812091545296
 21
-1996.081183516852
 31
0.0
  0
LINE
  5
501
  8
ZUWAKU
  6
CONTINUOUS
 62
     6
 10
2344.812091545296
 20
-1996.081183516852
 30
0.0
 11
2347.289471353234
 21
-1996.327652270585
 31
0.0
  0
LINE
  5
502
  8
ZUWAKU
  6
CONTINUOUS
 62
     6
 10
2347.289471353234
 20
-1996.327652270585
 30
0.0
 11
2349.755852656666
 21
-1996.728518133631
 31
0.0
  0
LINE
  5
503
  8
ZUWAKU
  6
CONTINUOUS
 62
     6
 10
2349.755852656666
 20
-1996.728518133631
 30
0.0
 11
2352.192808575785
 21
-1997.280764475696
 31
0.0
  0
LINE
  5
504
  8
ZUWAKU
  6
CONTINUOUS
 62
     6
 10
2352.192808575785
 20
-1997.280764475696
 30
0.0
 11
2353.455015625269
 21
-1997.650301413404
 31
0.0
  0
LINE
  5
505
  8
ZUWAKU
  6
CONTINUOUS
 62
     6
 10
2370.241113515833
 20
-2004.021458873232
 30
0.0
 11
2371.322691566158
 21
-2005.49175958722
 31
0.0
  0
LINE
  5
506
  8
ZUWAKU
  6
CONTINUOUS
 62
     6
 10
2371.322691566158
 20
-2005.49175958722
 30
0.0
 11
2372.165912367946
 21
-2006.894150997965
 31
0.0
  0
ARC
  5
507
  8
ZUWAKU
  6
CONTINUOUS
 62
     6
 10
2367.494698802851
 20
-2011.753078063229
 30
0.0
 40
2.4405125076266
 50
114.9000000000045
 51
225.0
  0
LINE
  5
508
  8
ZUWAKU
  6
CONTINUOUS
 62
     6
 10
2365.768995859132
 20
-2013.478781006937
 30
0.0
 11
2373.035473786248
 21
-2020.592400862498
 31
0.0
  0
LINE
  5
509
  8
ZUWAKU
  6
CONTINUOUS
 62
     6
 10
2373.035473786248
 20
-2020.592400862498
 30
0.0
 11
2372.212784417356
 21
-2022.113460952606
 31
0.0
  0
LINE
  5
50A
  8
ZUWAKU
  6
CONTINUOUS
 62
     6
 10
2372.212784417356
 20
-2022.113460952606
 30
0.0
 11
2371.714726178783
 21
-2022.823914773026
 31
0.0
  0
LINE
  5
50B
  8
ZUWAKU
  6
CONTINUOUS
 62
     6
 10
2320.679829093047
 20
-2003.23345325009
 30
0.0
 11
2321.134708903333
 21
-2002.392431655088
 31
0.0
  0
LINE
  5
50C
  8
ZUWAKU
  6
CONTINUOUS
 62
     6
 10
2365.099025383823
 20
-2011.287406323437
 30
0.0
 11
2364.392362548506
 21
-2014.922871450794
 31
0.0
  0
ARC
  5
50D
  8
ZUWAKU
  6
CONTINUOUS
 62
     6
 10
2366.788035967534
 20
-2015.388543190565
 30
0.0
 40
2.4405125076266
 50
169.0000000000008
 51
224.9999999999924
  0
LINE
  5
50E
  8
ZUWAKU
  6
CONTINUOUS
 62
     6
 10
2365.062333023825
 20
-2017.114246134294
 30
0.0
 11
2367.227513966445
 21
-2019.279427076914
 31
0.0
  0
ARC
  5
50F
  8
ZUWAKU
  6
CONTINUOUS
 62
     6
 10
2366.606260906713
 20
-2019.900680136647
 30
0.0
 40
0.8785845027455758
 50
248.9511701847962
 51
45.0
  0
LINE
  5
510
  8
ZUWAKU
  6
CONTINUOUS
 62
     6
 10
2319.644197914941
 20
-1999.412760312438
 30
0.0
 11
2303.290311053814
 21
-1998.870246010494
 31
0.0
  0
ARC
  5
511
  8
ZUWAKU
  6
CONTINUOUS
 62
     6
 10
2303.274127928298
 20
-1999.358080161036
 30
0.0
 40
0.4881025015253203
 50
88.09999999999538
 51
168.999999999985
  0
LINE
  5
512
  8
ZUWAKU
  6
CONTINUOUS
 62
     6
 10
2302.794993244493
 20
-1999.264945813094
 30
0.0
 11
2302.073137275563
 21
-2002.97857283702
 31
0.0
  0
ARC
  5
513
  8
ZUWAKU
  6
CONTINUOUS
 62
     6
 10
2302.552271959369
 20
-2003.071707184983
 30
0.0
 40
0.4881025015253203
 50
168.999999999985
 51
249.0000000000142
  0
LINE
  5
514
  8
ZUWAKU
  6
CONTINUOUS
 62
     6
 10
2302.377351666723
 20
-2003.527390126536
 30
0.0
 11
2315.863778650495
 21
-2008.704344406725
 31
0.0
  0
ARC
  5
515
  8
ZUWAKU
  6
CONTINUOUS
 62
     6
 10
2315.339017772569
 20
-2010.071393231387
 30
0.0
 40
1.46430750457596
 50
47.38928590657866
 51
69.00000000000077
  0
ARC
  5
516
  8
ZUWAKU
  6
CONTINUOUS
 62
     6
 10
2306.128114965397
 20
-1999.843453462098
 30
0.0
 40
0.8785845027455749
 50
88.10000000000122
 51
249.0000000000041
  0
LINE
  5
517
  8
ZUWAKU
  6
CONTINUOUS
 62
     6
 10
2316.917954607303
 20
-2004.92637623603
 30
0.0
 11
2305.813258438642
 21
-2000.663682756887
 31
0.0
  0
LINE
  5
518
  8
ZUWAKU
  6
CONTINUOUS
 62
     6
 10
2323.266195650094
 20
-1999.532914352239
 30
0.0
 11
2367.389760406022
 21
-2000.996643747946
 31
0.0
  0
ARC
  5
519
  8
ZUWAKU
  6
CONTINUOUS
 62
     6
 10
2334.053706266569
 20
-1998.425659935685
 30
0.0
 40
1.46430750457596
 50
103.2504547662854
 51
268.0999999999954
  0
ARC
  5
51A
  8
ZUWAKU
  6
CONTINUOUS
 62
     6
 10
2353.043580169217
 20
-1999.05561893392
 30
0.0
 40
1.46430750457596
 50
268.0999999999954
 51
73.68152816059978
  0
ARC
  5
51B
  8
ZUWAKU
  6
CONTINUOUS
 62
     6
 10
2371.800795632228
 20
-1999.677859856808
 30
0.0
 40
1.46430750457596
 50
226.0590228224501
 51
268.0999999999954
  0
LINE
  5
51C
  8
ZUWAKU
  6
CONTINUOUS
 62
     6
 10
2371.189859763344
 20
-2001.122706027071
 30
0.0
 11
2389.137204923485
 21
-2001.718080784996
 31
0.0
  0
ARC
  5
51D
  8
ZUWAKU
  6
CONTINUOUS
 62
     6
 10
2389.121021797969
 20
-2002.205914935559
 30
0.0
 40
0.4881025015253203
 50
348.999999999985
 51
88.09999999999539
  0
LINE
  5
51E
  8
ZUWAKU
  6
CONTINUOUS
 62
     6
 10
2389.600156481774
 20
-2002.299049283501
 30
0.0
 11
2389.003763171623
 21
-2005.367226882355
 31
0.0
  0
ARC
  5
51F
  8
ZUWAKU
  6
CONTINUOUS
 62
     6
 10
2388.524628487818
 20
-2005.274092534393
 30
0.0
 40
0.4881025015253203
 50
294.8999999999948
 51
348.999999999985
  0
LINE
  5
520
  8
ZUWAKU
  6
CONTINUOUS
 62
     6
 10
2388.730137121559
 20
-2005.716822986766
 30
0.0
 11
2377.860275685315
 21
-2010.762444675326
 31
0.0
  0
ARC
  5
521
  8
ZUWAKU
  6
CONTINUOUS
 62
     6
 10
2378.47680158652
 20
-2012.090636032446
 30
0.0
 40
1.46430750457596
 50
114.8999999999948
 51
186.40743915255
  0
LINE
  5
522
  8
ZUWAKU
  6
CONTINUOUS
 62
     6
 10
2375.924684477182
 20
-2008.37813337993
 30
0.0
 11
2386.851715315966
 21
-2003.305974538229
 31
0.0
  0
ARC
  5
523
  8
ZUWAKU
  6
CONTINUOUS
 62
     6
 10
2386.481799775233
 20
-2002.509059723965
 30
0.0
 40
0.8785845027455758
 50
294.8999999999816
 51
88.10000000000124
  0
LINE
  5
524
  8
ZUWAKU
  6
CONTINUOUS
 62
     6
 10
2373.37494280521
 20
-2009.561684058644
 30
0.0
 11
2368.333667883273
 21
-2011.901765966174
 31
0.0
  0
LINE
  5
525
  8
ZUWAKU
  6
CONTINUOUS
 62
     6
 10
2372.165912367946
 20
-2006.894150997965
 30
0.0
 11
2366.467155634162
 21
-2009.539425801383
 31
0.0
  0
LINE
  5
526
  8
ZUWAKU
  6
CONTINUOUS
 62
     6
 10
2321.134708903333
 20
-2002.392431655088
 30
0.0
 11
2370.241113515833
 21
-2004.021458873232
 31
0.0
  0
LINE
  5
527
  8
ZUWAKU
  6
CONTINUOUS
 62
     6
 10
2337.903026170746
 20
-2006.794194712633
 30
0.0
 11
2364.637510400287
 21
-2007.68106889568
 31
0.0
  0
LINE
  5
528
  8
ZUWAKU
  6
CONTINUOUS
 62
     6
 10
2371.714726178783
 20
-2022.823914773026
 30
0.0
 11
2320.679829093047
 21
-2003.23345325009
 31
0.0
  0
LINE
  5
529
  8
ZUWAKU
  6
CONTINUOUS
 62
     6
 10
2369.708618556592
 20
-2025.190813511798
 30
0.0
 11
2319.666072514281
 21
-2005.981279864549
 31
0.0
  0
LINE
  5
52A
  8
ZUWAKU
  6
CONTINUOUS
 62
     6
 10
2321.545081802004
 20
-2010.885192358734
 30
0.0
 11
2363.018127065485
 21
-2026.805202858769
 31
0.0
  0
LINE
  5
52B
  8
ZUWAKU
  6
CONTINUOUS
 62
     6
 10
2385.186541407364
 20
-2031.132231431273
 30
0.0
 11
2372.535558214039
 21
-2026.275973975506
 31
0.0
  0
LINE
  5
52C
  8
ZUWAKU
  6
CONTINUOUS
 62
     6
 10
2372.211230605583
 20
-2030.334104678182
 30
0.0
 11
2387.070453564805
 21
-2036.038025960794
 31
0.0
  0
ARC
  5
52D
  8
ZUWAKU
  6
CONTINUOUS
 62
     6
 10
2321.020320924079
 20
-2012.252241183375
 30
0.0
 40
1.46430750457596
 50
69.00000000000077
 51
193.0320838540939
  0
ARC
  5
52E
  8
ZUWAKU
  6
CONTINUOUS
 62
     6
 10
2337.854476794218
 20
-2008.25769716428
 30
0.0
 40
1.46430750457596
 50
88.09999999999538
 51
249.0000000000008
  0
ARC
  5
52F
  8
ZUWAKU
  6
CONTINUOUS
 62
     6
 10
2362.493366187559
 20
-2028.17225168343
 30
0.0
 40
1.46430750457596
 50
291.9409771775783
 51
69.00000000000074
  0
ARC
  5
530
  8
ZUWAKU
  6
CONTINUOUS
 62
     6
 10
2364.588961023759
 20
-2009.144571347328
 30
0.0
 40
1.46430750457596
 50
318.0853946908622
 51
88.09999999999539
  0
ARC
  5
531
  8
ZUWAKU
  6
CONTINUOUS
 62
     6
 10
2371.686469727667
 20
-2031.701153502823
 30
0.0
 40
1.46430750457596
 50
69.00000000000077
 51
132.6397603242096
  0
LINE
  5
532
  8
ZUWAKU
  6
CONTINUOUS
 62
     6
 10
2388.406052550724
 20
-2032.169237396205
 30
0.0
 11
2387.724508541246
 21
-2035.675477367202
 31
0.0
  0
ARC
  5
533
  8
ZUWAKU
  6
CONTINUOUS
 62
     6
 10
2387.24537385744
 20
-2035.58234301924
 30
0.0
 40
0.4881025015253203
 50
249.0000000000142
 51
348.999999999985
  0
LINE
  5
534
  8
ZUWAKU
  6
CONTINUOUS
 62
     6
 10
2374.45162029613
 20
-2023.874509992382
 30
0.0
 11
2377.232020477028
 21
-2024.941805624822
 31
0.0
  0
LINE
  5
535
  8
ZUWAKU
  6
CONTINUOUS
 62
     7
 10
2312.302138159547
 20
-1958.702358577902
 30
0.0
 11
2313.081515242211
 21
-1954.692811077306
 31
0.0
  0
LINE
  5
536
  8
ZUWAKU
  6
CONTINUOUS
 62
     7
 10
2316.440080879995
 20
-1954.692811077306
 30
0.0
 11
2313.081515242211
 21
-1954.692811077306
 31
0.0
  0
LINE
  5
537
  8
ZUWAKU
  6
CONTINUOUS
 62
     7
 10
2316.440080879995
 20
-1954.692811077306
 30
0.0
 11
2315.71944395023
 21
-1958.400166688347
 31
0.0
  0
ARC
  5
538
  8
ZUWAKU
  6
CONTINUOUS
 62
     7
 10
2316.496765199748
 20
-1958.551262633124
 30
0.0
 40
0.7918701342281877
 50
168.9999999999977
 51
270.0
  0
LINE
  5
539
  8
ZUWAKU
  6
CONTINUOUS
 62
     7
 10
2316.496765199748
 20
-1959.343132767348
 30
0.0
 11
2324.216750400393
 21
-1959.343132767348
 31
0.0
  0
LINE
  5
53A
  8
ZUWAKU
  6
CONTINUOUS
 62
     7
 10
2324.216750400393
 20
-1959.343132767348
 30
0.0
 11
2323.560405291156
 21
-1962.719735634959
 31
0.0
  0
LINE
  5
53B
  8
ZUWAKU
  6
CONTINUOUS
 62
     7
 10
2315.532572167532
 20
-1962.719735634959
 30
0.0
 11
2323.560405291156
 21
-1962.719735634959
 31
0.0
  0
ARC
  5
53C
  8
ZUWAKU
  6
CONTINUOUS
 62
     7
 10
2315.532572167532
 20
-1963.511605769183
 30
0.0
 40
0.7918701342281877
 50
90.0
 51
168.9999999999977
  0
LINE
  5
53D
  8
ZUWAKU
  6
CONTINUOUS
 62
     7
 10
2314.755250918014
 20
-1963.360509824405
 30
0.0
 11
2312.168011899942
 21
-1976.670700705125
 31
0.0
  0
LINE
  5
53E
  8
ZUWAKU
  6
CONTINUOUS
 62
     7
 10
2308.809446262168
 20
-1976.670700705125
 30
0.0
 11
2312.168011899942
 21
-1976.670700705125
 31
0.0
  0
LINE
  5
53F
  8
ZUWAKU
  6
CONTINUOUS
 62
     7
 10
2308.809446262168
 20
-1976.670700705125
 30
0.0
 11
2311.33794512733
 21
-1963.66270171396
 31
0.0
  0
ARC
  5
540
  8
ZUWAKU
  6
CONTINUOUS
 62
     7
 10
2310.560623877812
 20
-1963.511605769183
 30
0.0
 40
0.7918701342281877
 50
348.9999999999977
 51
90.0
  0
LINE
  5
541
  8
ZUWAKU
  6
CONTINUOUS
 62
     7
 10
2310.560623877812
 20
-1962.719735634959
 30
0.0
 11
2302.840638677168
 21
-1962.719735634959
 31
0.0
  0
LINE
  5
542
  8
ZUWAKU
  6
CONTINUOUS
 62
     7
 10
2302.840638677168
 20
-1962.719735634959
 30
0.0
 11
2303.496983786405
 21
-1959.343132767348
 31
0.0
  0
LINE
  5
543
  8
ZUWAKU
  6
CONTINUOUS
 62
     7
 10
2303.496983786405
 20
-1959.343132767348
 30
0.0
 11
2311.524816910029
 21
-1959.343132767348
 31
0.0
  0
ARC
  5
544
  8
ZUWAKU
  6
CONTINUOUS
 62
     7
 10
2311.524816910029
 20
-1958.551262633124
 30
0.0
 40
0.7918701342281877
 50
270.0
 51
348.9999999999977
  0
LINE
  5
545
  8
ZUWAKU
  6
CONTINUOUS
 62
     7
 10
2304.96141138114
 20
-1966.163604579443
 30
0.0
 11
2304.599633542508
 21
-1968.024790212059
 31
0.0
  0
ARC
  5
546
  8
ZUWAKU
  6
CONTINUOUS
 62
     7
 10
2299.866081067954
 20
-1967.104680818731
 30
0.0
 40
4.822148932275777
 50
285.6048457891941
 51
348.9999999999997
  0
ARC
  5
547
  8
ZUWAKU
  6
CONTINUOUS
 62
     7
 10
2301.200419716359
 20
-1971.882184811278
 30
0.0
 40
0.1381942037827943
 50
105.6048457891321
 51
168.9999999999731
  0
LINE
  5
548
  8
ZUWAKU
  6
CONTINUOUS
 62
     7
 10
2300.138004631684
 20
-1976.62358246732
 30
0.0
 11
2301.064764529328
 21
-1971.85581611409
 31
0.0
  0
ARC
  5
549
  8
ZUWAKU
  6
CONTINUOUS
 62
     7
 10
2298.155018082882
 20
-1967.395396335568
 30
0.0
 40
9.438837583892617
 50
282.127509556617
 51
348.9999999999977
  0
LINE
  5
54A
  8
ZUWAKU
  6
CONTINUOUS
 62
     7
 10
2307.420437635384
 20
-1969.196411452471
 30
0.0
 11
2308.009955572918
 21
-1966.163604579443
 31
0.0
  0
LINE
  5
54B
  8
ZUWAKU
  6
CONTINUOUS
 62
     7
 10
2308.009955572918
 20
-1966.163604579443
 30
0.0
 11
2304.96141138114
 21
-1966.163604579443
 31
0.0
  0
LINE
  5
54C
  8
ZUWAKU
  6
CONTINUOUS
 62
     7
 10
2317.672290667292
 20
-1966.163604579443
 30
0.0
 11
2316.655055836855
 21
-1971.396824111556
 31
0.0
  0
ARC
  5
54D
  8
ZUWAKU
  6
CONTINUOUS
 62
     7
 10
2320.746942248923
 20
-1972.192206257295
 30
0.0
 40
4.168473001830383
 50
168.9999999999991
 51
269.9999999999937
  0
LINE
  5
54E
  8
ZUWAKU
  6
CONTINUOUS
 62
     7
 10
2320.746942248923
 20
-1976.360679259109
 30
0.0
 11
2320.908874452556
 21
-1976.360679259109
 31
0.0
  0
LINE
  5
54F
  8
ZUWAKU
  6
CONTINUOUS
 62
     7
 10
2320.908874452556
 20
-1976.360679259109
 30
0.0
 11
2321.806267819852
 21
-1971.743990607494
 31
0.0
  0
LINE
  5
550
  8
ZUWAKU
  6
CONTINUOUS
 62
     7
 10
2321.806267819852
 20
-1971.743990607494
 30
0.0
 11
2321.414969801338
 21
-1971.743990607494
 31
0.0
  0
ARC
  5
551
  8
ZUWAKU
  6
CONTINUOUS
 62
     7
 10
2321.414969801338
 20
-1970.022056135262
 30
0.0
 40
1.72193447223917
 50
168.9999999999986
 51
270.0
  0
LINE
  5
552
  8
ZUWAKU
  6
CONTINUOUS
 62
     7
 10
2319.72467211527
 20
-1969.693495548519
 30
0.0
 11
2320.410813413064
 21
-1966.163604579443
 31
0.0
  0
LINE
  5
553
  8
ZUWAKU
  6
CONTINUOUS
 62
     7
 10
2320.410813413064
 20
-1966.163604579443
 30
0.0
 11
2317.672290667292
 21
-1966.163604579443
 31
0.0
  0
LINE
  5
554
  8
ZUWAKU
  6
CONTINUOUS
 62
     7
 10
2334.352470887441
 20
-1955.312853969298
 30
0.0
 11
2334.054769155155
 21
-1956.844396611679
 31
0.0
  0
ARC
  5
555
  8
ZUWAKU
  6
CONTINUOUS
 62
     7
 10
2326.886612849813
 20
-1955.451048173083
 30
0.0
 40
7.302320500305061
 50
271.0152301125719
 51
348.9999999999989
  0
LINE
  5
556
  8
ZUWAKU
  6
CONTINUOUS
 62
     7
 10
2326.123358745931
 20
-1967.344446458352
 30
0.0
 11
2327.015996685739
 21
-1962.752222360317
 31
0.0
  0
ARC
  5
557
  8
ZUWAKU
  6
CONTINUOUS
 62
     7
 10
2325.34242571949
 20
-1955.451048173083
 30
0.0
 40
11.9190091519219
 50
273.7567084122485
 51
341.5139853209123
  0
ARC
  5
558
  8
ZUWAKU
  6
CONTINUOUS
 62
     7
 10
2337.397437334459
 20
-1959.481326971133
 30
0.0
 40
0.7918701342281877
 50
90.0
 51
161.5139853208982
  0
LINE
  5
559
  8
ZUWAKU
  6
CONTINUOUS
 62
     7
 10
2337.397437334459
 20
-1958.689456836909
 30
0.0
 11
2342.966218208859
 21
-1958.689456836909
 31
0.0
  0
ARC
  5
55A
  8
ZUWAKU
  6
CONTINUOUS
 62
     7
 10
2342.966218208859
 20
-1959.481326971133
 30
0.0
 40
0.7918701342281877
 50
346.2586933201632
 51
90.0
  0
ARC
  5
55B
  8
ZUWAKU
  6
CONTINUOUS
 62
     7
 10
2328.209963758707
 20
-1955.872867375048
 30
0.0
 40
15.98292098840756
 50
277.2671664618185
 51
346.2586933201429
  0
LINE
  5
55C
  8
ZUWAKU
  6
CONTINUOUS
 62
     7
 10
2329.332061586395
 20
-1976.355854575603
 30
0.0
 11
2330.231742198424
 21
-1971.727399069868
 31
0.0
  0
ARC
  5
55D
  8
ZUWAKU
  6
CONTINUOUS
 62
     7
 10
2328.913949363514
 20
-1958.241241187128
 30
0.0
 40
18.11943807199512
 50
271.3222370437007
 51
349.0000000000006
  0
LINE
  5
55E
  8
ZUWAKU
  6
CONTINUOUS
 62
     7
 10
2346.700482323787
 20
-1961.698592962429
 30
0.0
 11
2347.941744243337
 21
-1955.312853969298
 31
0.0
  0
LINE
  5
55F
  8
ZUWAKU
  6
CONTINUOUS
 62
     7
 10
2334.352470887441
 20
-1955.312853969298
 30
0.0
 11
2347.941744243337
 21
-1955.312853969298
 31
0.0
  0
LINE
  5
560
  8
ZUWAKU
  6
CONTINUOUS
 62
     7
 10
2370.573309801606
 20
-1955.312853969298
 30
0.0
 11
2351.403650417638
 21
-1955.312853969298
 31
0.0
  0
LINE
  5
561
  8
ZUWAKU
  6
CONTINUOUS
 62
     7
 10
2350.747305308401
 20
-1958.689456836909
 30
0.0
 11
2357.537226171028
 21
-1958.689456836909
 31
0.0
  0
LINE
  5
562
  8
ZUWAKU
  6
CONTINUOUS
 62
     7
 10
2362.509174460757
 20
-1958.689456836909
 30
0.0
 11
2369.916964692369
 21
-1958.689456836909
 31
0.0
  0
LINE
  5
563
  8
ZUWAKU
  6
CONTINUOUS
 62
     7
 10
2355.066481525974
 20
-1972.984076391519
 30
0.0
 11
2347.658691294363
 21
-1972.984076391519
 31
0.0
  0
LINE
  5
564
  8
ZUWAKU
  6
CONTINUOUS
 62
     7
 10
2367.138372124336
 20
-1972.984076391519
 30
0.0
 11
2360.038429815704
 21
-1972.984076391519
 31
0.0
  0
LINE
  5
565
  8
ZUWAKU
  6
CONTINUOUS
 62
     7
 10
2347.002346185126
 20
-1976.360679259109
 30
0.0
 11
2366.482027015099
 21
-1976.360679259109
 31
0.0
  0
LINE
  5
566
  8
ZUWAKU
  6
CONTINUOUS
 62
     7
 10
2351.403650417638
 20
-1955.312853969298
 30
0.0
 11
2350.747305308401
 21
-1958.689456836909
 31
0.0
  0
ARC
  5
567
  8
ZUWAKU
  6
CONTINUOUS
 62
     7
 10
2357.537226171028
 20
-1959.481326971133
 30
0.0
 40
0.7918701342281877
 50
348.9999999999977
 51
90.0
  0
LINE
  5
568
  8
ZUWAKU
  6
CONTINUOUS
 62
     7
 10
2358.314547420546
 20
-1959.63242291591
 30
0.0
 11
2355.843802775492
 21
-1972.343302202072
 31
0.0
  0
ARC
  5
569
  8
ZUWAKU
  6
CONTINUOUS
 62
     7
 10
2355.066481525974
 20
-1972.192206257295
 30
0.0
 40
0.7918701342281877
 50
270.0
 51
348.9999999999977
  0
LINE
  5
56A
  8
ZUWAKU
  6
CONTINUOUS
 62
     7
 10
2347.658691294363
 20
-1972.984076391519
 30
0.0
 11
2347.002346185126
 21
-1976.360679259109
 31
0.0
  0
LINE
  5
56B
  8
ZUWAKU
  6
CONTINUOUS
 62
     7
 10
2366.482027015099
 20
-1976.360679259109
 30
0.0
 11
2367.138372124336
 21
-1972.984076391519
 31
0.0
  0
ARC
  5
56C
  8
ZUWAKU
  6
CONTINUOUS
 62
     7
 10
2360.038429815704
 20
-1972.192206257295
 30
0.0
 40
0.7918701342281877
 50
168.9999999999977
 51
270.0
  0
LINE
  5
56D
  8
ZUWAKU
  6
CONTINUOUS
 62
     7
 10
2359.261108566186
 20
-1972.041110312497
 30
0.0
 11
2361.731853211239
 21
-1959.330231026355
 31
0.0
  0
ARC
  5
56E
  8
ZUWAKU
  6
CONTINUOUS
 62
     7
 10
2362.509174460757
 20
-1959.481326971133
 30
0.0
 40
0.7918701342281877
 50
90.0
 51
168.9999999999977
  0
LINE
  5
56F
  8
ZUWAKU
  6
CONTINUOUS
 62
     7
 10
2369.916964692369
 20
-1958.689456836909
 30
0.0
 11
2370.573309801606
 21
-1955.312853969298
 31
0.0
  0
LINE
  5
570
  8
ZUWAKU
  6
CONTINUOUS
 62
     7
 10
2390.159149209311
 20
-1954.692811077306
 30
0.0
 11
2387.600580793581
 21
-1954.692811077306
 31
0.0
  0
ARC
  5
571
  8
ZUWAKU
  6
CONTINUOUS
 62
     7
 10
2387.600580793581
 20
-1954.831005281091
 30
0.0
 40
0.1381942037827943
 50
90.0
 51
151.0614722597668
  0
ARC
  5
572
  8
ZUWAKU
  6
CONTINUOUS
 62
     7
 10
2370.779238804439
 20
-1945.530361900966
 30
0.0
 40
19.08313544844417
 50
269.999999999989
 51
331.0614722598195
  0
LINE
  5
573
  8
ZUWAKU
  6
CONTINUOUS
 62
     7
 10
2370.779238804439
 20
-1964.613497349423
 30
0.0
 11
2369.861100982955
 21
-1964.613497349423
 31
0.0
  0
LINE
  5
574
  8
ZUWAKU
  6
CONTINUOUS
 62
     7
 10
2368.734137165912
 20
-1969.825163649663
 30
0.0
 11
2369.725445795934
 21
-1964.725322855999
 31
0.0
  0
ARC
  5
575
  8
ZUWAKU
  6
CONTINUOUS
 62
     7
 10
2369.861100982955
 20
-1964.751691553207
 30
0.0
 40
0.1381942037827943
 50
90.0
 51
168.9999999999731
  0
ARC
  5
576
  8
ZUWAKU
  6
CONTINUOUS
 62
     7
 10
2365.554595651674
 20
-1942.590050604178
 30
0.0
 40
27.42008145210493
 50
276.6588077484421
 51
292.9187661784219
  0
ARC
  5
577
  8
ZUWAKU
  6
CONTINUOUS
 62
     7
 10
2376.541053139859
 20
-1968.574891649884
 30
0.0
 40
0.7918701342281877
 50
348.9999999999977
 51
112.9187661783949
  0
LINE
  5
578
  8
ZUWAKU
  6
CONTINUOUS
 62
     7
 10
2377.318374389377
 20
-1968.725987594661
 30
0.0
 11
2375.774078598955
 21
-1976.670700705125
 31
0.0
  0
LINE
  5
579
  8
ZUWAKU
  6
CONTINUOUS
 62
     7
 10
2375.774078598955
 20
-1976.670700705125
 30
0.0
 11
2379.132644236729
 21
-1976.670700705125
 31
0.0
  0
LINE
  5
57A
  8
ZUWAKU
  6
CONTINUOUS
 62
     7
 10
2379.132644236729
 20
-1976.670700705125
 30
0.0
 11
2381.325248245448
 21
-1965.390730946662
 31
0.0
  0
ARC
  5
57B
  8
ZUWAKU
  6
CONTINUOUS
 62
     7
 10
2382.406894973816
 20
-1965.600981772087
 30
0.0
 40
1.101891580231848
 50
126.2175779738528
 51
168.9999999999982
  0
ARC
  5
57C
  8
ZUWAKU
  6
CONTINUOUS
 62
     7
 10
2365.554595651674
 20
-1942.590050604178
 30
0.0
 40
27.42008145210493
 50
306.2175779738573
 51
333.807838487296
  0
LINE
  5
57D
  8
ZUWAKU
  6
CONTINUOUS
 62
     2
 10
2616.786807991998
 20
-1966.573680115693
 30
0.0
 11
2620.272549071385
 21
-1948.641096847101
 31
0.0
  0
LINE
  5
57E
  8
ZUWAKU
  6
CONTINUOUS
 62
     2
 10
2635.293635105006
 20
-1948.641096847101
 30
0.0
 11
2620.272549071385
 21
-1948.641096847101
 31
0.0
  0
LINE
  5
57F
  8
ZUWAKU
  6
CONTINUOUS
 62
     2
 10
2635.293635105006
 20
-1948.641096847101
 30
0.0
 11
2632.070607631865
 21
-1965.22213577763
 31
0.0
  0
ARC
  5
580
  8
ZUWAKU
  6
CONTINUOUS
 62
     2
 10
2635.547154057945
 20
-1965.897907946661
 30
0.0
 40
3.541615885037504
 50
169.0000000000062
 51
270.0
  0
LINE
  5
581
  8
ZUWAKU
  6
CONTINUOUS
 62
     2
 10
2635.547154057945
 20
-1969.439523831692
 30
0.0
 11
2670.074560809413
 21
-1969.439523831692
 31
0.0
  0
LINE
  5
582
  8
ZUWAKU
  6
CONTINUOUS
 62
     2
 10
2670.074560809413
 20
-1969.439523831692
 30
0.0
 11
2667.139076612609
 21
-1984.541280845205
 31
0.0
  0
LINE
  5
583
  8
ZUWAKU
  6
CONTINUOUS
 62
     2
 10
2631.234829079973
 20
-1984.541280845205
 30
0.0
 11
2667.139076612609
 21
-1984.541280845205
 31
0.0
  0
ARC
  5
584
  8
ZUWAKU
  6
CONTINUOUS
 62
     2
 10
2631.234829079973
 20
-1988.082896730235
 30
0.0
 40
3.541615885037504
 50
90.0
 51
169.0000000000012
  0
LINE
  5
585
  8
ZUWAKU
  6
CONTINUOUS
 62
     2
 10
2627.758282653893
 20
-1987.407124561204
 30
0.0
 11
2616.186932240811
 21
-2046.936561799017
 31
0.0
  0
LINE
  5
586
  8
ZUWAKU
  6
CONTINUOUS
 62
     2
 10
2601.16584620719
 20
-2046.936561799017
 30
0.0
 11
2616.186932240811
 21
-2046.936561799017
 31
0.0
  0
LINE
  5
587
  8
ZUWAKU
  6
CONTINUOUS
 62
     2
 10
2601.16584620719
 20
-2046.936561799017
 30
0.0
 11
2612.474483014026
 21
-1988.758668899267
 31
0.0
  0
ARC
  5
588
  8
ZUWAKU
  6
CONTINUOUS
 62
     2
 10
2608.997936587947
 20
-1988.082896730235
 30
0.0
 40
3.541615885037504
 50
349.0000000000012
 51
90.0
  0
LINE
  5
589
  8
ZUWAKU
  6
CONTINUOUS
 62
     2
 10
2608.997936587947
 20
-1984.541280845205
 30
0.0
 11
2574.470529836468
 21
-1984.541280845205
 31
0.0
  0
LINE
  5
58A
  8
ZUWAKU
  6
CONTINUOUS
 62
     2
 10
2574.470529836468
 20
-1984.541280845205
 30
0.0
 11
2577.406014033282
 21
-1969.439523831692
 31
0.0
  0
LINE
  5
58B
  8
ZUWAKU
  6
CONTINUOUS
 62
     2
 10
2577.406014033282
 20
-1969.439523831692
 30
0.0
 11
2613.310261565908
 21
-1969.439523831692
 31
0.0
  0
ARC
  5
58C
  8
ZUWAKU
  6
CONTINUOUS
 62
     2
 10
2613.310261565908
 20
-1965.897907946661
 30
0.0
 40
3.541615885037504
 50
270.0
 51
349.0000000000062
  0
LINE
  5
58D
  8
ZUWAKU
  6
CONTINUOUS
 62
     2
 10
2583.955623379338
 20
-1999.943883409107
 30
0.0
 11
2582.337582636576
 21
-2008.26798141026
 31
0.0
  0
ARC
  5
58E
  8
ZUWAKU
  6
CONTINUOUS
 62
     2
 10
2561.166908416259
 20
-2004.152819210659
 30
0.0
 40
21.56691927169364
 50
285.6048457891958
 51
348.9999999999995
  0
ARC
  5
58F
  8
ZUWAKU
  6
CONTINUOUS
 62
     2
 10
2567.134698775966
 20
-2025.520065302527
 30
0.0
 40
0.6180695118831423
 50
105.6048457891877
 51
168.9999999999846
  0
LINE
  5
590
  8
ZUWAKU
  6
CONTINUOUS
 62
     2
 10
2562.383078557303
 20
-2046.725826866296
 30
0.0
 11
2566.527984941839
 21
-2025.402132079895
 31
0.0
  0
ARC
  5
591
  8
ZUWAKU
  6
CONTINUOUS
 62
     2
 10
2553.514229540909
 20
-2005.453035809254
 30
0.0
 40
42.21492348108961
 50
282.1275095566157
 51
348.9999999999986
  0
LINE
  5
592
  8
ZUWAKU
  6
CONTINUOUS
 62
     2
 10
2594.95354597711
 20
-2013.508022948582
 30
0.0
 11
2597.590147613976
 21
-1999.943883409107
 31
0.0
  0
LINE
  5
593
  8
ZUWAKU
  6
CONTINUOUS
 62
     2
 10
2597.590147613976
 20
-1999.943883409107
 30
0.0
 11
2583.955623379338
 21
-1999.943883409107
 31
0.0
  0
LINE
  5
594
  8
ZUWAKU
  6
CONTINUOUS
 62
     2
 10
2640.804657137247
 20
-1999.943883409107
 30
0.0
 11
2636.255104276779
 21
-2023.349303848289
 31
0.0
  0
ARC
  5
595
  8
ZUWAKU
  6
CONTINUOUS
 62
     2
 10
2654.555945905143
 20
-2026.90662710149
 30
0.0
 40
18.64337289853928
 50
168.9999999999998
 51
269.9999999999888
  0
LINE
  5
596
  8
ZUWAKU
  6
CONTINUOUS
 62
     2
 10
2654.555945905133
 20
-2045.550000000033
 30
0.0
 11
2655.2801829232
 21
-2045.550000000033
 31
0.0
  0
LINE
  5
597
  8
ZUWAKU
  6
CONTINUOUS
 62
     2
 10
2655.2801829232
 20
-2045.550000000033
 30
0.0
 11
2659.293748364499
 21
-2024.901995790648
 31
0.0
  0
LINE
  5
598
  8
ZUWAKU
  6
CONTINUOUS
 62
     2
 10
2659.293748364499
 20
-2024.901995790648
 30
0.0
 11
2657.543679485468
 21
-2024.901995790648
 31
0.0
  0
ARC
  5
599
  8
ZUWAKU
  6
CONTINUOUS
 62
     2
 10
2657.543679485468
 20
-2017.200694508687
 30
0.0
 40
7.701301281958151
 50
169.0000000000005
 51
269.9999999999966
  0
LINE
  5
59A
  8
ZUWAKU
  6
CONTINUOUS
 62
     2
 10
2649.983872799182
 20
-2015.731216947971
 30
0.0
 11
2653.052619572921
 21
-1999.943883409107
 31
0.0
  0
LINE
  5
59B
  8
ZUWAKU
  6
CONTINUOUS
 62
     2
 10
2653.052619572921
 20
-1999.943883409107
 30
0.0
 11
2640.804657137247
 21
-1999.943883409107
 31
0.0
  0
LINE
  5
59C
  8
ZUWAKU
  6
CONTINUOUS
 62
     2
 10
2715.406272578311
 20
-1951.414220445048
 30
0.0
 11
2714.074810336618
 21
-1958.263999867644
 31
0.0
  0
ARC
  5
59D
  8
ZUWAKU
  6
CONTINUOUS
 62
     2
 10
2682.015442089084
 20
-1952.032289956927
 30
0.0
 40
32.65941366348204
 50
271.0152301125746
 51
349.0000000000011
  0
LINE
  5
59E
  8
ZUWAKU
  6
CONTINUOUS
 62
     2
 10
2678.601810558125
 20
-2005.225163981919
 30
0.0
 11
2682.594107489845
 21
-1984.686576768865
 31
0.0
  0
ARC
  5
59F
  8
ZUWAKU
  6
CONTINUOUS
 62
     2
 10
2675.109110565988
 20
-1952.032289956927
 30
0.0
 40
53.30741787287801
 50
273.7567084122492
 51
341.5139853209125
  0
ARC
  5
5A0
  8
ZUWAKU
  6
CONTINUOUS
 62
     2
 10
2729.024795454774
 20
-1970.057593343592
 30
0.0
 40
3.541615885037504
 50
90.0
 51
161.5139853209099
  0
LINE
  5
5A1
  8
ZUWAKU
  6
CONTINUOUS
 62
     2
 10
2729.024795454774
 20
-1966.51597745854
 30
0.0
 11
2753.931004127843
 21
-1966.51597745854
 31
0.0
  0
ARC
  5
5A2
  8
ZUWAKU
  6
CONTINUOUS
 62
     2
 10
2753.931004127843
 20
-1970.057593343592
 30
0.0
 40
3.541615885037504
 50
346.2586933201427
 51
90.00000000000738
  0
ARC
  5
5A3
  8
ZUWAKU
  6
CONTINUOUS
 62
     2
 10
2687.934090107027
 20
-1953.918863931211
 30
0.0
 40
71.48314403474141
 50
277.2671664618192
 51
346.258693320142
  0
LINE
  5
5A4
  8
ZUWAKU
  6
CONTINUOUS
 62
     2
 10
2692.952639638478
 20
-2045.528421744906
 30
0.0
 11
2696.976434714598
 21
-2024.827790626578
 31
0.0
  0
ARC
  5
5A5
  8
ZUWAKU
  6
CONTINUOUS
 62
     2
 10
2691.082645019083
 20
-1964.511346147678
 30
0.0
 40
81.03865385234897
 50
271.3222370437007
 51
349.0000000000001
  0
LINE
  5
5A6
  8
ZUWAKU
  6
CONTINUOUS
 62
     2
 10
2770.632390550553
 20
-1979.974250275913
 30
0.0
 11
2776.183897978054
 21
-1951.414220445048
 31
0.0
  0
LINE
  5
5A7
  8
ZUWAKU
  6
CONTINUOUS
 62
     2
 10
2715.406272578311
 20
-1951.414220445048
 30
0.0
 11
2776.183897978054
 21
-1951.414220445048
 31
0.0
  0
LINE
  5
5A8
  8
ZUWAKU
  6
CONTINUOUS
 62
     2
 10
2877.402909303132
 20
-1951.414220445048
 30
0.0
 11
2791.667171521858
 21
-1951.414220445048
 31
0.0
  0
LINE
  5
5A9
  8
ZUWAKU
  6
CONTINUOUS
 62
     2
 10
2788.731687325054
 20
-1966.51597745854
 30
0.0
 11
2819.099408679602
 21
-1966.51597745854
 31
0.0
  0
LINE
  5
5AA
  8
ZUWAKU
  6
CONTINUOUS
 62
     2
 10
2841.336301171639
 20
-1966.51597745854
 30
0.0
 11
2874.467425106318
 21
-1966.51597745854
 31
0.0
  0
LINE
  5
5AB
  8
ZUWAKU
  6
CONTINUOUS
 62
     2
 10
2808.049075923554
 20
-2030.448242986541
 30
0.0
 11
2774.917951988875
 21
-2030.448242986541
 31
0.0
  0
LINE
  5
5AC
  8
ZUWAKU
  6
CONTINUOUS
 62
     2
 10
2862.040251569113
 20
-2030.448242986541
 30
0.0
 11
2830.285968415591
 21
-2030.448242986541
 31
0.0
  0
LINE
  5
5AD
  8
ZUWAKU
  6
CONTINUOUS
 62
     2
 10
2771.982467792061
 20
-2045.550000000033
 30
0.0
 11
2859.104767372308
 21
-2045.550000000033
 31
0.0
  0
LINE
  5
5AE
  8
ZUWAKU
  6
CONTINUOUS
 62
     2
 10
2791.667171521858
 20
-1951.414220445048
 30
0.0
 11
2788.731687325054
 21
-1966.51597745854
 31
0.0
  0
ARC
  5
5AF
  8
ZUWAKU
  6
CONTINUOUS
 62
     2
 10
2819.099408679602
 20
-1970.057593343571
 30
0.0
 40
3.541615885037504
 50
349.0000000000012
 51
90.00000000000738
  0
LINE
  5
5B0
  8
ZUWAKU
  6
CONTINUOUS
 62
     2
 10
2822.575955105682
 20
-1970.733365512623
 30
0.0
 11
2811.525622349644
 21
-2027.582399270521
 31
0.0
  0
ARC
  5
5B1
  8
ZUWAKU
  6
CONTINUOUS
 62
     2
 10
2808.049075923554
 20
-2026.90662710149
 30
0.0
 40
3.541615885037504
 50
270.0
 51
349.0000000000012
  0
LINE
  5
5B2
  8
ZUWAKU
  6
CONTINUOUS
 62
     2
 10
2774.917951988875
 20
-2030.448242986541
 30
0.0
 11
2771.982467792061
 21
-2045.550000000033
 31
0.0
  0
LINE
  5
5B3
  8
ZUWAKU
  6
CONTINUOUS
 62
     2
 10
2859.104767372308
 20
-2045.550000000033
 30
0.0
 11
2862.040251569113
 21
-2030.448242986541
 31
0.0
  0
ARC
  5
5B4
  8
ZUWAKU
  6
CONTINUOUS
 62
     2
 10
2830.285968415591
 20
-2026.90662710149
 30
0.0
 40
3.541615885037504
 50
169.0000000000012
 51
270.0
  0
LINE
  5
5B5
  8
ZUWAKU
  6
CONTINUOUS
 62
     2
 10
2826.809421989511
 20
-2026.230854932458
 30
0.0
 11
2837.859754745549
 21
-1969.38182117454
 31
0.0
  0
ARC
  5
5B6
  8
ZUWAKU
  6
CONTINUOUS
 62
     2
 10
2841.336301171639
 20
-1970.057593343592
 30
0.0
 40
3.541615885037504
 50
90.0
 51
169.0000000000012
  0
LINE
  5
5B7
  8
ZUWAKU
  6
CONTINUOUS
 62
     2
 10
2874.467425106318
 20
-1966.51597745854
 30
0.0
 11
2877.402909303132
 21
-1951.414220445048
 31
0.0
  0
LINE
  5
5B8
  8
ZUWAKU
  6
CONTINUOUS
 62
     2
 10
2964.99999999998
 20
-1948.641096847101
 30
0.0
 11
2953.556878012647
 21
-1948.641096847101
 31
0.0
  0
ARC
  5
5B9
  8
ZUWAKU
  6
CONTINUOUS
 62
     2
 10
2953.556878012647
 20
-1949.259166358981
 30
0.0
 40
0.6180695118831423
 50
90.0
 51
151.0614722598351
  0
ARC
  5
5BA
  8
ZUWAKU
  6
CONTINUOUS
 62
     2
 10
2878.323920711573
 20
-1907.662312389779
 30
0.0
 40
85.3487620244769
 50
269.999999999989
 51
331.0614722598195
  0
LINE
  5
5BB
  8
ZUWAKU
  6
CONTINUOUS
 62
     2
 10
2878.323920711553
 20
-1993.01107441425
 30
0.0
 11
2874.217576309061
 21
-1993.01107441425
 31
0.0
  0
LINE
  5
5BC
  8
ZUWAKU
  6
CONTINUOUS
 62
     2
 10
2869.1772637833
 20
-2016.320098657749
 30
0.0
 11
2873.610862474934
 21
-1993.511210703497
 31
0.0
  0
ARC
  5
5BD
  8
ZUWAKU
  6
CONTINUOUS
 62
     2
 10
2874.217576309061
 20
-1993.629143926129
 30
0.0
 40
0.6180695118831423
 50
90.0
 51
168.9999999999846
  0
ARC
  5
5BE
  8
ZUWAKU
  6
CONTINUOUS
 62
     2
 10
2854.956857876787
 20
-1894.511856594649
 30
0.0
 40
122.6355078215554
 50
276.6588077484425
 51
292.918766178422
  0
ARC
  5
5BF
  8
ZUWAKU
  6
CONTINUOUS
 62
     2
 10
2904.093465861592
 20
-2010.728293911481
 30
0.0
 40
3.541615885037504
 50
349.0000000000012
 51
112.9187661783953
  0
LINE
  5
5C0
  8
ZUWAKU
  6
CONTINUOUS
 62
     2
 10
2907.570012287682
 20
-2011.404066080512
 30
0.0
 11
2900.663194785483
 21
-2046.936561799017
 31
0.0
  0
LINE
  5
5C1
  8
ZUWAKU
  6
CONTINUOUS
 62
     2
 10
2900.663194785483
 20
-2046.936561799017
 30
0.0
 11
2915.684280819104
 21
-2046.936561799017
 31
0.0
  0
LINE
  5
5C2
  8
ZUWAKU
  6
CONTINUOUS
 62
     2
 10
2915.684280819104
 20
-2046.936561799017
 30
0.0
 11
2925.490637759718
 21
-1996.487228818104
 31
0.0
  0
ARC
  5
5C3
  8
ZUWAKU
  6
CONTINUOUS
 62
     2
 10
2930.32827093921
 20
-1997.42756945103
 30
0.0
 40
4.928177684011054
 50
126.2175779738598
 51
168.9999999999982
  0
ARC
  5
5C4
  8
ZUWAKU
  6
CONTINUOUS
 62
     2
 10
2854.956857876787
 20
-1894.511856594649
 30
0.0
 40
122.6355078215554
 50
306.2175779738572
 51
333.807838487296
  0
TEXT
  5
5C5
  8
ZUWAKU
 62
     2
 10
2450.609602889377
 20
-1995.535636140368
 30
0.0
 40
45.0
  1
株
 41
1.12
  7
DCSTYLE0
 72
     5
 11
2486.609602889377
 21
-1995.535636140368
 31
0.0
  0
TEXT
  5
5C6
  8
ZUWAKU
 62
     2
 10
2504.609602889379
 20
-1995.535636140368
 30
0.0
 40
45.0
  1
式
 41
1.12
  7
DCSTYLE0
 72
     5
 11
2540.609602889379
 21
-1995.535636140368
 31
0.0
  0
TEXT
  5
5C7
  8
ZUWAKU
 62
     2
 10
2450.609602889377
 20
-2049.53563614038
 30
0.0
 40
45.0
  1
会
 41
1.12
  7
DCSTYLE0
 72
     5
 11
2486.609602889377
 21
-2049.53563614038
 31
0.0
  0
TEXT
  5
5C8
  8
ZUWAKU
 62
     2
 10
2504.609602889379
 20
-2049.53563614038
 30
0.0
 40
45.0
  1
社
 41
1.12
  7
DCSTYLE0
 72
     5
 11
2540.609602889379
 21
-2049.53563614038
 31
0.0
  0
TEXT
  5
5C9
  8
ZUWAKU
 62
     2
 10
1628.500000178797
 20
-1860.000000000032
 30
0.0
 40
60.0
  1
ＨＢ-1000Ｍ-Ｗ（長脚用）　防油堤
 41
0.821487603305785
  7
DCSTYLE0
 72
     5
 11
2480.500000178797
 21
-1860.000000000032
 31
0.0
  0
TEXT
  5
5CA
  8
ZUWAKU
 62
   150
 10
1686.249999999983
 20
-2025.000000000033
 30
0.0
 40
52.5
  1
静電焼付粉体塗装
 41
1.389361702127667
  7
DCSTYLE0
 72
     5
 11
2175.999999999985
 21
-2025.000000000033
 31
0.0
  0
TEXT
  5
5CB
  8
0
 62
     4
 10
3005.854686921225
 20
-2031.283356741573
 30
0.0
 40
52.5
  1
E
 41
0.9882352941176471
  7
DCSTYLE0
 72
     5
 11
3047.854686921225
 21
-2031.283356741573
 31
0.0
  0
TEXT
  5
5CC
  8
ZUWAKU
 62
     7
 10
2685.812499999983
 20
-1852.500000000032
 30
0.0
 40
45.0
  1
HB-1000MW
 41
0.6784615384615384
  7
DCSTYLE0
 72
     5
 11
2969.312499999983
 21
-1852.500000000032
 31
0.0
  0
VIEWPORT
  5
B3
 67
     1
  8
0
 10
85.82734346060442
 20
3.124999999966349
 30
0.0
 40
17524.96406076373
 41
12483.75000000001
 68
     1
 69
     1
1001
ACAD
1000
MVIEW
1002
{
1070
    16
1010
0.0
1020
0.0
1030
0.0
1020
0.0
1030
0.0
1010
0.0
1020
0.0
1030
1.0
1020
0.0
1030
1.0
1040
0.0
1040
12483.75000000001
1040
85.82734346060442
1040
3.124999999966349
1040
50.0
1040
0.0
1040
0.0
1070
     0
1070
   100
1070
     0
1070
     3
1070
     0
1070
     0
1070
     0
1070
     0
1040
0.0
1040
0.0
1040
0.0
1040
0.5
1040
0.5
1040
0.0
1040
0.0
1070
     0
1002
{
1002
}
1002
}
  0
ENDSEC
  0
EOF
