  0
SECTION
  2
HEADER
  9
$ACADVER
  1
AC1009
  9
$DWGCODEPAGE
  3
ansi_932
  9
$INSBASE
 10
0.0
 20
0.0
 30
0.0
  9
$EXTMIN
 10
-2320.666666666671
 20
-1687.666666666676
 30
0.0
  9
$EXTMAX
 10
2373.333333333328
 20
1677.333333333325
 30
0.0
  9
$LIMMIN
 10
-840.0
 20
-594.0
  9
$LIMMAX
 10
840.0
 20
594.0
  9
$ORTHOMODE
 70
     0
  9
$REGENMODE
 70
     1
  9
$FILLMODE
 70
     1
  9
$QTEXTMODE
 70
     0
  9
$MIRRTEXT
 70
     1
  9
$DRAGMODE
 70
     2
  9
$LTSCALE
 40
1.0
  9
$OSMODE
 70
    37
  9
$ATTMODE
 70
     1
  9
$TEXTSIZE
 40
0.2
  9
$TRACEWID
 40
0.05
  9
$TEXTSTYLE
  7
STANDARD
  9
$CLAYER
  8
0
  9
$CELTYPE
  6
BYLAYER
  9
$CECOLOR
 62
   256
  9
$DIMSCALE
 40
1.0
  9
$DIMASZ
 40
12.00090408325195
  9
$DIMEXO
 40
1.0
  9
$DIMDLI
 40
10.0
  9
$DIMRND
 40
0.0
  9
$DIMDLE
 40
0.0
  9
$DIMEXE
 40
1.0
  9
$DIMTP
 40
0.0
  9
$DIMTM
 40
0.0
  9
$DIMTXT
 40
16.0
  9
$DIMCEN
 40
0.0
  9
$DIMTSZ
 40
0.0
  9
$DIMTOL
 70
     0
  9
$DIMLIM
 70
     0
  9
$DIMTIH
 70
     0
  9
$DIMTOH
 70
     0
  9
$DIMSE1
 70
     0
  9
$DIMSE2
 70
     0
  9
$DIMTAD
 70
     1
  9
$DIMZIN
 70
     8
  9
$DIMBLK
  1

  9
$DIMASO
 70
     1
  9
$DIMSHO
 70
     1
  9
$DIMPOST
  1

  9
$DIMAPOST
  1

  9
$DIMALT
 70
     0
  9
$DIMALTD
 70
     2
  9
$DIMALTF
 40
25.4
  9
$DIMLFAC
 40
1.0
  9
$DIMTOFL
 70
     0
  9
$DIMTVP
 40
0.0
  9
$DIMTIX
 70
     0
  9
$DIMSOXD
 70
     0
  9
$DIMSAH
 70
     0
  9
$DIMBLK1
  1

  9
$DIMBLK2
  1

  9
$DIMSTYLE
  2
STANDARD
  9
$DIMCLRD
 70
     0
  9
$DIMCLRE
 70
     0
  9
$DIMCLRT
 70
     0
  9
$DIMTFAC
 40
0.65
  9
$DIMGAP
 40
0.09
  9
$LUNITS
 70
     2
  9
$LUPREC
 70
     4
  9
$SKETCHINC
 40
0.1
  9
$FILLETRAD
 40
0.5
  9
$AUNITS
 70
     0
  9
$AUPREC
 70
     0
  9
$MENU
  1
.
  9
$ELEVATION
 40
0.0
  9
$PELEVATION
 40
0.0
  9
$THICKNESS
 40
0.0
  9
$LIMCHECK
 70
     0
  9
$CHAMFERA
 40
0.0
  9
$CHAMFERB
 40
0.0
  9
$SKPOLY
 70
     0
  9
$TDCREATE
 40
2459088.63059316
  9
$TDUPDATE
 40
2459088.630593345
  9
$TDINDWG
 40
0.0000000116
  9
$TDUSRTIMER
 40
0.0000000116
  9
$USRTIMER
 70
     1
  9
$ANGBASE
 50
0.0
  9
$ANGDIR
 70
     0
  9
$PDMODE
 70
     0
  9
$PDSIZE
 40
1.0
  9
$PLINEWID
 40
0.0
  9
$COORDS
 70
     1
  9
$SPLFRAME
 70
     0
  9
$SPLINETYPE
 70
     6
  9
$SPLINESEGS
 70
     8
  9
$ATTDIA
 70
     0
  9
$ATTREQ
 70
     1
  9
$HANDLING
 70
     1
  9
$HANDSEED
  5
417
  9
$SURFTAB1
 70
     6
  9
$SURFTAB2
 70
     6
  9
$SURFTYPE
 70
     6
  9
$SURFU
 70
     6
  9
$SURFV
 70
     6
  9
$UCSNAME
  2

  9
$UCSORG
 10
0.0
 20
0.0
 30
0.0
  9
$UCSXDIR
 10
1.0
 20
0.0
 30
0.0
  9
$UCSYDIR
 10
0.0
 20
1.0
 30
0.0
  9
$PUCSNAME
  2

  9
$PUCSORG
 10
0.0
 20
0.0
 30
0.0
  9
$PUCSXDIR
 10
1.0
 20
0.0
 30
0.0
  9
$PUCSYDIR
 10
0.0
 20
1.0
 30
0.0
  9
$USERI1
 70
     0
  9
$USERI2
 70
     0
  9
$USERI3
 70
     0
  9
$USERI4
 70
     0
  9
$USERI5
 70
     0
  9
$USERR1
 40
0.0
  9
$USERR2
 40
0.0
  9
$USERR3
 40
0.0
  9
$USERR4
 40
0.0
  9
$USERR5
 40
0.0
  9
$WORLDVIEW
 70
     1
  9
$SHADEDGE
 70
     3
  9
$SHADEDIF
 70
    70
  9
$TILEMODE
 70
     1
  9
$MAXACTVP
 70
    64
  9
$PLIMCHECK
 70
     0
  9
$PEXTMIN
 10
1.000000000000000E+20
 20
1.000000000000000E+20
 30
1.000000000000000E+20
  9
$PEXTMAX
 10
-1.000000000000000E+20
 20
-1.000000000000000E+20
 30
-1.000000000000000E+20
  9
$PLIMMIN
 10
0.0
 20
0.0
  9
$PLIMMAX
 10
12.0
 20
9.0
  9
$UNITMODE
 70
     0
  9
$VISRETAIN
 70
     0
  9
$PLINEGEN
 70
     1
  9
$PSLTSCALE
 70
     0
  0
ENDSEC
  0
SECTION
  2
TABLES
  0
TABLE
  2
VPORT
 70
     1
  0
VPORT
  2
*ACTIVE
 70
     0
 10
0.0
 20
0.0
 11
1.0
 21
1.0
 12
26.33333333332882
 22
-5.16666666667561
 13
0.0
 23
0.0
 14
0.5
 24
0.5
 15
0.5
 25
0.5
 16
0.0
 26
0.0
 36
1.0
 17
0.0
 27
0.0
 37
0.0
 40
1144.1
 41
1.394947994056463
 42
50.0
 43
0.0
 44
0.0
 50
0.0
 51
0.0
 71
     0
 72
  1000
 73
     1
 74
     1
 75
     0
 76
     0
 77
     0
 78
     0
  0
ENDTAB
  0
TABLE
  2
LTYPE
 70
    67
  0
LTYPE
  2
CONTINUOUS
 70
     0
  3
Solid line
 72
    65
 73
     0
 40
0.0
  0
LTYPE
  2
HIDDENX2
 70
     0
  3
Hidden (2x) ____ ____ ____ ____ ____ ____ ____ 
 72
    65
 73
     2
 40
19.05
 49
12.7
 49
-6.35
  0
LTYPE
  2
HIDDEN
 70
     0
  3
Hidden __ __ __ __ __ __ __ __ __ __ __ __ __ __
 72
    65
 73
     2
 40
9.524999999999999
 49
6.35
 49
-3.175
  0
LTYPE
  2
HIDDEN2
 70
     0
  3
Hidden (.5x) _ _ _ _ _ _ _ _ _ _ _ _ _ _ _ _ _ 
 72
    65
 73
     2
 40
4.762499999999999
 49
3.175
 49
-1.5875
  0
LTYPE
  2
DASHED
 70
     0
  3
Dashed __ __ __ __ __ __ __ __ __ __ __ __ __ _
 72
    65
 73
     2
 40
19.05
 49
12.7
 49
-6.35
  0
LTYPE
  2
DASHED2
 70
     0
  3
Dashed (.5x) _ _ _ _ _ _ _ _ _ _ _ _ _ _ _ _ _ 
 72
    65
 73
     2
 40
9.524999999999999
 49
6.35
 49
-3.175
  0
LTYPE
  2
DASHEDX2
 70
     0
  3
Dashed (2x) ____  ____  ____  ____  ____  ___
 72
    65
 73
     2
 40
38.09999999999999
 49
25.4
 49
-12.7
  0
LTYPE
  2
DOTX2
 70
     0
  3
Dot (2x) .  .  .  .  .  .  .  .  .  .  .  .  .  .
 72
    65
 73
     2
 40
12.7
 49
0.0
 49
-12.7
  0
LTYPE
  2
DOT
 70
     0
  3
Dot . . . . . . . . . . . . . . . . . . . . . . . .
 72
    65
 73
     2
 40
6.35
 49
0.0
 49
-6.35
  0
LTYPE
  2
DOT2
 70
     0
  3
Dot (.5x) ........................................
 72
    65
 73
     2
 40
3.175
 49
0.0
 49
-3.175
  0
LTYPE
  2
CENTERX2
 70
     0
  3
Center (2x) ________  __  ________  __  _____
 72
    65
 73
     4
 40
101.6
 49
63.5
 49
-12.7
 49
12.7
 49
-12.7
  0
LTYPE
  2
CENTER
 70
     0
  3
Center ____ _ ____ _ ____ _ ____ _ ____ _ ____
 72
    65
 73
     4
 40
50.8
 49
31.75
 49
-6.35
 49
6.35
 49
-6.35
  0
LTYPE
  2
CENTER2
 70
     0
  3
Center (.5x) ___ _ ___ _ ___ _ ___ _ ___ _ ___
 72
    65
 73
     4
 40
28.575
 49
19.05
 49
-3.175
 49
3.175
 49
-3.175
  0
LTYPE
  2
DASHDOTX2
 70
     0
  3
Dash dot (2x) ____  .  ____  .  ____  .  ___
 72
    65
 73
     4
 40
50.8
 49
25.4
 49
-12.7
 49
0.0
 49
-12.7
  0
LTYPE
  2
DASHDOT
 70
     0
  3
Dash dot __ . __ . __ . __ . __ . __ . __ . __
 72
    65
 73
     4
 40
25.4
 49
12.7
 49
-6.35
 49
0.0
 49
-6.35
  0
LTYPE
  2
DASHDOT2
 70
     0
  3
Dash dot (.5x) _._._._._._._._._._._._._._._.
 72
    65
 73
     4
 40
12.7
 49
6.35
 49
-3.175
 49
0.0
 49
-3.175
  0
LTYPE
  2
DIVIDEX2
 70
     0
  3
Divide (2x) ________  .  .  ________  .  .  _
 72
    65
 73
     6
 40
63.5
 49
25.4
 49
-12.7
 49
0.0
 49
-12.7
 49
0.0
 49
-12.7
  0
LTYPE
  2
DIVIDE
 70
     0
  3
Divide ____ . . ____ . . ____ . . ____ . . ____
 72
    65
 73
     6
 40
31.75
 49
12.7
 49
-6.35
 49
0.0
 49
-6.35
 49
0.0
 49
-6.35
  0
LTYPE
  2
DIVIDE2
 70
     0
  3
Divide (.5x) __..__..__..__..__..__..__..__.._
 72
    65
 73
     6
 40
15.875
 49
6.35
 49
-3.175
 49
0.0
 49
-3.175
 49
0.0
 49
-3.175
  0
LTYPE
  2
BORDERX2
 70
     0
  3
Border (2x) ____  ____  .  ____  ____  .  ___
 72
    65
 73
     6
 40
88.89999999999999
 49
25.4
 49
-12.7
 49
25.4
 49
-12.7
 49
0.0
 49
-12.7
  0
LTYPE
  2
BORDER
 70
     0
  3
Border __ __ . __ __ . __ __ . __ __ . __ __ .
 72
    65
 73
     6
 40
44.45
 49
12.7
 49
-6.35
 49
12.7
 49
-6.35
 49
0.0
 49
-6.35
  0
LTYPE
  2
BORDER2
 70
     0
  3
Border (.5x) __.__.__.__.__.__.__.__.__.__.__.
 72
    65
 73
     6
 40
22.225
 49
6.35
 49
-3.175
 49
6.35
 49
-3.175
 49
0.0
 49
-3.175
  0
LTYPE
  2
PHANTOMX2
 70
     0
  3
Phantom (2x) ____________    ____    ____   _
 72
    65
 73
     6
 40
127.0
 49
63.5
 49
-12.7
 49
12.7
 49
-12.7
 49
12.7
 49
-12.7
  0
LTYPE
  2
PHANTOM
 70
     0
  3
Phantom ______  __  __  ______  __  __  ______ 
 72
    65
 73
     6
 40
63.5
 49
31.75
 49
-6.35
 49
6.35
 49
-6.35
 49
6.35
 49
-6.35
  0
LTYPE
  2
PHANTOM2
 70
     0
  3
Phantom (.5x) ___ _ _ ___ _ _ ___ _ _ ___ _ _
 72
    65
 73
     6
 40
31.75
 49
15.875
 49
-3.175
 49
3.175
 49
-3.175
 49
3.175
 49
-3.175
  0
LTYPE
  2
ACAD_ISO06W100
 70
     0
  3
ISO long-dash triple-dot ____ ... ____ ... ____
 72
    65
 73
     8
 40
36.0
 49
24.0
 49
-3.0
 49
0.0
 49
-3.0
 49
0.0
 49
-3.0
 49
0.0
 49
-3.0
  0
LTYPE
  2
ACAD_ISO13W100
 70
     0
  3
ISO double-dash double-dot __ __ . . __ __ . . _
 72
    65
 73
     8
 40
36.0
 49
12.0
 49
-3.0
 49
12.0
 49
-3.0
 49
0.0
 49
-3.0
 49
0.0
 49
-3.0
  0
LTYPE
  2
ACAD_ISO14W100
 70
     0
  3
ISO dash triple-dot __ . . . __ . . . __ . . . _
 72
    65
 73
     8
 40
24.0
 49
12.0
 49
-3.0
 49
0.0
 49
-3.0
 49
0.0
 49
-3.0
 49
0.0
 49
-3.0
  0
LTYPE
  2
ACAD_ISO02W100
 70
     0
  3
ISO dash __ __ __ __ __ __ __ __ __ __ __ __ __
 72
    65
 73
     2
 40
15.0
 49
12.0
 49
-3.0
  0
LTYPE
  2
ACAD_ISO03W100
 70
     0
  3
ISO dash space __    __    __    __    __    __
 72
    65
 73
     2
 40
30.0
 49
12.0
 49
-18.0
  0
LTYPE
  2
ACAD_ISO04W100
 70
     0
  3
ISO long-dash dot ____ . ____ . ____ . ____ . _
 72
    65
 73
     4
 40
30.0
 49
24.0
 49
-3.0
 49
0.0
 49
-3.0
  0
LTYPE
  2
ACAD_ISO05W100
 70
     0
  3
ISO long-dash double-dot ____ .. ____ .. ____ . 
 72
    65
 73
     6
 40
33.0
 49
24.0
 49
-3.0
 49
0.0
 49
-3.0
 49
0.0
 49
-3.0
  0
LTYPE
  2
ACAD_ISO07W100
 70
     0
  3
ISO dot . . . . . . . . . . . . . . . . . . . . 
 72
    65
 73
     2
 40
3.0
 49
0.0
 49
-3.0
  0
LTYPE
  2
ACAD_ISO08W100
 70
     0
  3
ISO long-dash short-dash ____ __ ____ __ ____ _
 72
    65
 73
     4
 40
36.0
 49
24.0
 49
-3.0
 49
6.0
 49
-3.0
  0
LTYPE
  2
ACAD_ISO09W100
 70
     0
  3
ISO long-dash double-short-dash ____ __ __ ____
 72
    65
 73
     6
 40
45.0
 49
24.0
 49
-3.0
 49
6.0
 49
-3.0
 49
6.0
 49
-3.0
  0
LTYPE
  2
ACAD_ISO10W100
 70
     0
  3
ISO dash dot __ . __ . __ . __ . __ . __ . __ . 
 72
    65
 73
     4
 40
18.0
 49
12.0
 49
-3.0
 49
0.0
 49
-3.0
  0
LTYPE
  2
ACAD_ISO11W100
 70
     0
  3
ISO double-dash dot __ __ . __ __ . __ __ . __ _
 72
    65
 73
     6
 40
33.0
 49
12.0
 49
-3.0
 49
12.0
 49
-3.0
 49
0.0
 49
-3.0
  0
LTYPE
  2
ACAD_ISO12W100
 70
     0
  3
ISO dash double-dot __ . . __ . . __ . . __ . . 
 72
    65
 73
     6
 40
21.0
 49
12.0
 49
-3.0
 49
0.0
 49
-3.0
 49
0.0
 49
-3.0
  0
LTYPE
  2
ACAD_ISO15W100
 70
     0
  3
ISO double-dash triple-dot __ __ . . . __ __ . .
 72
    65
 73
    10
 40
39.0
 49
12.0
 49
-3.0
 49
12.0
 49
-3.0
 49
0.0
 49
-3.0
 49
0.0
 49
-3.0
 49
0.0
 49
-3.0
  0
LTYPE
  2
JIS_02_0_7
 70
     0
  3
HIDDEN0.75 _ _ _ _ _ _ _ _ _ _ _ _ _ _ _ _ _ 
 72
    65
 73
     2
 40
1.35
 49
0.75
 49
-0.6
  0
LTYPE
  2
JIS_02_1_0
 70
     0
  3
HIDDEN01 _ _ _ _ _ _ _ _ _ _ _ _ _ _ _ _ _ 
 72
    65
 73
     2
 40
2.0
 49
1.0
 49
-1.0
  0
LTYPE
  2
JIS_02_1_2
 70
     0
  3
HIDDEN01.25  _ _ _ _ _ _ _ _ _ _ _ _ _ _ _ _ _ 
 72
    65
 73
     2
 40
2.5
 49
1.25
 49
-1.25
  0
LTYPE
  2
JIS_02_2_0
 70
     0
  3
HIDDEN02 __ __ __ __ __ __ __ __ __ __ __ 
 72
    65
 73
     2
 40
3.0
 49
2.0
 49
-1.0
  0
LTYPE
  2
JIS_02_4_0
 70
     0
  3
HIDDEN04 ____ ____ ____ ____ ____ ____ ____ 
 72
    65
 73
     2
 40
5.5
 49
4.0
 49
-1.5
  0
LTYPE
  2
JIS_08_11
 70
     0
  3
1SASEN11 ___ _ ___ _ ___ _ ___ _ ___ _ ___
 72
    65
 73
     4
 40
12.8
 49
11.0
 49
-0.6
 49
0.6
 49
-0.6
  0
LTYPE
  2
JIS_08_15
 70
     0
  3
1SASEN15 ____ _ ____ _ ____ _ ____ _ ____ 
 72
    65
 73
     4
 40
17.25
 49
15.0
 49
-0.75
 49
0.75
 49
-0.75
  0
LTYPE
  2
JIS_08_25
 70
     0
  3
1SASEN25 ________  __  ________  __  _____
 72
    65
 73
     4
 40
28.0
 49
25.0
 49
-1.125
 49
0.75
 49
-1.125
  0
LTYPE
  2
JIS_08_37
 70
     0
  3
1SASEN37 ________  __  ________  __  _____
 72
    65
 73
     4
 40
40.5
 49
37.5
 49
-1.125
 49
0.75
 49
-1.125
  0
LTYPE
  2
JIS_08_50
 70
     0
  3
1SASEN50 _______________  __  ____________
 72
    65
 73
     4
 40
53.0
 49
50.0
 49
-1.125
 49
0.75
 49
-1.125
  0
LTYPE
  2
JIS_09_08
 70
     0
  3
2SASEN8 __ _ _ __ _ _ __ _ _ __ _ _ __ _ _ 
 72
    65
 73
     6
 40
10.75
 49
8.0
 49
-0.55
 49
0.55
 49
-0.55
 49
0.55
 49
-0.55
  0
LTYPE
  2
JIS_09_15
 70
     0
  3
2SASEN15 ___ _ _ ___ _ _ ___ _ _ ___ _ _ ___ 
 72
    65
 73
     6
 40
18.9
 49
15.0
 49
-0.9
 49
0.6
 49
-0.9
 49
0.6
 49
-0.9
  0
LTYPE
  2
JIS_09_29
 70
     0
  3
2SASEN29 ______　__  __  ______　__  __  ___
 72
    65
 73
     6
 40
34.0
 49
29.0
 49
-1.2
 49
0.7
 49
-1.2
 49
0.7
 49
-1.2
  0
LTYPE
  2
JIS_09_50
 70
     0
  3
2SASEN50 ____________　__  __  _____________
 72
    65
 73
     6
 40
55.0
 49
50.0
 49
-1.2
 49
0.7
 49
-1.2
 49
0.7
 49
-1.2
  0
LTYPE
  2
SXF_破線
 70
     0
  3
02 dashed -- -- -- -- -- --
 72
    65
 73
     2
 40
7.5
 49
6.0
 49
-1.5
  0
LTYPE
  2
SXF_跳び破線
 70
     0
  3
03 dashed_spaced --  --  --  --
 72
    65
 73
     2
 40
12.0
 49
6.0
 49
-6.0
  0
LTYPE
  2
SXF_一点長鎖線
 70
     0
  3
04 long_dashed_dotted ---- . ---- . ----
 72
    65
 73
     4
 40
15.25
 49
12.0
 49
-1.5
 49
0.25
 49
-1.5
  0
LTYPE
  2
SXF_二点長鎖線
 70
     0
  3
05 long_dashed_double-dotted ---- . . ---- 
 72
    65
 73
     6
 40
17.0
 49
12.0
 49
-1.5
 49
0.25
 49
-1.5
 49
0.25
 49
-1.5
  0
LTYPE
  2
SXF_三点長鎖線
 70
     0
  3
06 long_dashed_triplicate-dotted ---- ... ---- 
 72
    65
 73
     8
 40
18.75
 49
12.0
 49
-1.5
 49
0.25
 49
-1.5
 49
0.25
 49
-1.5
 49
0.25
 49
-1.5
  0
LTYPE
  2
SXF_点線
 70
     0
  3
07 dotted . . . . . . . . . . . . 
 72
    65
 73
     2
 40
1.75
 49
0.25
 49
-1.5
  0
LTYPE
  2
SXF_一点鎖線
 70
     0
  3
08 chain ---- - --- - --- - ---
 72
    65
 73
     4
 40
18.5
 49
12.0
 49
-1.5
 49
3.5
 49
-1.5
  0
LTYPE
  2
SXF_二点鎖線
 70
     0
  3
09 chain_double_dash ---- - - ---- - - ----
 72
    65
 73
     6
 40
23.5
 49
12.0
 49
-1.5
 49
3.5
 49
-1.5
 49
3.5
 49
-1.5
  0
LTYPE
  2
SXF_一点短鎖線
 70
     0
  3
10 dashed_dotted -- . -- . -- . --
 72
    65
 73
     4
 40
9.25
 49
6.0
 49
-1.5
 49
0.25
 49
-1.5
  0
LTYPE
  2
SXF_一点二短鎖線
 70
     0
  3
11 double-dashed_dotted -- -- . -- --
 72
    65
 73
     6
 40
16.75
 49
6.0
 49
-1.5
 49
6.0
 49
-1.5
 49
0.25
 49
-1.5
  0
LTYPE
  2
SXF_二点短鎖線
 70
     0
  3
12 dashed_double_dotted -- . . -- . . --
 72
    65
 73
     6
 40
11.0
 49
6.0
 49
-1.5
 49
0.25
 49
-1.5
 49
0.25
 49
-1.5
  0
LTYPE
  2
SXF_二点二短鎖線
 70
     0
  3
13 double-dashed_double-dotted -- -- . . -- --
 72
    65
 73
     8
 40
18.5
 49
6.0
 49
-1.5
 49
6.0
 49
-1.5
 49
0.25
 49
-1.5
 49
0.25
 49
-1.5
  0
LTYPE
  2
SXF_三点短鎖線
 70
     0
  3
14 dashed triplicate-dotted -- . . . -- . . . --
 72
    65
 73
     8
 40
12.75
 49
6.0
 49
-1.5
 49
0.25
 49
-1.5
 49
0.25
 49
-1.5
 49
0.25
 49
-1.5
  0
LTYPE
  2
SXF_三点二短鎖線
 70
     0
  3
15 double-dashed triplicate-dotted -- -- . . . -- -- 
 72
    65
 73
    10
 40
20.25
 49
6.0
 49
-1.5
 49
6.0
 49
-1.5
 49
0.25
 49
-1.5
 49
0.25
 49
-1.5
 49
0.25
 49
-1.5
  0
ENDTAB
  0
TABLE
  2
LAYER
 70
     3
  0
LAYER
  2
0
 70
     0
 62
     7
  6
CONTINUOUS
  0
LAYER
  2
LAYER0001
 70
     0
 62
     7
  6
CONTINUOUS
  0
LAYER
  2
ZUWAKU
 70
     0
 62
     7
  6
CONTINUOUS
  0
ENDTAB
  0
TABLE
  2
STYLE
 70
     2
  0
STYLE
  2
STANDARD
 70
     0
 40
0.0
 41
1.0
 50
0.0
 71
     0
 42
0.2
  3
txt.shx
  4
bigfont.shx
  0
STYLE
  2
DCSTYLE0
 70
     0
 40
0.0
 41
0.5833333333333334
 50
0.0
 71
     0
 42
0.2
  3
txt.shx
  4
bigfont
  0
ENDTAB
  0
TABLE
  2
VIEW
 70
     0
  0
ENDTAB
  0
TABLE
  2
UCS
 70
     0
  0
ENDTAB
  0
TABLE
  2
APPID
 70
     2
  0
APPID
  2
ACAD
 70
     0
  0
APPID
  2
DAFUSIONOUT
 70
     0
  0
ENDTAB
  0
TABLE
  2
DIMSTYLE
 70
     3
  0
DIMSTYLE
  2
STANDARD
 70
     0
  3

  4

  5

  6

  7

 40
1.0
 41
0.18
 42
0.0625
 43
0.38
 44
0.18
 45
0.0
 46
0.0
 47
0.0
 48
0.0
140
0.18
141
0.09
142
0.0
143
25.4
144
1.0
145
0.0
146
1.0
147
0.09
 71
     0
 72
     0
 73
     1
 74
     1
 75
     0
 76
     0
 77
     0
 78
     0
170
     0
171
     2
172
     0
173
     0
174
     0
175
     0
176
     0
177
     0
178
     0
  0
DIMSTYLE
  2
DC_ROTATED
 70
     0
  3

  4

  5

  6
OPEN30
  7
OPEN30
 40
1.0
 41
12.00090408325195
 42
4.0
 43
0.38
 44
8.0
 45
0.0
 46
0.0
 47
0.0
 48
0.0
140
20.0
141
0.09
142
0.0
143
25.4
144
1.0
145
0.0
146
1.0
147
8.0
 71
     0
 72
     0
 73
     0
 74
     0
 75
     0
 76
     0
 77
     3
 78
     8
170
     0
171
     2
172
     1
173
     1
174
     0
175
     0
176
     4
177
     4
178
     4
  0
DIMSTYLE
  2
DC_DIAM06
 70
     0
  3

  4

  5

  6
OPEN30
  7
OPEN30
 40
1.0
 41
12.00090408325195
 42
4.0
 43
0.38
 44
4.0
 45
0.0
 46
0.0
 47
0.0
 48
0.0
140
20.0
141
0.09
142
0.0
143
25.4
144
1.0
145
0.0
146
1.0
147
8.0
 71
     0
 72
     0
 73
     1
 74
     1
 75
     0
 76
     0
 77
     2
 78
     8
170
     0
171
     2
172
     0
173
     1
174
     0
175
     0
176
     4
177
     4
178
     4
  0
ENDTAB
  0
ENDSEC
  0
SECTION
  2
BLOCKS
  0
BLOCK
  8
0
  2
$MODEL_SPACE
 70
     0
 10
0.0
 20
0.0
 30
0.0
  3
$MODEL_SPACE
  1

  0
ENDBLK
  5
21
  8
0
  0
BLOCK
 67
     1
  8
0
  2
$PAPER_SPACE
 70
     0
 10
0.0
 20
0.0
 30
0.0
  3
$PAPER_SPACE
  1

  0
ENDBLK
  5
1D
 67
     1
  8
0
  0
BLOCK
  8
0
  2
DC_GROUP_1
 70
     0
 10
0.0
 20
0.0
 30
0.0
  3
DC_GROUP_1
  1

  0
TEXT
  5
C9
  8
0
 62
     4
 10
-610.7213037079435
 20
-392.6022607495628
 30
0.0
 40
20.0
  1
アンカーボルト孔深さ
 41
0.8305084745762713
  7
DCSTYLE0
 72
     5
 11
-470.7213037079435
 21
-392.6022607495628
 31
0.0
  0
LINE
  5
CA
  8
LAYER0001
  6
CONTINUOUS
 62
     7
 10
-616.7213037079435
 20
-398.6022607495628
 30
0.0
 11
-464.7213037079435
 21
-398.6022607495628
 31
0.0
  0
LINE
  5
CB
  8
LAYER0001
  6
CONTINUOUS
 62
     7
 10
-464.7213037079435
 20
-398.6022607495628
 30
0.0
 11
-464.7213037079435
 21
-366.6022607495628
 31
0.0
  0
LINE
  5
CC
  8
LAYER0001
  6
CONTINUOUS
 62
     7
 10
-616.7213037079435
 20
-366.6022607495628
 30
0.0
 11
-464.7213037079435
 21
-366.6022607495628
 31
0.0
  0
LINE
  5
CD
  8
LAYER0001
  6
CONTINUOUS
 62
     7
 10
-616.7213037079435
 20
-398.6022607495628
 30
0.0
 11
-616.7213037079435
 21
-366.6022607495628
 31
0.0
  0
ENDBLK
  5
B2
  8
0
  0
BLOCK
  8
0
  2
*D2
 70
     1
 10
0.0
 20
0.0
 30
0.0
  3
*D2
  1

  0
LINE
  5
CE
  8
LAYER0001
  6
CONTINUOUS
 62
     4
 10
-685.8980830607239
 20
-268.4022607495629
 30
0.0
 11
-685.8980830607239
 21
-188.4022607495629
 31
0.0
  0
INSERT
  5
D5
  8
LAYER0001
 62
     4
  2
_OPEN30
 10
-685.8980830607239
 20
-268.4022607495629
 30
0.0
 41
12.0009221357177
 42
12.00065264201702
 50
270.0
  0
INSERT
  5
D6
  8
LAYER0001
 62
     4
  2
_OPEN30
 10
-685.8980830607239
 20
-188.4022607495629
 30
0.0
 41
12.0009221357177
 42
12.00065264201702
 50
90.0
  0
LINE
  5
D7
  8
LAYER0001
  6
CONTINUOUS
 62
     4
 10
-544.3713037079432
 20
-268.4022607495629
 30
0.0
 11
-693.8980830607239
 21
-268.4022607495629
 31
0.0
  0
LINE
  5
D8
  8
LAYER0001
  6
CONTINUOUS
 62
     4
 10
-626.1213037079432
 20
-188.4022607495629
 30
0.0
 11
-693.8980830607239
 21
-188.4022607495629
 31
0.0
  0
TEXT
  5
D9
  8
LAYER0001
 62
     4
 10
-693.8980830607239
 20
-256.4022607495629
 30
0.0
 40
20.0
  1
80以上
 50
90.0
 41
0.8054794520547945
  7
DCSTYLE0
 72
     5
 11
-693.8980830607239
 21
-200.4022607495629
 31
0.0
  0
ENDBLK
  5
B5
  8
0
  0
BLOCK
  8
0
  2
DA_IMAGEDIMGROUP_1
 70
     0
 10
0.0
 20
0.0
 30
0.0
  3
DA_IMAGEDIMGROUP_1
  1

  0
LINE
  5
DA
  8
LAYER0001
  6
CONTINUOUS
 62
     4
 10
-536.3713037079432
 20
-180.4022607495629
 30
0.0
 11
-536.3713037079432
 21
-112.6333282634866
 31
0.0
  0
LINE
  5
DB
  8
LAYER0001
  6
CONTINUOUS
 62
     4
 10
-519.8713037079432
 20
-180.4022607495629
 30
0.0
 11
-519.8713037079432
 21
-112.6333282634866
 31
0.0
  0
LINE
  5
DC
  8
LAYER0001
  6
CONTINUOUS
 62
     4
 10
-536.3713037079432
 20
-120.6333282634866
 30
0.0
 11
-519.8713037079432
 21
-120.6333282634866
 31
0.0
  0
LINE
  5
DD
  8
LAYER0001
  6
CONTINUOUS
 62
     4
 10
-424.0419146825401
 20
-120.6333282634866
 30
0.0
 11
-519.8713037079432
 21
-120.6333282634866
 31
0.0
  0
INSERT
  5
DE
  8
LAYER0001
 62
     4
  2
_OPEN30
 10
-519.8713037079432
 20
-120.6333282634866
 30
0.0
 41
12.0009221357177
 42
12.00065264201702
 50
180.0
  0
LINE
  5
DF
  8
LAYER0001
  6
CONTINUOUS
 62
     4
 10
-556.3713037079432
 20
-120.6333282634866
 30
0.0
 11
-536.3713037079432
 21
-120.6333282634866
 31
0.0
  0
INSERT
  5
E0
  8
LAYER0001
 62
     4
  2
_OPEN30
 10
-536.3713037079432
 20
-120.6333282634866
 30
0.0
 41
12.0009221357177
 42
12.00065264201702
 50
360.0
  0
TEXT
  5
E1
  8
LAYER0001
 62
     4
 10
-498.0419146825401
 20
-116.6333282634866
 30
0.0
 40
20.0
  1
φ16.5
 41
0.8647058823529412
  7
DCSTYLE0
 72
     5
 11
-428.0419146825401
 21
-116.6333282634866
 31
0.0
  0
ENDBLK
  5
B8
  8
0
  0
BLOCK
  8
0
  2
*D4
 70
     1
 10
0.0
 20
0.0
 30
0.0
  3
*D4
  1

  0
LINE
  5
E2
  8
LAYER0001
  6
CONTINUOUS
 62
     4
 10
-72.51303222665331
 20
-25.65982809478714
 30
0.0
 11
-151.8219220296202
 21
-141.1660077393739
 31
0.0
  0
INSERT
  5
E3
  8
LAYER0001
 62
     4
  2
_OPEN30
 10
-151.8219220296202
 20
-141.1660077393739
 30
0.0
 41
12.0009221357177
 42
12.00065264201702
 50
235.5257163434875
  0
LINE
  5
E4
  8
LAYER0001
  6
CONTINUOUS
 62
     4
 10
37.48696777334669
 20
-25.65982809478714
 30
0.0
 11
-72.51303222665331
 21
-25.65982809478714
 31
0.0
  0
TEXT
  5
E5
  8
LAYER0001
 62
     4
 10
-64.51303222665331
 20
-17.65982809478714
 30
0.0
 40
20.0
  1
4-φ16.5
 41
0.7854961832061069
  7
DCSTYLE0
 72
     5
 11
33.48696777334669
 21
-17.65982809478714
 31
0.0
  0
ENDBLK
  5
BB
  8
0
  0
BLOCK
  8
0
  2
*D5
 70
     1
 10
0.0
 20
0.0
 30
0.0
  3
*D5
  1

  0
LINE
  5
E6
  8
LAYER0001
  6
CONTINUOUS
 62
     4
 10
-157.4568122704769
 20
-373.6093558754357
 30
0.0
 11
517.043187729524
 21
-373.6093558754357
 31
0.0
  0
INSERT
  5
E7
  8
LAYER0001
 62
     4
  2
_OPEN30
 10
-157.4568122704769
 20
-373.6093558754357
 30
0.0
 41
12.0009221357177
 42
12.00065264201702
 50
180.0
  0
INSERT
  5
E8
  8
LAYER0001
 62
     4
  2
_OPEN30
 10
517.043187729524
 20
-373.6093558754357
 30
0.0
 41
12.0009221357177
 42
12.00065264201702
 50
360.0
  0
LINE
  5
E9
  8
LAYER0001
  6
CONTINUOUS
 62
     4
 10
-157.4568122704769
 20
-287.0124392777301
 30
0.0
 11
-157.4568122704769
 21
-381.6093558754357
 31
0.0
  0
LINE
  5
EA
  8
LAYER0001
  6
CONTINUOUS
 62
     4
 10
517.043187729524
 20
386.947001801776
 30
0.0
 11
517.043187729524
 21
-381.6093558754357
 31
0.0
  0
TEXT
  5
EB
  8
LAYER0001
 62
     4
 10
144.7931877295235
 20
-365.6093558754357
 30
0.0
 40
20.0
  1
674.5
 41
0.8448275862068967
  7
DCSTYLE0
 72
     5
 11
214.7931877295235
 21
-365.6093558754357
 31
0.0
  0
ENDBLK
  5
BE
  8
0
  0
BLOCK
  8
0
  2
*D6
 70
     1
 10
0.0
 20
0.0
 30
0.0
  3
*D6
  1

  0
LINE
  5
EC
  8
LAYER0001
  6
CONTINUOUS
 62
     4
 10
633.0691964285721
 20
-257.2232142857155
 30
0.0
 11
633.0691964285721
 21
417.2767857142852
 31
0.0
  0
INSERT
  5
ED
  8
LAYER0001
 62
     4
  2
_OPEN30
 10
633.0691964285721
 20
-257.2232142857155
 30
0.0
 41
12.0009221357177
 42
12.00065264201702
 50
270.0
  0
INSERT
  5
EE
  8
LAYER0001
 62
     4
  2
_OPEN30
 10
633.0691964285721
 20
417.2767857142852
 30
0.0
 41
12.0009221357177
 42
12.00065264201702
 50
90.0
  0
LINE
  5
EF
  8
LAYER0001
  6
CONTINUOUS
 62
     4
 10
-128.6734749862827
 20
-257.2232142857155
 30
0.0
 11
641.0691964285721
 21
-257.2232142857155
 31
0.0
  0
LINE
  5
F0
  8
LAYER0001
  6
CONTINUOUS
 62
     4
 10
543.327560308909
 20
417.2767857142852
 30
0.0
 11
641.0691964285721
 21
417.2767857142852
 31
0.0
  0
TEXT
  5
F1
  8
LAYER0001
 62
     4
 10
625.0691964285721
 20
45.02678571428487
 30
0.0
 40
20.0
  1
674.5
 50
90.0
 41
0.8448275862068967
  7
DCSTYLE0
 72
     5
 11
625.0691964285721
 21
115.0267857142849
 31
0.0
  0
ENDBLK
  5
C1
  8
0
  0
BLOCK
  8
0
  2
*D7
 70
     1
 10
0.0
 20
0.0
 30
0.0
  3
*D7
  1

  0
LINE
  5
F2
  8
LAYER0001
  6
CONTINUOUS
 62
     4
 10
-242.5818316734287
 20
-257.2232142857155
 30
0.0
 11
-242.5818316734287
 21
-147.2232142857155
 31
0.0
  0
INSERT
  5
F3
  8
LAYER0001
 62
     4
  2
_OPEN30
 10
-242.5818316734287
 20
-257.2232142857155
 30
0.0
 41
12.0009221357177
 42
12.00065264201702
 50
270.0
  0
INSERT
  5
F4
  8
LAYER0001
 62
     4
  2
_OPEN30
 10
-242.5818316734287
 20
-147.2232142857155
 30
0.0
 41
12.0009221357177
 42
12.00065264201702
 50
90.0
  0
LINE
  5
F5
  8
LAYER0001
  6
CONTINUOUS
 62
     4
 10
-187.786596182986
 20
-257.2232142857155
 30
0.0
 11
-250.5818316734287
 21
-257.2232142857155
 31
0.0
  0
LINE
  5
F6
  8
LAYER0001
  6
CONTINUOUS
 62
     4
 10
-187.786596182986
 20
-147.2232142857155
 30
0.0
 11
-250.5818316734287
 21
-147.2232142857155
 31
0.0
  0
TEXT
  5
F7
  8
LAYER0001
 62
     4
 10
-250.5818316734287
 20
-223.2232142857155
 30
0.0
 40
20.0
  1
110
 50
90.0
 41
0.7736842105263158
  7
DCSTYLE0
 72
     5
 11
-250.5818316734287
 21
-181.2232142857155
 31
0.0
  0
ENDBLK
  5
C4
  8
0
  0
BLOCK
  8
0
  2
*D8
 70
     1
 10
0.0
 20
0.0
 30
0.0
  3
*D8
  1

  0
LINE
  5
F8
  8
LAYER0001
  6
CONTINUOUS
 62
     4
 10
407.043187729524
 20
505.3049679834674
 30
0.0
 11
517.043187729524
 21
505.3049679834674
 31
0.0
  0
INSERT
  5
F9
  8
LAYER0001
 62
     4
  2
_OPEN30
 10
407.043187729524
 20
505.3049679834674
 30
0.0
 41
12.0009221357177
 42
12.00065264201702
 50
180.0
  0
INSERT
  5
FA
  8
LAYER0001
 62
     4
  2
_OPEN30
 10
517.043187729524
 20
505.3049679834674
 30
0.0
 41
12.0009221357177
 42
12.00065264201702
 50
360.0
  0
LINE
  5
FB
  8
LAYER0001
  6
CONTINUOUS
 62
     4
 10
407.043187729524
 20
446.0601229984794
 30
0.0
 11
407.043187729524
 21
513.3049679834673
 31
0.0
  0
LINE
  5
FC
  8
LAYER0001
  6
CONTINUOUS
 62
     4
 10
517.043187729524
 20
446.0601229984794
 30
0.0
 11
517.043187729524
 21
513.3049679834673
 31
0.0
  0
TEXT
  5
FD
  8
LAYER0001
 62
     4
 10
441.043187729524
 20
513.3049679834673
 30
0.0
 40
20.0
  1
110
 41
0.7736842105263158
  7
DCSTYLE0
 72
     5
 11
483.043187729524
 21
513.3049679834673
 31
0.0
  0
ENDBLK
  5
C7
  8
0
  0
BLOCK
  8
0
  2
_OPEN30
 70
     0
 10
0.0
 20
0.0
 30
0.0
  3
_OPEN30
  1

  0
LINE
  5
D2
  8
0
  6
BYBLOCK
 62
     0
 10
-1.0
 20
0.267949
 30
0.0
 11
0.0
 21
0.0
 31
0.0
  0
LINE
  5
D3
  8
0
  6
BYBLOCK
 62
     0
 10
0.0
 20
0.0
 30
0.0
 11
-1.0
 21
-0.267949
 31
0.0
  0
LINE
  5
D4
  8
0
  6
BYBLOCK
 62
     0
 10
0.0
 20
0.0
 30
0.0
 11
-1.0
 21
0.0
 31
0.0
  0
ENDBLK
  5
D1
  8
0
  0
ENDSEC
  0
SECTION
  2
ENTITIES
  0
TEXT
  5
FE
  8
ZUWAKU
 62
     2
 10
445.8666667143456
 20
-489.4805977442164
 30
0.0
 40
16.0
  1
BG-SA680ｘ680
 41
0.8321576763485476
  7
DCSTYLE0
 72
     5
 11
598.6666667143456
 21
-489.4805977442164
 31
0.0
  0
TEXT
  5
FF
  8
ZUWAKU
 62
     2
 10
665.4958941038337
 20
-544.1428363040981
 30
0.0
 40
12.0
  1
株
 41
1.120000000000003
  7
DCSTYLE0
 72
     5
 11
675.0958941038338
 21
-544.1428363040981
 31
0.0
  0
TEXT
  5
100
  8
ZUWAKU
 62
     2
 10
679.8958941038343
 20
-544.1428363040981
 30
0.0
 40
12.0
  1
式
 41
1.120000000000003
  7
DCSTYLE0
 72
     5
 11
689.4958941038343
 21
-544.1428363040981
 31
0.0
  0
TEXT
  5
101
  8
ZUWAKU
 62
     2
 10
665.4958941038337
 20
-558.5428363041013
 30
0.0
 40
12.0
  1
会
 41
1.120000000000003
  7
DCSTYLE0
 72
     5
 11
675.0958941038338
 21
-558.5428363041013
 31
0.0
  0
TEXT
  5
102
  8
ZUWAKU
 62
     2
 10
679.8958941038343
 20
-558.5428363041013
 30
0.0
 40
12.0
  1
社
 41
1.120000000000003
  7
DCSTYLE0
 72
     5
 11
689.4958941038343
 21
-558.5428363041013
 31
0.0
  0
TEXT
  5
103
  8
ZUWAKU
 62
     2
 10
445.8666667143456
 20
-466.5194022558008
 30
0.0
 40
16.0
  1
　
 41
1.05
  7
DCSTYLE0
 72
     5
 11
457.8666667143456
 21
-466.5194022558008
 31
0.0
  0
TEXT
  5
104
  8
ZUWAKU
 62
     2
 10
445.8666667143456
 20
-489.4805977442165
 30
0.0
 40
16.0
  1
 
 41
0.75
  7
DCSTYLE0
 72
     5
 11
457.8666667143456
 21
-489.4805977442165
 31
0.0
  0
TEXT
  5
105
  8
ZUWAKU
 62
     2
 10
445.8666667143456
 20
-466.5194022558007
 30
0.0
 40
16.0
  1
バルクガードアンカー施工位置図
 41
0.9398876404494382
  7
DCSTYLE0
 72
     5
 11
637.0666667143456
 21
-466.5194022558007
 31
0.0
  0
LINE
  5
106
  8
ZUWAKU
  6
CONTINUOUS
 62
     3
 10
412.6666666666621
 20
-431.0000000000088
 30
0.0
 11
412.6666666666619
 21
-566.0000000000089
 31
0.0
  0
LINE
  5
107
  8
ZUWAKU
  6
CONTINUOUS
 62
     3
 10
412.6666666666621
 20
-446.0000000000088
 30
0.0
 11
808.666666666662
 21
-446.0000000000086
 31
0.0
  0
LINE
  5
108
  8
ZUWAKU
  6
CONTINUOUS
 62
     3
 10
808.6666666666616
 20
-431.0000000000099
 30
0.0
 11
412.6666666666619
 21
-431.0000000000099
 31
0.0
  0
LINE
  5
109
  8
ZUWAKU
  6
CONTINUOUS
 62
     4
 10
632.666666666662
 20
-411.0000000000094
 30
0.0
 11
632.666666666662
 21
-446.0000000000086
 31
0.0
  0
LINE
  5
10A
  8
ZUWAKU
  6
CONTINUOUS
 62
     4
 10
646.6666666666624
 20
-494.0000000000086
 30
0.0
 11
646.6666666666626
 21
-524.0000000000089
 31
0.0
  0
LINE
  5
10B
  8
ZUWAKU
  6
CONTINUOUS
 62
     4
 10
701.4166666666636
 20
-446.0000000000086
 30
0.0
 11
701.4166666666622
 21
-524.0000000000086
 31
0.0
  0
LINE
  5
10C
  8
ZUWAKU
  6
CONTINUOUS
 62
     4
 10
412.6666666666621
 20
-494.0000000000089
 30
0.0
 11
808.666666666662
 21
-494.0000000000086
 31
0.0
  0
LINE
  5
10D
  8
ZUWAKU
  6
CONTINUOUS
 62
     4
 10
808.666666666662
 20
-524.0000000000089
 30
0.0
 11
412.6666666666621
 21
-524.0000000000089
 31
0.0
  0
LINE
  5
10E
  8
ZUWAKU
  6
CONTINUOUS
 62
     4
 10
433.6666666666621
 20
-446.0000000000086
 30
0.0
 11
433.6666666666621
 21
-524.0000000000089
 31
0.0
  0
LINE
  5
10F
  8
ZUWAKU
  6
CONTINUOUS
 62
     4
 10
667.6666666666622
 20
-494.0000000000086
 30
0.0
 11
667.6666666666623
 21
-524.0000000000089
 31
0.0
  0
LINE
  5
110
  8
ZUWAKU
  6
CONTINUOUS
 62
     4
 10
722.4166666666621
 20
-446.0000000000086
 30
0.0
 11
722.4166666666622
 21
-524.0000000000085
 31
0.0
  0
LINE
  5
111
  8
ZUWAKU
  6
CONTINUOUS
 62
     4
 10
452.6666666666624
 20
-411.0000000000089
 30
0.0
 11
452.6666666666621
 21
-446.0000000000086
 31
0.0
  0
LINE
  5
112
  8
ZUWAKU
  6
CONTINUOUS
 62
     4
 10
572.6666666666616
 20
-411.0000000000092
 30
0.0
 11
572.6666666666623
 21
-446.0000000000086
 31
0.0
  0
LINE
  5
113
  8
ZUWAKU
  6
CONTINUOUS
 62
     4
 10
672.666666666662
 20
-411.0000000000095
 30
0.0
 11
672.666666666662
 21
-446.0000000000086
 31
0.0
  0
LINE
  5
114
  8
ZUWAKU
  6
CONTINUOUS
 62
     4
 10
610.6666666666626
 20
-494.0000000000089
 30
0.0
 11
610.6666666666626
 21
-566.0000000000085
 31
0.0
  0
LINE
  5
115
  8
ZUWAKU
  6
CONTINUOUS
 62
     4
 10
589.6666666666626
 20
-494.0000000000089
 30
0.0
 11
589.6666666666626
 21
-524.0000000000089
 31
0.0
  0
LINE
  5
116
  8
ZUWAKU
  6
CONTINUOUS
 62
     4
 10
553.6666666666626
 20
-494.0000000000089
 30
0.0
 11
553.6666666666626
 21
-524.0000000000089
 31
0.0
  0
LINE
  5
117
  8
ZUWAKU
  6
CONTINUOUS
 62
     4
 10
532.6666666666626
 20
-494.0000000000089
 30
0.0
 11
532.6666666666626
 21
-524.0000000000089
 31
0.0
  0
LINE
  5
118
  8
ZUWAKU
  6
CONTINUOUS
 62
     4
 10
445.6666666666619
 20
-524.0000000000089
 30
0.0
 11
445.6666666666619
 21
-566.0000000000085
 31
0.0
  0
LINE
  5
119
  8
ZUWAKU
  6
CONTINUOUS
 62
     4
 10
412.6666666666619
 20
-431.0000000000088
 30
0.0
 11
808.6666666666616
 21
-431.00000000001
 31
0.0
  0
ARC
  5
11A
  8
ZUWAKU
  6
CONTINUOUS
 62
     4
 10
649.6511203121522
 20
-536.1859095718031
 30
0.0
 40
0.2603213341468494
 50
89.99999999999883
 51
269.9999999999989
  0
LINE
  5
11B
  8
ZUWAKU
  6
CONTINUOUS
 62
     4
 10
649.6511203121522
 20
-536.4462309059476
 30
0.0
 11
652.1241729865465
 21
-536.4462309059476
 31
0.0
  0
ARC
  5
11C
  8
ZUWAKU
  6
CONTINUOUS
 62
     4
 10
652.1241729865465
 20
-540.4812115852277
 30
0.0
 40
4.034980679275979
 50
0.0000000000000114
 51
89.99999999999905
  0
LINE
  5
11D
  8
ZUWAKU
  6
CONTINUOUS
 62
     4
 10
656.1591536658239
 20
-540.4812115852277
 30
0.0
 11
656.1591536658239
 21
-557.0116163035512
 31
0.0
  0
LINE
  5
11E
  8
ZUWAKU
  6
CONTINUOUS
 62
     4
 10
656.1591536658239
 20
-557.0116163035512
 30
0.0
 11
618.4125602145301
 21
-557.0116163035512
 31
0.0
  0
LINE
  5
11F
  8
ZUWAKU
  6
CONTINUOUS
 62
     4
 10
618.4125602145301
 20
-557.0116163035512
 30
0.0
 11
618.4125602145301
 21
-540.4812115852277
 31
0.0
  0
ARC
  5
120
  8
ZUWAKU
  6
CONTINUOUS
 62
     4
 10
622.4475408938075
 20
-540.4812115852277
 30
0.0
 40
4.034980679275979
 50
90.0000000000001
 51
179.9999999999999
  0
LINE
  5
121
  8
ZUWAKU
  6
CONTINUOUS
 62
     4
 10
622.4475408938075
 20
-536.4462309059476
 30
0.0
 11
624.9205935682018
 21
-536.4462309059476
 31
0.0
  0
ARC
  5
122
  8
ZUWAKU
  6
CONTINUOUS
 62
     4
 10
624.9205935682018
 20
-536.1859095718031
 30
0.0
 40
0.260321334146847
 50
270.0000000000001
 51
90.0000000000004
  0
LINE
  5
123
  8
ZUWAKU
  6
CONTINUOUS
 62
     4
 10
624.9205935682018
 20
-535.9255882376586
 30
0.0
 11
622.4475408938075
 21
-535.9255882376586
 31
0.0
  0
ARC
  5
124
  8
ZUWAKU
  6
CONTINUOUS
 62
     4
 10
622.4475408938075
 20
-540.4812115852277
 30
0.0
 40
4.555623347569655
 50
90.00000000000058
 51
179.9999999999999
  0
LINE
  5
125
  8
ZUWAKU
  6
CONTINUOUS
 62
     4
 10
617.8919175462385
 20
-540.4812115852277
 30
0.0
 11
617.8919175462385
 21
-557.5322589718456
 31
0.0
  0
LINE
  5
126
  8
ZUWAKU
  6
CONTINUOUS
 62
     4
 10
617.8919175462385
 20
-557.5322589718456
 30
0.0
 11
656.6797963341155
 21
-557.5322589718456
 31
0.0
  0
LINE
  5
127
  8
ZUWAKU
  6
CONTINUOUS
 62
     4
 10
656.6797963341155
 20
-557.5322589718456
 30
0.0
 11
656.6797963341155
 21
-540.4812115852277
 31
0.0
  0
ARC
  5
128
  8
ZUWAKU
  6
CONTINUOUS
 62
     4
 10
652.1241729865465
 20
-540.4812115852277
 30
0.0
 40
4.555623347569655
 50
0.0000000000000114
 51
89.99999999999905
  0
LINE
  5
129
  8
ZUWAKU
  6
CONTINUOUS
 62
     4
 10
652.1241729865465
 20
-535.9255882376586
 30
0.0
 11
649.6511203121522
 21
-535.9255882376586
 31
0.0
  0
LINE
  5
12A
  8
ZUWAKU
  6
CONTINUOUS
 62
     4
 10
645.728193047397
 20
-550.0909941633294
 30
0.0
 11
645.7929453560242
 21
-549.5969332543558
 31
0.0
  0
LINE
  5
12B
  8
ZUWAKU
  6
CONTINUOUS
 62
     4
 10
645.7929453560242
 20
-549.5969332543558
 30
0.0
 11
645.7969159901664
 21
-549.0949134779661
 31
0.0
  0
LINE
  5
12C
  8
ZUWAKU
  6
CONTINUOUS
 62
     4
 10
645.7969159901664
 20
-549.0949134779661
 30
0.0
 11
645.7400747308963
 21
-548.5887555077901
 31
0.0
  0
LINE
  5
12D
  8
ZUWAKU
  6
CONTINUOUS
 62
     4
 10
645.7400747308963
 20
-548.5887555077901
 30
0.0
 11
645.6228541745228
 21
-548.082311511613
 31
0.0
  0
LINE
  5
12E
  8
ZUWAKU
  6
CONTINUOUS
 62
     4
 10
645.6228541745228
 20
-548.082311511613
 30
0.0
 11
645.4461464402553
 21
-547.579435834043
 31
0.0
  0
LINE
  5
12F
  8
ZUWAKU
  6
CONTINUOUS
 62
     4
 10
645.4461464402553
 20
-547.579435834043
 30
0.0
 11
645.4098833092245
 21
-547.5029288814352
 31
0.0
  0
LINE
  5
130
  8
ZUWAKU
  6
CONTINUOUS
 62
     4
 10
644.2496609685619
 20
-545.7607101909347
 30
0.0
 11
644.1778933673937
 21
-545.6791442504749
 31
0.0
  0
LINE
  5
131
  8
ZUWAKU
  6
CONTINUOUS
 62
     4
 10
644.1778933673937
 20
-545.6791442504749
 30
0.0
 11
643.732548997256
 21
-545.2499659052122
 31
0.0
  0
LINE
  5
132
  8
ZUWAKU
  6
CONTINUOUS
 62
     4
 10
643.732548997256
 20
-545.2499659052122
 30
0.0
 11
643.2421038130238
 21
-544.8459117388323
 31
0.0
  0
LINE
  5
133
  8
ZUWAKU
  6
CONTINUOUS
 62
     4
 10
643.2421038130238
 20
-544.8459117388323
 30
0.0
 11
642.7102903986885
 21
-544.470056847524
 31
0.0
  0
LINE
  5
134
  8
ZUWAKU
  6
CONTINUOUS
 62
     4
 10
642.7102903986885
 20
-544.470056847524
 30
0.0
 11
642.141156175449
 21
-544.1252617139529
 31
0.0
  0
LINE
  5
135
  8
ZUWAKU
  6
CONTINUOUS
 62
     4
 10
642.141156175449
 20
-544.1252617139529
 30
0.0
 11
641.5390325983959
 21
-543.8141504372765
 31
0.0
  0
LINE
  5
136
  8
ZUWAKU
  6
CONTINUOUS
 62
     4
 10
641.5390325983959
 20
-543.8141504372765
 30
0.0
 11
640.9085021915276
 21
-543.539090762168
 31
0.0
  0
LINE
  5
137
  8
ZUWAKU
  6
CONTINUOUS
 62
     4
 10
640.9085021915276
 20
-543.539090762168
 30
0.0
 11
640.2543636719589
 21
-543.3021760588384
 31
0.0
  0
LINE
  5
138
  8
ZUWAKU
  6
CONTINUOUS
 62
     4
 10
640.2543636719589
 20
-543.3021760588384
 30
0.0
 11
639.5815954288088
 21
-543.105209391237
 31
0.0
  0
LINE
  5
139
  8
ZUWAKU
  6
CONTINUOUS
 62
     4
 10
639.5815954288088
 20
-543.105209391237
 30
0.0
 11
638.8953176346328
 21
-542.9496897946323
 31
0.0
  0
LINE
  5
13A
  8
ZUWAKU
  6
CONTINUOUS
 62
     4
 10
638.8953176346328
 20
-542.9496897946323
 30
0.0
 11
638.2007532778294
 21
-542.8368008670608
 31
0.0
  0
LINE
  5
13B
  8
ZUWAKU
  6
CONTINUOUS
 62
     4
 10
638.2007532778294
 20
-542.8368008670608
 30
0.0
 11
637.503188412548
 21
-542.767401761423
 31
0.0
  0
LINE
  5
13C
  8
ZUWAKU
  6
CONTINUOUS
 62
     4
 10
637.503188412548
 20
-542.767401761423
 30
0.0
 11
636.8079319286113
 21
-542.7420206468236
 31
0.0
  0
LINE
  5
13D
  8
ZUWAKU
  6
CONTINUOUS
 62
     4
 10
636.8079319286113
 20
-542.7420206468236
 30
0.0
 11
636.1202751476682
 21
-542.7608506888595
 31
0.0
  0
LINE
  5
13E
  8
ZUWAKU
  6
CONTINUOUS
 62
     4
 10
636.1202751476682
 20
-542.7608506888595
 30
0.0
 11
635.445451553043
 21
-542.8237485795511
 31
0.0
  0
LINE
  5
13F
  8
ZUWAKU
  6
CONTINUOUS
 62
     4
 10
635.445451553043
 20
-542.8237485795511
 30
0.0
 11
634.7885969597615
 21
-542.9302356279717
 31
0.0
  0
LINE
  5
140
  8
ZUWAKU
  6
CONTINUOUS
 62
     4
 10
634.7885969597615
 20
-542.9302356279717
 30
0.0
 11
634.1547104278949
 21
-543.0795014033741
 31
0.0
  0
LINE
  5
141
  8
ZUWAKU
  6
CONTINUOUS
 62
     4
 10
634.1547104278949
 20
-543.0795014033741
 30
0.0
 11
633.5486162167023
 21
-543.2704099030874
 31
0.0
  0
LINE
  5
142
  8
ZUWAKU
  6
CONTINUOUS
 62
     4
 10
633.5486162167023
 20
-543.2704099030874
 30
0.0
 11
632.9749270691015
 21
-543.501508198155
 31
0.0
  0
LINE
  5
143
  8
ZUWAKU
  6
CONTINUOUS
 62
     4
 10
632.9749270691015
 20
-543.501508198155
 30
0.0
 11
632.4380091059089
 21
-543.7710374910024
 31
0.0
  0
LINE
  5
144
  8
ZUWAKU
  6
CONTINUOUS
 62
     4
 10
632.4380091059089
 20
-543.7710374910024
 30
0.0
 11
631.9419485970235
 21
-544.0769465009711
 31
0.0
  0
LINE
  5
145
  8
ZUWAKU
  6
CONTINUOUS
 62
     4
 10
631.9419485970235
 20
-544.0769465009711
 30
0.0
 11
631.4905208624483
 21
-544.4169070757874
 31
0.0
  0
LINE
  5
146
  8
ZUWAKU
  6
CONTINUOUS
 62
     4
 10
631.4905208624483
 20
-544.4169070757874
 30
0.0
 11
631.0871615398224
 21
-544.7883319101915
 31
0.0
  0
LINE
  5
147
  8
ZUWAKU
  6
CONTINUOUS
 62
     4
 10
631.0871615398224
 20
-544.7883319101915
 30
0.0
 11
630.7349404371449
 21
-545.1883942369262
 31
0.0
  0
LINE
  5
148
  8
ZUWAKU
  6
CONTINUOUS
 62
     4
 10
630.7349404371449
 20
-545.1883942369262
 30
0.0
 11
630.6499961090109
 21
-545.3095628428731
 31
0.0
  0
LINE
  5
149
  8
ZUWAKU
  6
CONTINUOUS
 62
     4
 10
630.3252976468117
 20
-545.8197205523051
 30
0.0
 11
630.1942257588822
 21
-546.0620577274298
 31
0.0
  0
LINE
  5
14A
  8
ZUWAKU
  6
CONTINUOUS
 62
     4
 10
630.1942257588822
 20
-546.0620577274298
 30
0.0
 11
630.1866796271203
 21
-546.0811688681518
 31
0.0
  0
LINE
  5
14B
  8
ZUWAKU
  6
CONTINUOUS
 62
     4
 10
629.9999534399
 20
-546.5671751880913
 30
0.0
 11
629.8848061695431
 21
-547.0113517242247
 31
0.0
  0
LINE
  5
14C
  8
ZUWAKU
  6
CONTINUOUS
 62
     4
 10
629.8848061695431
 20
-547.0113517242247
 30
0.0
 11
629.8200538609159
 21
-547.5054126332037
 31
0.0
  0
LINE
  5
14D
  8
ZUWAKU
  6
CONTINUOUS
 62
     4
 10
629.8200538609159
 20
-547.5054126332037
 30
0.0
 11
629.8160832267764
 21
-548.007432409588
 31
0.0
  0
LINE
  5
14E
  8
ZUWAKU
  6
CONTINUOUS
 62
     4
 10
629.8160832267764
 20
-548.007432409588
 30
0.0
 11
629.8729244860466
 21
-548.513590379764
 31
0.0
  0
LINE
  5
14F
  8
ZUWAKU
  6
CONTINUOUS
 62
     4
 10
629.8729244860466
 20
-548.513590379764
 30
0.0
 11
629.9901450424201
 21
-549.020034375941
 31
0.0
  0
LINE
  5
150
  8
ZUWAKU
  6
CONTINUOUS
 62
     4
 10
629.9901450424201
 20
-549.020034375941
 30
0.0
 11
630.1668527766875
 21
-549.5229100535165
 31
0.0
  0
LINE
  5
151
  8
ZUWAKU
  6
CONTINUOUS
 62
     4
 10
630.1668527766875
 20
-549.5229100535165
 30
0.0
 11
630.4017028362883
 21
-550.0183902249322
 31
0.0
  0
LINE
  5
152
  8
ZUWAKU
  6
CONTINUOUS
 62
     4
 10
630.4017028362883
 20
-550.0183902249322
 30
0.0
 11
630.692907870463
 21
-550.5027039869077
 31
0.0
  0
LINE
  5
153
  8
ZUWAKU
  6
CONTINUOUS
 62
     4
 10
630.692907870463
 20
-550.5027039869077
 30
0.0
 11
631.0382516330698
 21
-550.9721654192803
 31
0.0
  0
LINE
  5
154
  8
ZUWAKU
  6
CONTINUOUS
 62
     4
 10
631.0382516330698
 20
-550.9721654192803
 30
0.0
 11
631.4351058495491
 21
-551.4232016370792
 31
0.0
  0
LINE
  5
155
  8
ZUWAKU
  6
CONTINUOUS
 62
     4
 10
631.4351058495491
 20
-551.4232016370792
 30
0.0
 11
631.8804502196841
 21
-551.8523799823473
 31
0.0
  0
LINE
  5
156
  8
ZUWAKU
  6
CONTINUOUS
 62
     4
 10
631.8804502196841
 20
-551.8523799823473
 30
0.0
 11
632.3708954039163
 21
-552.2564341487217
 31
0.0
  0
LINE
  5
157
  8
ZUWAKU
  6
CONTINUOUS
 62
     4
 10
632.3708954039163
 20
-552.2564341487217
 30
0.0
 11
632.9027088182544
 21
-552.6322890400301
 31
0.0
  0
LINE
  5
158
  8
ZUWAKU
  6
CONTINUOUS
 62
     4
 10
632.9027088182544
 20
-552.6322890400301
 30
0.0
 11
633.4718430414938
 21
-552.9770841736066
 31
0.0
  0
LINE
  5
159
  8
ZUWAKU
  6
CONTINUOUS
 62
     4
 10
633.4718430414938
 20
-552.9770841736066
 30
0.0
 11
634.0739666185442
 21
-553.2881954502776
 31
0.0
  0
LINE
  5
15A
  8
ZUWAKU
  6
CONTINUOUS
 62
     4
 10
634.0739666185442
 20
-553.2881954502776
 30
0.0
 11
634.7044970254152
 21
-553.563255125386
 31
0.0
  0
LINE
  5
15B
  8
ZUWAKU
  6
CONTINUOUS
 62
     4
 10
634.7044970254152
 20
-553.563255125386
 30
0.0
 11
635.3586355449812
 21
-553.8001698287156
 31
0.0
  0
LINE
  5
15C
  8
ZUWAKU
  6
CONTINUOUS
 62
     4
 10
635.3586355449812
 20
-553.8001698287156
 30
0.0
 11
636.0314037881341
 21
-553.997136496317
 31
0.0
  0
LINE
  5
15D
  8
ZUWAKU
  6
CONTINUOUS
 62
     4
 10
636.0314037881341
 20
-553.997136496317
 30
0.0
 11
636.7176815823101
 21
-554.1526560929218
 31
0.0
  0
LINE
  5
15E
  8
ZUWAKU
  6
CONTINUOUS
 62
     4
 10
636.7176815823101
 20
-554.1526560929218
 30
0.0
 11
637.4122459391107
 21
-554.2655450204987
 31
0.0
  0
LINE
  5
15F
  8
ZUWAKU
  6
CONTINUOUS
 62
     4
 10
637.4122459391107
 20
-554.2655450204987
 30
0.0
 11
638.1098108043949
 21
-554.3349441261311
 31
0.0
  0
LINE
  5
160
  8
ZUWAKU
  6
CONTINUOUS
 62
     4
 10
638.1098108043949
 20
-554.3349441261311
 30
0.0
 11
638.8050672883315
 21
-554.360325240736
 31
0.0
  0
LINE
  5
161
  8
ZUWAKU
  6
CONTINUOUS
 62
     4
 10
638.8050672883315
 20
-554.360325240736
 30
0.0
 11
639.492724069272
 21
-554.3414951986946
 31
0.0
  0
LINE
  5
162
  8
ZUWAKU
  6
CONTINUOUS
 62
     4
 10
639.492724069272
 20
-554.3414951986946
 30
0.0
 11
640.1675476638972
 21
-554.278597308003
 31
0.0
  0
LINE
  5
163
  8
ZUWAKU
  6
CONTINUOUS
 62
     4
 10
640.1675476638972
 20
-554.278597308003
 30
0.0
 11
640.8244022571813
 21
-554.1721102595878
 31
0.0
  0
LINE
  5
164
  8
ZUWAKU
  6
CONTINUOUS
 62
     4
 10
640.8244022571813
 20
-554.1721102595878
 30
0.0
 11
641.458288789048
 21
-554.0228444841799
 31
0.0
  0
LINE
  5
165
  8
ZUWAKU
  6
CONTINUOUS
 62
     4
 10
641.458288789048
 20
-554.0228444841799
 30
0.0
 11
642.0643830002406
 21
-553.8319359844667
 31
0.0
  0
LINE
  5
166
  8
ZUWAKU
  6
CONTINUOUS
 62
     4
 10
642.0643830002406
 20
-553.8319359844667
 30
0.0
 11
642.6380721478414
 21
-553.6008376894046
 31
0.0
  0
LINE
  5
167
  8
ZUWAKU
  6
CONTINUOUS
 62
     4
 10
642.6380721478414
 20
-553.6008376894046
 30
0.0
 11
643.1749901110339
 21
-553.3313083965517
 31
0.0
  0
LINE
  5
168
  8
ZUWAKU
  6
CONTINUOUS
 62
     4
 10
643.1749901110339
 20
-553.3313083965517
 30
0.0
 11
643.6710506199194
 21
-553.025399386583
 31
0.0
  0
LINE
  5
169
  8
ZUWAKU
  6
CONTINUOUS
 62
     4
 10
643.6710506199194
 20
-553.025399386583
 30
0.0
 11
644.1224783544945
 21
-552.6854388117721
 31
0.0
  0
LINE
  5
16A
  8
ZUWAKU
  6
CONTINUOUS
 62
     4
 10
644.1224783544945
 20
-552.6854388117721
 30
0.0
 11
644.5258376771204
 21
-552.3140139773626
 31
0.0
  0
LINE
  5
16B
  8
ZUWAKU
  6
CONTINUOUS
 62
     4
 10
644.5258376771204
 20
-552.3140139773626
 30
0.0
 11
644.6382777859131
 21
-552.1863014377126
 31
0.0
  0
LINE
  5
16C
  8
ZUWAKU
  6
CONTINUOUS
 62
     4
 10
644.984830857578
 20
-551.76164691054
 30
0.0
 11
645.1764610472525
 21
-551.4882965474338
 31
0.0
  0
LINE
  5
16D
  8
ZUWAKU
  6
CONTINUOUS
 62
     4
 10
645.1764610472525
 20
-551.4882965474338
 30
0.0
 11
645.3308959889079
 21
-551.2027637143259
 31
0.0
  0
LINE
  5
16E
  8
ZUWAKU
  6
CONTINUOUS
 62
     4
 10
645.5563351434145
 20
-550.6919029461845
 30
0.0
 11
645.6031518684509
 21
-550.5733361030583
 31
0.0
  0
LINE
  5
16F
  8
ZUWAKU
  6
CONTINUOUS
 62
     4
 10
645.6031518684509
 20
-550.5733361030583
 30
0.0
 11
645.728193047397
 21
-550.0909941633294
 31
0.0
  0
LINE
  5
170
  8
ZUWAKU
  6
CONTINUOUS
 62
     4
 10
645.2171160513377
 20
-549.9916508588416
 30
0.0
 11
645.2776907916674
 21
-549.5294648472194
 31
0.0
  0
LINE
  5
171
  8
ZUWAKU
  6
CONTINUOUS
 62
     4
 10
645.2776907916674
 20
-549.5294648472194
 30
0.0
 11
645.2814052558639
 21
-549.0598334435039
 31
0.0
  0
LINE
  5
172
  8
ZUWAKU
  6
CONTINUOUS
 62
     4
 10
645.2814052558639
 20
-549.0598334435039
 30
0.0
 11
645.2282311746109
 21
-548.58633082624
 31
0.0
  0
LINE
  5
173
  8
ZUWAKU
  6
CONTINUOUS
 62
     4
 10
645.2282311746109
 20
-548.58633082624
 30
0.0
 11
645.1185732347773
 21
-548.1125606362697
 31
0.0
  0
LINE
  5
174
  8
ZUWAKU
  6
CONTINUOUS
 62
     4
 10
645.1185732347773
 20
-548.1125606362697
 30
0.0
 11
644.9752464430636
 21
-547.7046805975373
 31
0.0
  0
LINE
  5
175
  8
ZUWAKU
  6
CONTINUOUS
 62
     4
 10
644.7571723662446
 20
-547.2284156176123
 30
0.0
 11
644.7335675566416
 21
-547.1786148420546
 31
0.0
  0
LINE
  5
176
  8
ZUWAKU
  6
CONTINUOUS
 62
     4
 10
644.7335675566416
 20
-547.1786148420546
 30
0.0
 11
644.4611499440258
 21
-546.7255471292377
 31
0.0
  0
LINE
  5
177
  8
ZUWAKU
  6
CONTINUOUS
 62
     4
 10
644.4611499440258
 20
-546.7255471292377
 30
0.0
 11
644.1317258506593
 21
-546.2777269469228
 31
0.0
  0
LINE
  5
178
  8
ZUWAKU
  6
CONTINUOUS
 62
     4
 10
643.6381524351715
 20
-545.7404243635959
 30
0.0
 11
643.3502232302386
 21
-545.4629470044732
 31
0.0
  0
LINE
  5
179
  8
ZUWAKU
  6
CONTINUOUS
 62
     4
 10
643.3502232302386
 20
-545.4629470044732
 30
0.0
 11
642.8914196707962
 21
-545.0849608488282
 31
0.0
  0
LINE
  5
17A
  8
ZUWAKU
  6
CONTINUOUS
 62
     4
 10
642.8914196707962
 20
-545.0849608488282
 30
0.0
 11
642.39391679932
 21
-544.7333546601825
 31
0.0
  0
LINE
  5
17B
  8
ZUWAKU
  6
CONTINUOUS
 62
     4
 10
642.39391679932
 20
-544.7333546601825
 30
0.0
 11
641.8615009130614
 21
-544.4108043739419
 31
0.0
  0
LINE
  5
17C
  8
ZUWAKU
  6
CONTINUOUS
 62
     4
 10
641.8615009130614
 20
-544.4108043739419
 30
0.0
 11
641.2982240184016
 21
-544.1197647925331
 31
0.0
  0
LINE
  5
17D
  8
ZUWAKU
  6
CONTINUOUS
 62
     4
 10
641.2982240184016
 20
-544.1197647925331
 30
0.0
 11
640.7083729926186
 21
-543.8624509029163
 31
0.0
  0
LINE
  5
17E
  8
ZUWAKU
  6
CONTINUOUS
 62
     4
 10
640.7083729926186
 20
-543.8624509029163
 30
0.0
 11
640.0964369581858
 21
-543.6408210191588
 31
0.0
  0
LINE
  5
17F
  8
ZUWAKU
  6
CONTINUOUS
 62
     4
 10
640.0964369581858
 20
-543.6408210191588
 30
0.0
 11
639.4670731178181
 21
-543.4565618784949
 31
0.0
  0
LINE
  5
180
  8
ZUWAKU
  6
CONTINUOUS
 62
     4
 10
639.4670731178181
 20
-543.4565618784949
 30
0.0
 11
638.825071310364
 21
-543.3110758042552
 31
0.0
  0
LINE
  5
181
  8
ZUWAKU
  6
CONTINUOUS
 62
     4
 10
638.825071310364
 20
-543.3110758042552
 30
0.0
 11
638.1753175572263
 21
-543.2054700332977
 31
0.0
  0
LINE
  5
182
  8
ZUWAKU
  6
CONTINUOUS
 62
     4
 10
638.1753175572263
 20
-543.2054700332977
 30
0.0
 11
637.522756876802
 21
-543.1405482893191
 31
0.0
  0
LINE
  5
183
  8
ZUWAKU
  6
CONTINUOUS
 62
     4
 10
637.522756876802
 20
-543.1405482893191
 30
0.0
 11
636.8723556498923
 21
-543.1168046659808
 31
0.0
  0
LINE
  5
184
  8
ZUWAKU
  6
CONTINUOUS
 62
     4
 10
636.8723556498923
 20
-543.1168046659808
 30
0.0
 11
636.2290638225583
 21
-543.1344198665996
 31
0.0
  0
LINE
  5
185
  8
ZUWAKU
  6
CONTINUOUS
 62
     4
 10
636.2290638225583
 20
-543.1344198665996
 30
0.0
 11
635.597777234039
 21
-543.1932598288607
 31
0.0
  0
LINE
  5
186
  8
ZUWAKU
  6
CONTINUOUS
 62
     4
 10
635.597777234039
 20
-543.1932598288607
 30
0.0
 11
634.9833003564523
 21
-543.292876745118
 31
0.0
  0
LINE
  5
187
  8
ZUWAKU
  6
CONTINUOUS
 62
     4
 10
634.9833003564523
 20
-543.292876745118
 30
0.0
 11
634.3903097298668
 21
-543.4325124704995
 31
0.0
  0
LINE
  5
188
  8
ZUWAKU
  6
CONTINUOUS
 62
     4
 10
634.3903097298668
 20
-543.4325124704995
 30
0.0
 11
633.8233183710105
 21
-543.6111042928118
 31
0.0
  0
LINE
  5
189
  8
ZUWAKU
  6
CONTINUOUS
 62
     4
 10
633.8233183710105
 20
-543.6111042928118
 30
0.0
 11
633.2866414264805
 21
-543.8272930204533
 31
0.0
  0
LINE
  5
18A
  8
ZUWAKU
  6
CONTINUOUS
 62
     4
 10
633.2866414264805
 20
-543.8272930204533
 30
0.0
 11
632.7843633318813
 21
-544.0794333266662
 31
0.0
  0
LINE
  5
18B
  8
ZUWAKU
  6
CONTINUOUS
 62
     4
 10
632.7843633318813
 20
-544.0794333266662
 30
0.0
 11
632.3203067267947
 21
-544.3656062714766
 31
0.0
  0
LINE
  5
18C
  8
ZUWAKU
  6
CONTINUOUS
 62
     4
 10
632.3203067267947
 20
-544.3656062714766
 30
0.0
 11
631.8980033621925
 21
-544.6836339059777
 31
0.0
  0
LINE
  5
18D
  8
ZUWAKU
  6
CONTINUOUS
 62
     4
 10
631.8980033621925
 20
-544.6836339059777
 30
0.0
 11
631.5206672216706
 21
-545.0310958478425
 31
0.0
  0
LINE
  5
18E
  8
ZUWAKU
  6
CONTINUOUS
 62
     4
 10
631.5206672216706
 20
-545.0310958478425
 30
0.0
 11
631.2577502369874
 21
-545.3297241237527
 31
0.0
  0
LINE
  5
18F
  8
ZUWAKU
  6
CONTINUOUS
 62
     4
 10
630.8930813045059
 20
-545.8385558761187
 30
0.0
 11
630.6853402007924
 21
-546.2226458059034
 31
0.0
  0
LINE
  5
190
  8
ZUWAKU
  6
CONTINUOUS
 62
     4
 10
630.6853402007924
 20
-546.2226458059034
 30
0.0
 11
630.6682162594203
 21
-546.2660134628426
 31
0.0
  0
LINE
  5
191
  8
ZUWAKU
  6
CONTINUOUS
 62
     4
 10
630.4881977864767
 20
-546.7545946330523
 30
0.0
 11
630.3958831656051
 21
-547.1106950287125
 31
0.0
  0
LINE
  5
192
  8
ZUWAKU
  6
CONTINUOUS
 62
     4
 10
630.3958831656051
 20
-547.1106950287125
 30
0.0
 11
630.3353084252755
 21
-547.5728810403347
 31
0.0
  0
LINE
  5
193
  8
ZUWAKU
  6
CONTINUOUS
 62
     4
 10
630.3353084252755
 20
-547.5728810403347
 30
0.0
 11
630.331593961079
 21
-548.0425124440557
 31
0.0
  0
LINE
  5
194
  8
ZUWAKU
  6
CONTINUOUS
 62
     4
 10
630.331593961079
 20
-548.0425124440557
 30
0.0
 11
630.384768042332
 21
-548.5160150613141
 31
0.0
  0
LINE
  5
195
  8
ZUWAKU
  6
CONTINUOUS
 62
     4
 10
630.384768042332
 20
-548.5160150613141
 30
0.0
 11
630.4944259821656
 21
-548.9897852512844
 31
0.0
  0
LINE
  5
196
  8
ZUWAKU
  6
CONTINUOUS
 62
     4
 10
630.4944259821656
 20
-548.9897852512844
 30
0.0
 11
630.6597332174466
 21
-549.4602173367588
 31
0.0
  0
LINE
  5
197
  8
ZUWAKU
  6
CONTINUOUS
 62
     4
 10
630.6597332174466
 20
-549.4602173367588
 30
0.0
 11
630.8794316602986
 21
-549.923731045505
 31
0.0
  0
LINE
  5
198
  8
ZUWAKU
  6
CONTINUOUS
 62
     4
 10
630.8794316602986
 20
-549.923731045505
 30
0.0
 11
631.1518492729143
 21
-550.3767987583218
 31
0.0
  0
LINE
  5
199
  8
ZUWAKU
  6
CONTINUOUS
 62
     4
 10
631.1518492729143
 20
-550.3767987583218
 30
0.0
 11
631.4749127927722
 21
-550.8159723563462
 31
0.0
  0
LINE
  5
19A
  8
ZUWAKU
  6
CONTINUOUS
 62
     4
 10
631.4749127927722
 20
-550.8159723563462
 30
0.0
 11
631.8461635114132
 21
-551.2379094633183
 31
0.0
  0
LINE
  5
19B
  8
ZUWAKU
  6
CONTINUOUS
 62
     4
 10
631.8461635114132
 20
-551.2379094633183
 30
0.0
 11
632.2627759867042
 21
-551.6393988830808
 31
0.0
  0
LINE
  5
19C
  8
ZUWAKU
  6
CONTINUOUS
 62
     4
 10
632.2627759867042
 20
-551.6393988830808
 30
0.0
 11
632.7215795461467
 21
-552.0173850387258
 31
0.0
  0
LINE
  5
19D
  8
ZUWAKU
  6
CONTINUOUS
 62
     4
 10
632.7215795461467
 20
-552.0173850387258
 30
0.0
 11
633.2190824176229
 21
-552.3689912273716
 31
0.0
  0
LINE
  5
19E
  8
ZUWAKU
  6
CONTINUOUS
 62
     4
 10
633.2190824176229
 20
-552.3689912273716
 30
0.0
 11
633.7514983038787
 21
-552.6915415136176
 31
0.0
  0
LINE
  5
19F
  8
ZUWAKU
  6
CONTINUOUS
 62
     4
 10
633.7514983038787
 20
-552.6915415136176
 30
0.0
 11
634.3147751985413
 21
-552.9825810950209
 31
0.0
  0
LINE
  5
1A0
  8
ZUWAKU
  6
CONTINUOUS
 62
     4
 10
634.3147751985413
 20
-552.9825810950209
 30
0.0
 11
634.9046262243215
 21
-553.2398949846378
 31
0.0
  0
LINE
  5
1A1
  8
ZUWAKU
  6
CONTINUOUS
 62
     4
 10
634.9046262243215
 20
-553.2398949846378
 30
0.0
 11
635.5165622587571
 21
-553.4615248683953
 31
0.0
  0
LINE
  5
1A2
  8
ZUWAKU
  6
CONTINUOUS
 62
     4
 10
635.5165622587571
 20
-553.4615248683953
 30
0.0
 11
636.145926099122
 21
-553.6457840090592
 31
0.0
  0
LINE
  5
1A3
  8
ZUWAKU
  6
CONTINUOUS
 62
     4
 10
636.145926099122
 20
-553.6457840090592
 30
0.0
 11
636.7879279065788
 21
-553.7912700832989
 31
0.0
  0
LINE
  5
1A4
  8
ZUWAKU
  6
CONTINUOUS
 62
     4
 10
636.7879279065788
 20
-553.7912700832989
 30
0.0
 11
637.4376816597165
 21
-553.8968758542563
 31
0.0
  0
LINE
  5
1A5
  8
ZUWAKU
  6
CONTINUOUS
 62
     4
 10
637.4376816597165
 20
-553.8968758542563
 30
0.0
 11
638.0902423401409
 21
-553.9617975982404
 31
0.0
  0
LINE
  5
1A6
  8
ZUWAKU
  6
CONTINUOUS
 62
     4
 10
638.0902423401409
 20
-553.9617975982404
 30
0.0
 11
638.7406435670506
 21
-553.9855412215733
 31
0.0
  0
LINE
  5
1A7
  8
ZUWAKU
  6
CONTINUOUS
 62
     4
 10
638.7406435670506
 20
-553.9855412215733
 30
0.0
 11
639.3839353943819
 21
-553.9679260209599
 31
0.0
  0
LINE
  5
1A8
  8
ZUWAKU
  6
CONTINUOUS
 62
     4
 10
639.3839353943819
 20
-553.9679260209599
 30
0.0
 11
640.0152219829012
 21
-553.9090860586988
 31
0.0
  0
LINE
  5
1A9
  8
ZUWAKU
  6
CONTINUOUS
 62
     4
 10
640.0152219829012
 20
-553.9090860586988
 30
0.0
 11
640.6296988604905
 21
-553.8094691424361
 31
0.0
  0
LINE
  5
1AA
  8
ZUWAKU
  6
CONTINUOUS
 62
     4
 10
640.6296988604905
 20
-553.8094691424361
 30
0.0
 11
641.2226894870761
 21
-553.66983341706
 31
0.0
  0
LINE
  5
1AB
  8
ZUWAKU
  6
CONTINUOUS
 62
     4
 10
641.2226894870761
 20
-553.66983341706
 30
0.0
 11
641.7896808459324
 21
-553.4912415947423
 31
0.0
  0
LINE
  5
1AC
  8
ZUWAKU
  6
CONTINUOUS
 62
     4
 10
641.7896808459324
 20
-553.4912415947423
 30
0.0
 11
642.3263577904623
 21
-553.2750528671062
 31
0.0
  0
LINE
  5
1AD
  8
ZUWAKU
  6
CONTINUOUS
 62
     4
 10
642.3263577904623
 20
-553.2750528671062
 30
0.0
 11
642.8286358850615
 21
-553.0229125608879
 31
0.0
  0
LINE
  5
1AE
  8
ZUWAKU
  6
CONTINUOUS
 62
     4
 10
642.8286358850615
 20
-553.0229125608879
 30
0.0
 11
643.2926924901482
 21
-552.7367396160774
 31
0.0
  0
LINE
  5
1AF
  8
ZUWAKU
  6
CONTINUOUS
 62
     4
 10
643.2926924901482
 20
-552.7367396160774
 30
0.0
 11
643.7149958547503
 21
-552.4187119815764
 31
0.0
  0
LINE
  5
1B0
  8
ZUWAKU
  6
CONTINUOUS
 62
     4
 10
643.7149958547503
 20
-552.4187119815764
 30
0.0
 11
644.0923319952723
 21
-552.0712500397116
 31
0.0
  0
LINE
  5
1B1
  8
ZUWAKU
  6
CONTINUOUS
 62
     4
 10
644.0923319952723
 20
-552.0712500397116
 30
0.0
 11
644.1545272299132
 21
-552.0006069973355
 31
0.0
  0
LINE
  5
1B2
  8
ZUWAKU
  6
CONTINUOUS
 62
     4
 10
644.5054984003033
 20
-551.5776484193651
 30
0.0
 11
644.7009796641074
 21
-551.298804702032
 31
0.0
  0
LINE
  5
1B3
  8
ZUWAKU
  6
CONTINUOUS
 62
     4
 10
644.7009796641074
 20
-551.298804702032
 30
0.0
 11
644.9276590161504
 21
-550.8797000816506
 31
0.0
  0
LINE
  5
1B4
  8
ZUWAKU
  6
CONTINUOUS
 62
     4
 10
644.9276590161504
 20
-550.8797000816506
 30
0.0
 11
644.9503544583855
 21
-550.8222221838008
 31
0.0
  0
LINE
  5
1B5
  8
ZUWAKU
  6
CONTINUOUS
 62
     4
 10
645.1427906544365
 20
-550.2783584572065
 30
0.0
 11
645.2171160513377
 21
-549.9916508588416
 31
0.0
  0
LINE
  5
1B6
  8
ZUWAKU
  6
CONTINUOUS
 62
     4
 10
629.6364479083264
 20
-548.2890442143729
 30
0.0
 11
629.5716955996992
 21
-548.7831051233519
 31
0.0
  0
LINE
  5
1B7
  8
ZUWAKU
  6
CONTINUOUS
 62
     4
 10
629.5716955996992
 20
-548.7831051233519
 30
0.0
 11
629.567724965557
 21
-549.2851248997416
 31
0.0
  0
LINE
  5
1B8
  8
ZUWAKU
  6
CONTINUOUS
 62
     4
 10
629.567724965557
 20
-549.2851248997416
 30
0.0
 11
629.6245662248272
 21
-549.7912828699122
 31
0.0
  0
LINE
  5
1B9
  8
ZUWAKU
  6
CONTINUOUS
 62
     4
 10
629.6245662248272
 20
-549.7912828699122
 30
0.0
 11
629.7417867812006
 21
-550.2977268660892
 31
0.0
  0
LINE
  5
1BA
  8
ZUWAKU
  6
CONTINUOUS
 62
     4
 10
629.7417867812006
 20
-550.2977268660892
 30
0.0
 11
629.9184945154681
 21
-550.8006025436647
 31
0.0
  0
LINE
  5
1BB
  8
ZUWAKU
  6
CONTINUOUS
 62
     4
 10
629.9184945154681
 20
-550.8006025436647
 30
0.0
 11
630.1533445750689
 21
-551.2960827150804
 31
0.0
  0
LINE
  5
1BC
  8
ZUWAKU
  6
CONTINUOUS
 62
     4
 10
630.1533445750689
 20
-551.2960827150804
 30
0.0
 11
630.4445496092436
 21
-551.7803964770613
 31
0.0
  0
LINE
  5
1BD
  8
ZUWAKU
  6
CONTINUOUS
 62
     4
 10
630.4445496092436
 20
-551.7803964770613
 30
0.0
 11
630.7898933718503
 21
-552.2498579094339
 31
0.0
  0
LINE
  5
1BE
  8
ZUWAKU
  6
CONTINUOUS
 62
     4
 10
630.7898933718503
 20
-552.2498579094339
 30
0.0
 11
631.1867475883297
 21
-552.7008941272273
 31
0.0
  0
LINE
  5
1BF
  8
ZUWAKU
  6
CONTINUOUS
 62
     4
 10
631.1867475883297
 20
-552.7008941272273
 30
0.0
 11
631.6320919584674
 21
-553.1300724724955
 31
0.0
  0
LINE
  5
1C0
  8
ZUWAKU
  6
CONTINUOUS
 62
     4
 10
631.6320919584674
 20
-553.1300724724955
 30
0.0
 11
632.1225371426996
 21
-553.5341266388699
 31
0.0
  0
LINE
  5
1C1
  8
ZUWAKU
  6
CONTINUOUS
 62
     4
 10
632.1225371426996
 20
-553.5341266388699
 30
0.0
 11
632.654350557035
 21
-553.9099815301837
 31
0.0
  0
LINE
  5
1C2
  8
ZUWAKU
  6
CONTINUOUS
 62
     4
 10
632.654350557035
 20
-553.9099815301837
 30
0.0
 11
633.2234847802744
 21
-554.2547766637548
 31
0.0
  0
LINE
  5
1C3
  8
ZUWAKU
  6
CONTINUOUS
 62
     4
 10
633.2234847802744
 20
-554.2547766637548
 30
0.0
 11
633.8256083573275
 21
-554.5658879404313
 31
0.0
  0
LINE
  5
1C4
  8
ZUWAKU
  6
CONTINUOUS
 62
     4
 10
633.8256083573275
 20
-554.5658879404313
 30
0.0
 11
634.4561387641958
 21
-554.8409476155397
 31
0.0
  0
LINE
  5
1C5
  8
ZUWAKU
  6
CONTINUOUS
 62
     4
 10
634.4561387641958
 20
-554.8409476155397
 30
0.0
 11
635.1102772837645
 21
-555.0778623188638
 31
0.0
  0
LINE
  5
1C6
  8
ZUWAKU
  6
CONTINUOUS
 62
     4
 10
635.1102772837645
 20
-555.0778623188638
 30
0.0
 11
635.7830455269146
 21
-555.2748289864707
 31
0.0
  0
LINE
  5
1C7
  8
ZUWAKU
  6
CONTINUOUS
 62
     4
 10
635.7830455269146
 20
-555.2748289864707
 30
0.0
 11
636.4693233210907
 21
-555.4303485830754
 31
0.0
  0
LINE
  5
1C8
  8
ZUWAKU
  6
CONTINUOUS
 62
     4
 10
636.4693233210907
 20
-555.4303485830754
 30
0.0
 11
637.163887677894
 21
-555.5432375106469
 31
0.0
  0
LINE
  5
1C9
  8
ZUWAKU
  6
CONTINUOUS
 62
     4
 10
637.163887677894
 20
-555.5432375106469
 30
0.0
 11
637.8614525431755
 21
-555.6126366162792
 31
0.0
  0
LINE
  5
1CA
  8
ZUWAKU
  6
CONTINUOUS
 62
     4
 10
637.8614525431755
 20
-555.6126366162792
 30
0.0
 11
638.5567090271121
 21
-555.6380177308841
 31
0.0
  0
LINE
  5
1CB
  8
ZUWAKU
  6
CONTINUOUS
 62
     4
 10
638.5567090271121
 20
-555.6380177308841
 30
0.0
 11
639.2443658080552
 21
-555.6191876888428
 31
0.0
  0
LINE
  5
1CC
  8
ZUWAKU
  6
CONTINUOUS
 62
     4
 10
639.2443658080552
 20
-555.6191876888428
 30
0.0
 11
639.9191894026804
 21
-555.5562897981512
 31
0.0
  0
LINE
  5
1CD
  8
ZUWAKU
  6
CONTINUOUS
 62
     4
 10
639.9191894026804
 20
-555.5562897981512
 30
0.0
 11
640.5760439959619
 21
-555.449802749736
 31
0.0
  0
LINE
  5
1CE
  8
ZUWAKU
  6
CONTINUOUS
 62
     4
 10
640.5760439959619
 20
-555.449802749736
 30
0.0
 11
641.2099305278285
 21
-555.3005369743281
 31
0.0
  0
LINE
  5
1CF
  8
ZUWAKU
  6
CONTINUOUS
 62
     4
 10
641.2099305278285
 20
-555.3005369743281
 30
0.0
 11
641.8160247390211
 21
-555.1096284746149
 31
0.0
  0
LINE
  5
1D0
  8
ZUWAKU
  6
CONTINUOUS
 62
     4
 10
641.8160247390211
 20
-555.1096284746149
 30
0.0
 11
642.389713886622
 21
-554.8785301795527
 31
0.0
  0
LINE
  5
1D1
  8
ZUWAKU
  6
CONTINUOUS
 62
     4
 10
642.389713886622
 20
-554.8785301795527
 30
0.0
 11
642.9266318498145
 21
-554.6090008866998
 31
0.0
  0
LINE
  5
1D2
  8
ZUWAKU
  6
CONTINUOUS
 62
     4
 10
642.9266318498145
 20
-554.6090008866998
 30
0.0
 11
643.4226923586999
 21
-554.3030918767312
 31
0.0
  0
LINE
  5
1D3
  8
ZUWAKU
  6
CONTINUOUS
 62
     4
 10
643.4226923586999
 20
-554.3030918767312
 30
0.0
 11
643.8741200932751
 21
-553.9631313019203
 31
0.0
  0
LINE
  5
1D4
  8
ZUWAKU
  6
CONTINUOUS
 62
     4
 10
643.8741200932751
 20
-553.9631313019203
 30
0.0
 11
644.2733870720118
 21
-553.5954748151565
 31
0.0
  0
LINE
  5
1D5
  8
ZUWAKU
  6
CONTINUOUS
 62
     4
 10
643.3319196807603
 20
-548.4674874835276
 30
0.0
 11
645.1427906544365
 21
-550.2783584572065
 31
0.0
  0
LINE
  5
1D6
  8
ZUWAKU
  6
CONTINUOUS
 62
     4
 10
645.5563351434145
 20
-550.6919029461845
 30
0.0
 11
648.2073361080288
 21
-553.3429039107963
 31
0.0
  0
LINE
  5
1D7
  8
ZUWAKU
  6
CONTINUOUS
 62
     4
 10
642.9637697194336
 20
-548.8356374448543
 30
0.0
 11
644.9503544583855
 21
-550.8222221838008
 31
0.0
  0
LINE
  5
1D8
  8
ZUWAKU
  6
CONTINUOUS
 62
     4
 10
645.3308959889079
 20
-551.2027637143259
 30
0.0
 11
646.1071767538484
 21
-551.9790444792637
 31
0.0
  0
LINE
  5
1D9
  8
ZUWAKU
  6
CONTINUOUS
 62
     4
 10
645.9818302941336
 20
-550.749248135577
 30
0.0
 11
648.9598475128091
 21
-553.7272653542499
 31
0.0
  0
LINE
  5
1DA
  8
ZUWAKU
  6
CONTINUOUS
 62
     4
 10
625.9508956161832
 20
-545.1124830573684
 30
0.0
 11
625.7584006911353
 21
-546.1027835970875
 31
0.0
  0
LINE
  5
1DB
  8
ZUWAKU
  6
CONTINUOUS
 62
     4
 10
630.595895474468
 20
-544.952378727154
 30
0.0
 11
630.9007888882958
 21
-544.6060724791299
 31
0.0
  0
LINE
  5
1DC
  8
ZUWAKU
  6
CONTINUOUS
 62
     4
 10
630.9007888882958
 20
-544.6060724791299
 30
0.0
 11
631.323644277311
 21
-544.21669510756
 31
0.0
  0
LINE
  5
1DD
  8
ZUWAKU
  6
CONTINUOUS
 62
     4
 10
631.323644277311
 20
-544.21669510756
 30
0.0
 11
631.7950101585908
 21
-543.8617195407681
 31
0.0
  0
LINE
  5
1DE
  8
ZUWAKU
  6
CONTINUOUS
 62
     4
 10
631.7950101585908
 20
-543.8617195407681
 30
0.0
 11
632.3110513490761
 21
-543.5434889078955
 31
0.0
  0
LINE
  5
1DF
  8
ZUWAKU
  6
CONTINUOUS
 62
     4
 10
632.3110513490761
 20
-543.5434889078955
 30
0.0
 11
632.8677158788356
 21
-543.2640469682559
 31
0.0
  0
LINE
  5
1E0
  8
ZUWAKU
  6
CONTINUOUS
 62
     4
 10
632.8677158788356
 20
-543.2640469682559
 30
0.0
 11
633.4607443798419
 21
-543.0251582319419
 31
0.0
  0
LINE
  5
1E1
  8
ZUWAKU
  6
CONTINUOUS
 62
     4
 10
633.4607443798419
 20
-543.0251582319419
 30
0.0
 11
634.0856781467625
 21
-542.8283156195906
 31
0.0
  0
LINE
  5
1E2
  8
ZUWAKU
  6
CONTINUOUS
 62
     4
 10
634.0856781467625
 20
-542.8283156195906
 30
0.0
 11
634.7378707246513
 21
-542.6747391891753
 31
0.0
  0
LINE
  5
1E3
  8
ZUWAKU
  6
CONTINUOUS
 62
     4
 10
634.7378707246513
 20
-542.6747391891753
 30
0.0
 11
635.4125050058134
 21
-542.5653697578022
 31
0.0
  0
LINE
  5
1E4
  8
ZUWAKU
  6
CONTINUOUS
 62
     4
 10
635.4125050058134
 20
-542.5653697578022
 30
0.0
 11
636.104616031184
 21
-542.5008605675997
 31
0.0
  0
LINE
  5
1E5
  8
ZUWAKU
  6
CONTINUOUS
 62
     4
 10
636.104616031184
 20
-542.5008605675997
 30
0.0
 11
636.8091187939095
 21
-542.4815692335964
 31
0.0
  0
LINE
  5
1E6
  8
ZUWAKU
  6
CONTINUOUS
 62
     4
 10
636.8091187939095
 20
-542.4815692335964
 30
0.0
 11
637.5208400055377
 21
-542.5075514114764
 31
0.0
  0
LINE
  5
1E7
  8
ZUWAKU
  6
CONTINUOUS
 62
     4
 10
637.5208400055377
 20
-542.5075514114764
 30
0.0
 11
638.2345527408712
 21
-542.5785570311367
 31
0.0
  0
LINE
  5
1E8
  8
ZUWAKU
  6
CONTINUOUS
 62
     4
 10
638.2345527408712
 20
-542.5785570311367
 30
0.0
 11
638.9450129532321
 21
-542.6940295437565
 31
0.0
  0
LINE
  5
1E9
  8
ZUWAKU
  6
CONTINUOUS
 62
     4
 10
638.9450129532321
 20
-542.6940295437565
 30
0.0
 11
639.6469969560272
 21
-542.8531083743168
 31
0.0
  0
LINE
  5
1EA
  8
ZUWAKU
  6
CONTINUOUS
 62
     4
 10
639.6469969560272
 20
-542.8531083743168
 30
0.0
 11
640.3353390543203
 21
-543.0546346066479
 31
0.0
  0
LINE
  5
1EB
  8
ZUWAKU
  6
CONTINUOUS
 62
     4
 10
640.3353390543203
 20
-543.0546346066479
 30
0.0
 11
641.0049685658429
 21
-543.2971598093612
 31
0.0
  0
LINE
  5
1EC
  8
ZUWAKU
  6
CONTINUOUS
 62
     4
 10
641.0049685658429
 20
-543.2971598093612
 30
0.0
 11
641.6509454920248
 21
-543.5789578027747
 31
0.0
  0
LINE
  5
1ED
  8
ZUWAKU
  6
CONTINUOUS
 62
     4
 10
641.6509454920248
 20
-543.5789578027747
 30
0.0
 11
642.2684940923324
 21
-543.8980390358851
 31
0.0
  0
LINE
  5
1EE
  8
ZUWAKU
  6
CONTINUOUS
 62
     4
 10
642.2684940923324
 20
-543.8980390358851
 30
0.0
 11
642.8530335954525
 21
-544.2521670567043
 31
0.0
  0
LINE
  5
1EF
  8
ZUWAKU
  6
CONTINUOUS
 62
     4
 10
642.8530335954525
 20
-544.2521670567043
 30
0.0
 11
643.4002052803131
 21
-544.6388762832797
 31
0.0
  0
LINE
  5
1F0
  8
ZUWAKU
  6
CONTINUOUS
 62
     4
 10
643.4002052803131
 20
-544.6388762832797
 30
0.0
 11
643.905895238721
 21
-545.0554898848808
 31
0.0
  0
LINE
  5
1F1
  8
ZUWAKU
  6
CONTINUOUS
 62
     4
 10
643.905895238721
 20
-545.0554898848808
 30
0.0
 11
644.2995707747183
 21
-545.4348749774966
 31
0.0
  0
LINE
  5
1F2
  8
ZUWAKU
  6
CONTINUOUS
 62
     4
 10
629.6364479083264
 20
-548.2890442143729
 30
0.0
 11
629.6792765707147
 21
-548.0687098472775
 31
0.0
  0
LINE
  5
1F3
  8
ZUWAKU
  6
CONTINUOUS
 62
     4
 10
646.0017852023035
 20
-548.5865542717733
 30
0.0
 11
646.0573525960823
 21
-549.0813687710528
 31
0.0
  0
LINE
  5
1F4
  8
ZUWAKU
  6
CONTINUOUS
 62
     4
 10
646.0573525960823
 20
-549.0813687710528
 30
0.0
 11
646.0531323760584
 21
-549.6149444767619
 31
0.0
  0
LINE
  5
1F5
  8
ZUWAKU
  6
CONTINUOUS
 62
     4
 10
646.0531323760584
 20
-549.6149444767619
 30
0.0
 11
645.9863069973413
 21
-550.1248229359466
 31
0.0
  0
LINE
  5
1F6
  8
ZUWAKU
  6
CONTINUOUS
 62
     4
 10
645.9863069973413
 20
-550.1248229359466
 30
0.0
 11
645.9103667767673
 21
-550.5155015026725
 31
0.0
  0
ARC
  5
1F7
  8
ZUWAKU
  6
CONTINUOUS
 62
     4
 10
646.165905274797
 20
-550.5651731549136
 30
0.0
 40
0.2603213341468374
 50
168.9999999999997
 51
224.9999999999998
  0
LINE
  5
1F8
  8
ZUWAKU
  6
CONTINUOUS
 62
     4
 10
648.8543048600136
 20
-554.8716297907107
 30
0.0
 11
649.0313110301754
 21
-553.9610119871544
 31
0.0
  0
ARC
  5
1F9
  8
ZUWAKU
  6
CONTINUOUS
 62
     4
 10
648.7757725321458
 20
-553.9113403349132
 30
0.0
 40
0.2603213341468374
 50
349.0000000000001
 51
45.00000000000005
  0
ARC
  5
1FA
  8
ZUWAKU
  6
CONTINUOUS
 62
     4
 10
643.3319196807603
 20
-548.4674874835276
 30
0.0
 40
0.5206426682936749
 50
114.9999999999996
 51
225.0
  0
ARC
  5
1FB
  8
ZUWAKU
  6
CONTINUOUS
 62
     4
 10
643.3319196807603
 20
-548.4674874835276
 30
0.0
 40
0.7809640024405055
 50
138.0853946908566
 51
168.9999999999998
  0
ARC
  5
1FC
  8
ZUWAKU
  6
CONTINUOUS
 62
     4
 10
642.5570562730023
 20
-547.7718856926207
 30
0.0
 40
0.2603213341468374
 50
318.0853946908566
 51
88.10000000000012
  0
LINE
  5
1FD
  8
ZUWAKU
  6
CONTINUOUS
 62
     4
 10
630.6851357625015
 20
-548.6592992340214
 30
0.0
 11
630.7447969651226
 21
-548.9170616846244
 31
0.0
  0
LINE
  5
1FE
  8
ZUWAKU
  6
CONTINUOUS
 62
     4
 10
630.7447969651226
 20
-548.9170616846244
 30
0.0
 11
630.9008105154641
 21
-549.3610457590279
 31
0.0
  0
LINE
  5
1FF
  8
ZUWAKU
  6
CONTINUOUS
 62
     4
 10
630.9008105154641
 20
-549.3610457590279
 30
0.0
 11
631.1091576591231
 21
-549.8006108101512
 31
0.0
  0
LINE
  5
200
  8
ZUWAKU
  6
CONTINUOUS
 62
     4
 10
631.1091576591231
 20
-549.8006108101512
 30
0.0
 11
631.3687136590175
 21
-550.2322879036077
 31
0.0
  0
LINE
  5
201
  8
ZUWAKU
  6
CONTINUOUS
 62
     4
 10
631.3687136590175
 20
-550.2322879036077
 30
0.0
 11
631.6778671746739
 21
-550.6525521967509
 31
0.0
  0
LINE
  5
202
  8
ZUWAKU
  6
CONTINUOUS
 62
     4
 10
631.6778671746739
 20
-550.6525521967509
 30
0.0
 11
632.0345225384596
 21
-551.0579012636357
 31
0.0
  0
LINE
  5
203
  8
ZUWAKU
  6
CONTINUOUS
 62
     4
 10
632.0345225384596
 20
-551.0579012636357
 30
0.0
 11
632.4361222281692
 21
-551.4449228627549
 31
0.0
  0
LINE
  5
204
  8
ZUWAKU
  6
CONTINUOUS
 62
     4
 10
632.4361222281692
 20
-551.4449228627549
 30
0.0
 11
632.879681013436
 21
-551.8103495831732
 31
0.0
  0
LINE
  5
205
  8
ZUWAKU
  6
CONTINUOUS
 62
     4
 10
632.879681013436
 20
-551.8103495831732
 30
0.0
 11
633.3618256143869
 21
-552.1511014365518
 31
0.0
  0
LINE
  5
206
  8
ZUWAKU
  6
CONTINUOUS
 62
     4
 10
633.3618256143869
 20
-552.1511014365518
 30
0.0
 11
633.8788362207621
 21
-552.4643188355498
 31
0.0
  0
LINE
  5
207
  8
ZUWAKU
  6
CONTINUOUS
 62
     4
 10
633.8788362207621
 20
-552.4643188355498
 30
0.0
 11
634.4266880921729
 21
-552.7473884605246
 31
0.0
  0
LINE
  5
208
  8
ZUWAKU
  6
CONTINUOUS
 62
     4
 10
634.4266880921729
 20
-552.7473884605246
 30
0.0
 11
635.0010925986395
 21
-552.997964031831
 31
0.0
  0
LINE
  5
209
  8
ZUWAKU
  6
CONTINUOUS
 62
     4
 10
635.0010925986395
 20
-552.997964031831
 30
0.0
 11
635.5975376411185
 21
-553.2139834162048
 31
0.0
  0
LINE
  5
20A
  8
ZUWAKU
  6
CONTINUOUS
 62
     4
 10
635.5975376411185
 20
-553.2139834162048
 30
0.0
 11
636.2113276263432
 21
-553.3936829921389
 31
0.0
  0
LINE
  5
20B
  8
ZUWAKU
  6
CONTINUOUS
 62
     4
 10
636.2113276263432
 20
-553.3936829921389
 30
0.0
 11
636.8376232251782
 21
-553.5356098324286
 31
0.0
  0
LINE
  5
20C
  8
ZUWAKU
  6
CONTINUOUS
 62
     4
 10
636.8376232251782
 20
-553.5356098324286
 30
0.0
 11
637.4714811227583
 21
-553.6386320183323
 31
0.0
  0
LINE
  5
20D
  8
ZUWAKU
  6
CONTINUOUS
 62
     4
 10
637.4714811227583
 20
-553.6386320183323
 30
0.0
 11
638.1078939331334
 21
-553.7019472482938
 31
0.0
  0
LINE
  5
20E
  8
ZUWAKU
  6
CONTINUOUS
 62
     4
 10
638.1078939331334
 20
-553.7019472482938
 30
0.0
 11
638.7418304323488
 21
-553.7250898083515
 31
0.0
  0
LINE
  5
20F
  8
ZUWAKU
  6
CONTINUOUS
 62
     4
 10
638.7418304323488
 20
-553.7250898083515
 30
0.0
 11
639.3682762779005
 21
-553.7079358996947
 31
0.0
  0
LINE
  5
210
  8
ZUWAKU
  6
CONTINUOUS
 62
     4
 10
639.3682762779005
 20
-553.7079358996947
 30
0.0
 11
639.9822754356688
 21
-553.6507072369499
 31
0.0
  0
LINE
  5
211
  8
ZUWAKU
  6
CONTINUOUS
 62
     4
 10
639.9822754356688
 20
-553.6507072369499
 30
0.0
 11
640.5789726253803
 21
-553.5539727036397
 31
0.0
  0
LINE
  5
212
  8
ZUWAKU
  6
CONTINUOUS
 62
     4
 10
640.5789726253803
 20
-553.5539727036397
 30
0.0
 11
641.1536572059409
 21
-553.418647633271
 31
0.0
  0
LINE
  5
213
  8
ZUWAKU
  6
CONTINUOUS
 62
     4
 10
641.1536572059409
 20
-553.418647633271
 30
0.0
 11
641.701809009072
 21
-553.2459899235968
 31
0.0
  0
LINE
  5
214
  8
ZUWAKU
  6
CONTINUOUS
 62
     4
 10
642.0955003787054
 20
-553.0873998497176
 30
0.0
 11
641.701809009072
 21
-553.2459899235968
 31
0.0
  0
LINE
  5
215
  8
ZUWAKU
  6
CONTINUOUS
 62
     4
 10
642.5912513160216
 20
-549.9891697928073
 30
0.0
 11
643.1778028042514
 21
-550.5757212810371
 31
0.0
  0
LINE
  5
216
  8
ZUWAKU
  6
CONTINUOUS
 62
     4
 10
642.5653041866686
 20
-548.3184725267932
 30
0.0
 11
642.37686076392
 21
-549.2879298940883
 31
0.0
  0
ARC
  5
217
  8
ZUWAKU
  6
CONTINUOUS
 62
     4
 10
643.143476258009
 20
-549.4369448508172
 30
0.0
 40
0.7809640024405122
 50
168.9999999999998
 51
224.9999999999996
  0
LINE
  5
218
  8
ZUWAKU
  6
CONTINUOUS
 62
     4
 10
626.9709497242144
 20
-545.1875163044427
 30
0.0
 11
630.6499961090109
 21
-545.3095628428731
 31
0.0
  0
LINE
  5
219
  8
ZUWAKU
  6
CONTINUOUS
 62
     4
 10
631.2577502369874
 20
-545.3297241237527
 30
0.0
 11
643.6381524351715
 21
-545.7404243635959
 31
0.0
  0
LINE
  5
21A
  8
ZUWAKU
  6
CONTINUOUS
 62
     4
 10
644.2496609685619
 20
-545.7607101909347
 30
0.0
 11
648.3985990068372
 21
-545.8983446409405
 31
0.0
  0
LINE
  5
21B
  8
ZUWAKU
  6
CONTINUOUS
 62
     4
 10
648.4389884485931
 20
-546.0968650895669
 30
0.0
 11
645.4098833092245
 21
-547.5029288814352
 31
0.0
  0
LINE
  5
21C
  8
ZUWAKU
  6
CONTINUOUS
 62
     4
 10
644.9752464430636
 20
-547.7046805975373
 30
0.0
 11
643.3319196807603
 21
-548.4674874835276
 31
0.0
  0
ARC
  5
21D
  8
ZUWAKU
  6
CONTINUOUS
 62
     4
 10
648.3951466067288
 20
-546.0024159263907
 30
0.0
 40
0.104128533658735
 50
294.9000000000007
 51
88.09999999999967
  0
LINE
  5
21E
  8
ZUWAKU
  6
CONTINUOUS
 62
     4
 10
648.0963897866664
 20
-553.5137462639253
 30
0.0
 11
644.6382777859131
 21
-552.1863014377126
 31
0.0
  0
LINE
  5
21F
  8
ZUWAKU
  6
CONTINUOUS
 62
     4
 10
644.154527229916
 20
-552.0006069973355
 30
0.0
 11
630.4881977864767
 21
-546.7545946330523
 31
0.0
  0
LINE
  5
220
  8
ZUWAKU
  6
CONTINUOUS
 62
     4
 10
629.9999534399
 20
-546.5671751880913
 30
0.0
 11
626.9301809950099
 21
-545.3887999507555
 31
0.0
  0
ARC
  5
221
  8
ZUWAKU
  6
CONTINUOUS
 62
     4
 10
626.9674973241059
 20
-545.2915875898929
 30
0.0
 40
0.104128533658735
 50
90.00000000000001
 51
249.0000000000023
  0
ARC
  5
222
  8
ZUWAKU
  6
CONTINUOUS
 62
     4
 10
648.1337061157624
 20
-553.4165339030627
 30
0.0
 40
0.104128533658735
 50
249.0000000000006
 51
45.0
  0
LINE
  5
223
  8
ZUWAKU
  6
CONTINUOUS
 62
     4
 10
644.4715811683214
 20
-545.5076075087767
 30
0.0
 11
649.1075701463974
 21
-545.6613991025209
 31
0.0
  0
ARC
  5
224
  8
ZUWAKU
  6
CONTINUOUS
 62
     4
 10
644.480212168594
 20
-545.2474292951487
 30
0.0
 40
0.2603213341468374
 50
226.0590228224399
 51
268.1000000000001
  0
LINE
  5
225
  8
ZUWAKU
  6
CONTINUOUS
 62
     4
 10
626.2150651144854
 20
-544.9019764959816
 30
0.0
 11
630.391878004472
 21
-545.0405356500581
 31
0.0
  0
ARC
  5
226
  8
ZUWAKU
  6
CONTINUOUS
 62
     4
 10
626.2064341142128
 20
-545.1621547096096
 30
0.0
 40
0.2603213341468374
 50
88.10000000000028
 51
168.9999999999999
  0
ARC
  5
227
  8
ZUWAKU
  6
CONTINUOUS
 62
     4
 10
630.4005090047445
 20
-544.7803574364356
 30
0.0
 40
0.2603213341468374
 50
268.1000000000004
 51
318.638806595188
  0
LINE
  5
228
  8
ZUWAKU
  6
CONTINUOUS
 62
     4
 10
649.3544776441572
 20
-545.9712489683901
 30
0.0
 11
649.1954394281142
 21
-546.7894296614126
 31
0.0
  0
ARC
  5
229
  8
ZUWAKU
  6
CONTINUOUS
 62
     4
 10
649.0989391461248
 20
-545.921577316149
 30
0.0
 40
0.2603213341468374
 50
349.0000000000001
 51
88.10000000000001
  0
LINE
  5
22A
  8
ZUWAKU
  6
CONTINUOUS
 62
     4
 10
649.0495055347442
 20
-546.9758809170984
 30
0.0
 11
646.1508758184124
 21
-548.321380034053
 31
0.0
  0
ARC
  5
22B
  8
ZUWAKU
  6
CONTINUOUS
 62
     4
 10
648.9399009300846
 20
-546.7397580091714
 30
0.0
 40
0.2603213341468374
 50
294.9000000000004
 51
349.0000000000001
  0
ARC
  5
22C
  8
ZUWAKU
  6
CONTINUOUS
 62
     4
 10
646.260480423072
 20
-548.5575029419855
 30
0.0
 40
0.2603213341468374
 50
114.9
 51
186.40743915255
  0
LINE
  5
22D
  8
ZUWAKU
  6
CONTINUOUS
 62
     4
 10
645.996230432486
 20
-552.1498868323928
 30
0.0
 11
644.984830857578
 21
-551.76164691054
 31
0.0
  0
ARC
  5
22E
  8
ZUWAKU
  6
CONTINUOUS
 62
     4
 10
646.033546761582
 20
-552.0526744715302
 30
0.0
 40
0.104128533658735
 50
248.999999999998
 51
45.00000000000102
  0
LINE
  5
22F
  8
ZUWAKU
  6
CONTINUOUS
 62
     4
 10
644.5054984003033
 20
-551.5776484193651
 30
0.0
 11
630.6682162594203
 21
-546.2660134628426
 31
0.0
  0
LINE
  5
230
  8
ZUWAKU
  6
CONTINUOUS
 62
     4
 10
630.1866796271203
 20
-546.0811688681518
 30
0.0
 11
629.4280429964844
 21
-545.7899555499883
 31
0.0
  0
LINE
  5
231
  8
ZUWAKU
  6
CONTINUOUS
 62
     4
 10
643.0668564828917
 20
-550.7465636341661
 30
0.0
 11
635.3345696557168
 21
-547.7784168126367
 31
0.0
  0
ARC
  5
232
  8
ZUWAKU
  6
CONTINUOUS
 62
     4
 10
643.1041728119877
 20
-550.6493512733035
 30
0.0
 40
0.104128533658735
 50
249.0000000000001
 51
44.99999999999837
  0
LINE
  5
233
  8
ZUWAKU
  6
CONTINUOUS
 62
     4
 10
625.9206483664235
 20
-546.3954861514907
 30
0.0
 11
629.5170288954265
 21
-547.7760072928744
 31
0.0
  0
ARC
  5
234
  8
ZUWAKU
  6
CONTINUOUS
 62
     4
 10
629.4237380726851
 20
-548.0190381950364
 30
0.0
 40
0.2603213341468374
 50
349.0000000000001
 51
69.00000000000003
  0
LINE
  5
235
  8
ZUWAKU
  6
CONTINUOUS
 62
     4
 10
631.0320430691623
 20
-548.3575667467434
 30
0.0
 11
642.0915218060906
 21
-552.6029028800862
 31
0.0
  0
ARC
  5
236
  8
ZUWAKU
  6
CONTINUOUS
 62
     4
 10
641.9982309833491
 20
-552.8459337822482
 30
0.0
 40
0.2603213341468374
 50
291.9409771775847
 51
69.00000000000003
  0
LINE
  5
237
  8
ZUWAKU
  6
CONTINUOUS
 62
     4
 10
644.5430160834527
 20
-553.5439433652631
 30
0.0
 11
648.5054755392425
 21
-555.0649890406261
 31
0.0
  0
ARC
  5
238
  8
ZUWAKU
  6
CONTINUOUS
 62
     4
 10
648.598766361984
 20
-554.8219581384641
 30
0.0
 40
0.2603213341468374
 50
249.0000000000001
 51
349.0000000000001
  0
ARC
  5
239
  8
ZUWAKU
  6
CONTINUOUS
 62
     4
 10
644.4497252607113
 20
-553.7869742674196
 30
0.0
 40
0.2603213341468374
 50
69.00000000000004
 51
132.6397603242119
  0
ARC
  5
23A
  8
ZUWAKU
  6
CONTINUOUS
 62
     4
 10
630.9387522464209
 20
-548.6005976488999
 30
0.0
 40
0.2603213341468374
 50
69.00000000000004
 51
193.0320838540856
  0
ARC
  5
23B
  8
ZUWAKU
  6
CONTINUOUS
 62
     4
 10
626.013939189165
 20
-546.1524552493287
 30
0.0
 40
0.2603213341468374
 50
168.9999999999999
 51
249.0000000000001
  0
LINE
  5
23C
  8
ZUWAKU
  6
CONTINUOUS
 62
     4
 10
630.8930813045059
 20
-545.8385558761187
 30
0.0
 11
644.1317258506593
 21
-546.2777269469228
 31
0.0
  0
LINE
  5
23D
  8
ZUWAKU
  6
CONTINUOUS
 62
     4
 10
629.4280429964844
 20
-545.7899555499883
 30
0.0
 11
630.3252976468117
 21
-545.8197205523051
 31
0.0
  0
LINE
  5
23E
  8
ZUWAKU
  6
CONTINUOUS
 62
     4
 10
644.7560372337445
 20
-547.2324347816779
 30
0.0
 11
643.1127104714411
 21
-547.9952416676682
 31
0.0
  0
LINE
  5
23F
  8
ZUWAKU
  6
CONTINUOUS
 62
     4
 10
635.436491478728
 20
-547.2752076968521
 30
0.0
 11
642.5656872732749
 21
-547.5117074789927
 31
0.0
  0
ARC
  5
240
  8
ZUWAKU
  6
CONTINUOUS
 62
     4
 10
635.4278604784582
 20
-547.5353859104747
 30
0.0
 40
0.2603213341468374
 50
88.10000000000008
 51
249.0000000000001
  0
LINE
  5
241
  8
ZUWAKU
  6
CONTINUOUS
 62
     4
 10
639.5514321261995
 20
-544.8316641565092
 30
0.0
 11
639.2187148566014
 21
-544.7342543686485
 31
0.0
  0
LINE
  5
242
  8
ZUWAKU
  6
CONTINUOUS
 62
     4
 10
639.2187148566014
 20
-544.7342543686485
 30
0.0
 11
638.5767130491446
 21
-544.5887682944034
 31
0.0
  0
LINE
  5
243
  8
ZUWAKU
  6
CONTINUOUS
 62
     4
 10
638.5767130491446
 20
-544.5887682944034
 30
0.0
 11
637.9269592960069
 21
-544.4831625234514
 31
0.0
  0
LINE
  5
244
  8
ZUWAKU
  6
CONTINUOUS
 62
     4
 10
637.9269592960069
 20
-544.4831625234514
 30
0.0
 11
637.2743986155825
 21
-544.4182407794673
 31
0.0
  0
LINE
  5
245
  8
ZUWAKU
  6
CONTINUOUS
 62
     4
 10
637.2743986155825
 20
-544.4182407794673
 30
0.0
 11
636.6239973886728
 21
-544.394497156129
 31
0.0
  0
LINE
  5
246
  8
ZUWAKU
  6
CONTINUOUS
 62
     4
 10
636.6239973886728
 20
-544.394497156129
 30
0.0
 11
635.9807055613416
 21
-544.4121123567478
 31
0.0
  0
LINE
  5
247
  8
ZUWAKU
  6
CONTINUOUS
 62
     4
 10
635.9807055613416
 20
-544.4121123567478
 30
0.0
 11
635.3494189728223
 21
-544.4709523190089
 31
0.0
  0
LINE
  5
248
  8
ZUWAKU
  6
CONTINUOUS
 62
     4
 10
635.3494189728223
 20
-544.4709523190089
 30
0.0
 11
634.7349420952329
 21
-544.5705692352661
 31
0.0
  0
LINE
  5
249
  8
ZUWAKU
  6
CONTINUOUS
 62
     4
 10
634.7349420952329
 20
-544.5705692352661
 30
0.0
 11
634.3546539083233
 21
-544.6601184025789
 31
0.0
  0
LINE
  5
24A
  8
ZUWAKU
  6
CONTINUOUS
 62
     4
 10
634.4056906708125
 20
-545.1736875298105
 30
0.0
 11
639.4696570448519
 21
-545.3416765960068
 31
0.0
  0
ARC
  5
24B
  8
ZUWAKU
  6
CONTINUOUS
 62
     4
 10
634.4143216710851
 20
-544.9135093161825
 30
0.0
 40
0.2603213341468374
 50
103.2504547662732
 51
268.1000000000001
  0
ARC
  5
24C
  8
ZUWAKU
  6
CONTINUOUS
 62
     4
 10
639.4782880451245
 20
-545.0814983823788
 30
0.0
 40
0.2603213341468374
 50
268.1000000000001
 51
73.68152816059933
  0
LINE
  5
24D
  8
ZUWAKU
  6
CONTINUOUS
 62
     4
 10
412.6666666666619
 20
-411.0000000000088
 30
0.0
 11
808.6666666666616
 21
-411.00000000001
 31
0.0
  0
LINE
  5
24E
  8
ZUWAKU
  6
CONTINUOUS
 62
     4
 10
412.6666666666619
 20
-431.0000000000088
 30
0.0
 11
412.6666666666619
 21
-411.0000000000088
 31
0.0
  0
TEXT
  5
24F
  8
ZUWAKU
 62
     4
 10
418.3666666666619
 20
-467.0000000000086
 30
0.0
 40
12.0
  1
図
 41
1.120000000000003
  7
DCSTYLE0
 72
     5
 11
427.9666666666619
 21
-467.0000000000086
 31
0.0
  0
TEXT
  5
250
  8
ZUWAKU
 62
     4
 10
418.3666666666622
 20
-485.0000000000088
 30
0.0
 40
12.0
  1
名
 41
1.120000000000003
  7
DCSTYLE0
 72
     5
 11
427.9666666666623
 21
-485.0000000000088
 31
0.0
  0
TEXT
  5
251
  8
ZUWAKU
 62
     4
 10
418.3666666666621
 20
-509.0000000000089
 30
0.0
 40
12.0
  1
尺
 41
1.120000000000003
  7
DCSTYLE0
 72
     5
 11
427.9666666666621
 21
-509.0000000000089
 31
0.0
  0
TEXT
  5
252
  8
ZUWAKU
 62
     4
 10
418.3666666666621
 20
-521.0000000000089
 30
0.0
 40
12.0
  1
度
 41
1.120000000000003
  7
DCSTYLE0
 72
     5
 11
427.9666666666621
 21
-521.0000000000089
 31
0.0
  0
TEXT
  5
253
  8
ZUWAKU
 62
     4
 10
707.1166666666619
 20
-467.0000000000088
 30
0.0
 40
12.0
  1
図
 41
1.120000000000003
  7
DCSTYLE0
 72
     5
 11
716.7166666666619
 21
-467.0000000000088
 31
0.0
  0
TEXT
  5
254
  8
ZUWAKU
 62
     4
 10
707.1166666666619
 20
-485.0000000000089
 30
0.0
 40
12.0
  1
番
 41
1.120000000000003
  7
DCSTYLE0
 72
     5
 11
716.7166666666619
 21
-485.0000000000089
 31
0.0
  0
TEXT
  5
255
  8
ZUWAKU
 62
     4
 10
707.1166666666622
 20
-509.0000000000086
 30
0.0
 40
12.0
  1
日
 41
1.120000000000003
  7
DCSTYLE0
 72
     5
 11
716.7166666666623
 21
-509.0000000000086
 31
0.0
  0
TEXT
  5
256
  8
ZUWAKU
 62
     4
 10
707.1166666666622
 20
-521.0000000000086
 30
0.0
 40
12.0
  1
付
 41
1.120000000000003
  7
DCSTYLE0
 72
     5
 11
716.7166666666623
 21
-521.0000000000086
 31
0.0
  0
TEXT
  5
257
  8
ZUWAKU
 62
     4
 10
443.8666666666621
 20
-515.0000000000084
 30
0.0
 40
12.0
  1
 
 41
0.8000000000000019
  7
DCSTYLE0
 72
     5
 11
453.4666666666621
 21
-515.0000000000084
 31
0.0
  0
TEXT
  5
258
  8
ZUWAKU
 62
     4
 10
418.3666666666619
 20
-444.5000000000099
 30
0.0
 40
12.0
  1
番
 41
1.120000000000003
  7
DCSTYLE0
 72
     5
 11
427.9666666666619
 21
-444.5000000000099
 31
0.0
  0
TEXT
  5
259
  8
ZUWAKU
 62
     4
 10
437.3666666666619
 20
-444.5000000000099
 30
0.0
 40
12.0
  1
号
 41
1.120000000000003
  7
DCSTYLE0
 72
     5
 11
446.9666666666619
 21
-444.5000000000099
 31
0.0
  0
TEXT
  5
25A
  8
ZUWAKU
 62
     4
 10
468.866666666662
 20
-444.5000000000099
 30
0.0
 40
12.0
  1
品
 41
1.120000000000003
  7
DCSTYLE0
 72
     5
 11
478.466666666662
 21
-444.5000000000099
 31
0.0
  0
TEXT
  5
25B
  8
ZUWAKU
 62
     4
 10
546.866666666662
 20
-444.5000000000099
 30
0.0
 40
12.0
  1
名
 41
1.120000000000003
  7
DCSTYLE0
 72
     5
 11
556.466666666662
 21
-444.5000000000099
 31
0.0
  0
TEXT
  5
25C
  8
ZUWAKU
 62
     4
 10
582.866666666662
 20
-444.5000000000099
 30
0.0
 40
12.0
  1
材
 41
1.120000000000003
  7
DCSTYLE0
 72
     5
 11
592.466666666662
 21
-444.5000000000099
 31
0.0
  0
TEXT
  5
25D
  8
ZUWAKU
 62
     4
 10
612.8666666666611
 20
-444.5000000000099
 30
0.0
 40
12.0
  1
質
 41
1.120000000000003
  7
DCSTYLE0
 72
     5
 11
622.4666666666611
 21
-444.5000000000099
 31
0.0
  0
TEXT
  5
25E
  8
ZUWAKU
 62
     4
 10
638.3666666666611
 20
-444.5000000000099
 30
0.0
 40
12.0
  1
個
 41
1.120000000000003
  7
DCSTYLE0
 72
     5
 11
647.9666666666611
 21
-444.5000000000099
 31
0.0
  0
TEXT
  5
25F
  8
ZUWAKU
 62
     4
 10
657.3666666666619
 20
-444.5000000000099
 30
0.0
 40
12.0
  1
数
 41
1.120000000000003
  7
DCSTYLE0
 72
     5
 11
666.9666666666619
 21
-444.5000000000099
 31
0.0
  0
TEXT
  5
260
  8
ZUWAKU
 62
     4
 10
688.8666666666619
 20
-444.5000000000098
 30
0.0
 40
12.0
  1
記
 41
1.120000000000003
  7
DCSTYLE0
 72
     5
 11
698.4666666666619
 21
-444.5000000000098
 31
0.0
  0
TEXT
  5
261
  8
ZUWAKU
 62
     4
 10
782.8666666666619
 20
-444.5000000000099
 30
0.0
 40
12.0
  1
事
 41
1.120000000000003
  7
DCSTYLE0
 72
     5
 11
792.4666666666619
 21
-444.5000000000099
 31
0.0
  0
TEXT
  5
262
  8
ZUWAKU
 62
     4
 10
538.3666666666627
 20
-509.0000000000089
 30
0.0
 40
12.0
  1
製
 41
1.120000000000003
  7
DCSTYLE0
 72
     5
 11
547.9666666666627
 21
-509.0000000000089
 31
0.0
  0
TEXT
  5
263
  8
ZUWAKU
 62
     4
 10
538.3666666666627
 20
-521.000000000009
 30
0.0
 40
12.0
  1
図
 41
1.120000000000003
  7
DCSTYLE0
 72
     5
 11
547.9666666666627
 21
-521.000000000009
 31
0.0
  0
TEXT
  5
264
  8
ZUWAKU
 62
     4
 10
595.3666666666624
 20
-509.0000000000086
 30
0.0
 40
12.0
  1
検
 41
1.120000000000003
  7
DCSTYLE0
 72
     5
 11
604.9666666666624
 21
-509.0000000000086
 31
0.0
  0
TEXT
  5
265
  8
ZUWAKU
 62
     4
 10
595.3666666666624
 20
-521.000000000009
 30
0.0
 40
12.0
  1
図
 41
1.120000000000003
  7
DCSTYLE0
 72
     5
 11
604.9666666666624
 21
-521.000000000009
 31
0.0
  0
TEXT
  5
266
  8
ZUWAKU
 62
     4
 10
418.3666666666621
 20
-540.5000000000089
 30
0.0
 40
12.0
  1
表
 41
1.120000000000003
  7
DCSTYLE0
 72
     5
 11
427.9666666666621
 21
-540.5000000000089
 31
0.0
  0
TEXT
  5
267
  8
ZUWAKU
 62
     4
 10
430.3666666666621
 20
-540.5000000000089
 30
0.0
 40
12.0
  1
面
 41
1.120000000000003
  7
DCSTYLE0
 72
     5
 11
439.9666666666621
 21
-540.5000000000089
 31
0.0
  0
TEXT
  5
268
  8
ZUWAKU
 62
     4
 10
418.3666666666621
 20
-561.5000000000085
 30
0.0
 40
12.0
  1
処
 41
1.120000000000003
  7
DCSTYLE0
 72
     5
 11
427.9666666666621
 21
-561.5000000000085
 31
0.0
  0
TEXT
  5
269
  8
ZUWAKU
 62
     4
 10
430.3666666666621
 20
-561.5000000000089
 30
0.0
 40
12.0
  1
理
 41
1.120000000000003
  7
DCSTYLE0
 72
     5
 11
439.9666666666621
 21
-561.5000000000089
 31
0.0
  0
TEXT
  5
26A
  8
ZUWAKU
 62
     4
 10
674.8666666666621
 20
-515.0000000000086
 30
0.0
 40
12.0
  1
ｍｍ
 41
1.018181818181821
  7
DCSTYLE0
 72
     5
 11
694.0666666666622
 21
-515.0000000000086
 31
0.0
  0
TEXT
  5
26B
  8
ZUWAKU
 62
     4
 10
652.3666666666621
 20
-509.0000000000089
 30
0.0
 40
12.0
  1
単
 41
1.120000000000003
  7
DCSTYLE0
 72
     5
 11
661.9666666666621
 21
-509.0000000000089
 31
0.0
  0
TEXT
  5
26C
  8
ZUWAKU
 62
     4
 10
652.3666666666621
 20
-521.000000000009
 30
0.0
 40
12.0
  1
位
 41
1.120000000000003
  7
DCSTYLE0
 72
     5
 11
661.9666666666621
 21
-521.000000000009
 31
0.0
  0
TEXT
  5
26D
  8
ZUWAKU
 62
     4
 10
427.5096373275287
 20
-428.3466278130816
 30
0.0
 40
14.0
  1
1
 41
1.527272727272726
  7
DCSTYLE0
 72
     5
 11
438.7096373275287
 21
-428.3466278130816
 31
0.0
  0
TEXT
  5
26E
  8
ZUWAKU
 62
     4
 10
574.860407962642
 20
-430.3466278130821
 30
0.0
 40
16.0
  1
コンクリート 
 41
0.6837209302325586
  7
DCSTYLE0
 72
     5
 11
642.060407962642
 21
-430.3466278130821
 31
0.0
  0
TEXT
  5
26F
  8
ZUWAKU
 62
     4
 10
647.509637327529
 20
-428.3466278130823
 30
0.0
 40
14.0
  1
1 
 41
0.8195121951219504
  7
DCSTYLE0
 72
     5
 11
669.909637327529
 21
-428.3466278130823
 31
0.0
  0
TEXT
  5
270
  8
ZUWAKU
 62
     4
 10
454.8964646996633
 20
-428.3466278130819
 30
0.0
 40
14.0
  1
後施工アンカー用基礎　
 41
0.9476923076923076
  7
DCSTYLE0
 72
     5
 11
578.0964646996633
 21
-428.3466278130819
 31
0.0
  0
TEXT
  5
271
  8
ZUWAKU
 62
     4
 10
687.5096373275284
 20
-408.3466278130827
 30
0.0
 40
14.0
  1
　
 41
1.120000000000005
  7
DCSTYLE0
 72
     5
 11
698.7096373275284
 21
-408.3466278130827
 31
0.0
  0
TEXT
  5
272
  8
ZUWAKU
 62
     4
 10
467.50963732753
 20
-408.3466278130819
 30
0.0
 40
14.0
  1
　
 41
1.119999999999999
  7
DCSTYLE0
 72
     5
 11
478.70963732753
 21
-408.3466278130819
 31
0.0
  0
TEXT
  5
273
  8
ZUWAKU
 62
     4
 10
647.509637327529
 20
-408.3466278130825
 30
0.0
 40
14.0
  1
 
 41
0.8000000000000033
  7
DCSTYLE0
 72
     5
 11
658.7096373275291
 21
-408.3466278130825
 31
0.0
  0
TEXT
  5
274
  8
ZUWAKU
 62
     4
 10
470.4339781624124
 20
-543.3110978478389
 30
0.0
 40
14.0
  1
　
 41
1.119999999999999
  7
DCSTYLE0
 72
     5
 11
481.6339781624124
 21
-543.3110978478389
 31
0.0
  0
TEXT
  5
275
  8
ZUWAKU
 62
     4
 10
447.1399558255171
 20
-558.8895832601902
 30
0.0
 40
12.0
  1
　
 41
1.120000000000003
  7
DCSTYLE0
 72
     5
 11
456.7399558255171
 21
-558.8895832601902
 31
0.0
  0
TEXT
  5
276
  8
ZUWAKU
 62
     4
 10
560.8666666666627
 20
-515.0000000000089
 30
0.0
 40
12.0
  1
木村
 41
1.018181818181821
  7
DCSTYLE0
 72
     5
 11
580.0666666666627
 21
-515.0000000000089
 31
0.0
  0
TEXT
  5
277
  8
ZUWAKU
 62
     4
 10
728.7396179922896
 20
-515.0000000000085
 30
0.0
 40
12.0
  1
2020.8.25
 41
0.8426751592356693
  7
DCSTYLE0
 72
     5
 11
804.3396179922896
 21
-515.0000000000085
 31
0.0
  0
TEXT
  5
278
  8
ZUWAKU
 62
     7
 10
726.816666666662
 20
-477.0000000000085
 30
0.0
 40
14.0
  1
 
 41
0.8000000000000033
  7
DCSTYLE0
 72
     5
 11
738.016666666662
 21
-477.0000000000085
 31
0.0
  0
LINE
  5
279
  8
ZUWAKU
  6
CONTINUOUS
 62
     6
 10
629.7402598378236
 20
-548.4985786072524
 30
0.0
 11
629.7017891097136
 21
-548.7921107345577
 31
0.0
  0
LINE
  5
27A
  8
ZUWAKU
  6
CONTINUOUS
 62
     6
 10
629.7017891097136
 20
-548.7921107345577
 30
0.0
 11
629.6979432685163
 21
-549.2783525462822
 31
0.0
  0
LINE
  5
27B
  8
ZUWAKU
  6
CONTINUOUS
 62
     6
 10
629.6979432685163
 20
-549.2783525462822
 30
0.0
 11
629.753073156248
 21
-549.7692711576768
 31
0.0
  0
LINE
  5
27C
  8
ZUWAKU
  6
CONTINUOUS
 62
     6
 10
629.753073156248
 20
-549.7692711576768
 30
0.0
 11
629.8669722726805
 21
-550.2613650827592
 31
0.0
  0
LINE
  5
27D
  8
ZUWAKU
  6
CONTINUOUS
 62
     6
 10
629.8669722726805
 20
-550.2613650827592
 30
0.0
 11
630.0390331644754
 21
-550.7510167547993
 31
0.0
  0
LINE
  5
27E
  8
ZUWAKU
  6
CONTINUOUS
 62
     6
 10
630.0390331644754
 20
-550.7510167547993
 30
0.0
 11
630.2682075744812
 21
-551.2345225974062
 31
0.0
  0
LINE
  5
27F
  8
ZUWAKU
  6
CONTINUOUS
 62
     6
 10
630.2682075744812
 20
-551.2345225974062
 30
0.0
 11
630.5529818022966
 21
-551.7081410497016
 31
0.0
  0
LINE
  5
280
  8
ZUWAKU
  6
CONTINUOUS
 62
     6
 10
630.5529818022966
 20
-551.7081410497016
 30
0.0
 11
630.8913705628025
 21
-552.1681478296363
 31
0.0
  0
LINE
  5
281
  8
ZUWAKU
  6
CONTINUOUS
 62
     6
 10
630.8913705628025
 20
-552.1681478296363
 30
0.0
 11
631.2809271018529
 21
-552.6108900273888
 31
0.0
  0
LINE
  5
282
  8
ZUWAKU
  6
CONTINUOUS
 62
     6
 10
631.2809271018529
 20
-552.6108900273888
 30
0.0
 11
631.7187650791999
 21
-553.0328344623325
 31
0.0
  0
LINE
  5
283
  8
ZUWAKU
  6
CONTINUOUS
 62
     6
 10
631.7187650791999
 20
-553.0328344623325
 30
0.0
 11
632.2015878763428
 21
-553.4306089110963
 31
0.0
  0
LINE
  5
284
  8
ZUWAKU
  6
CONTINUOUS
 62
     6
 10
632.2015878763428
 20
-553.4306089110963
 30
0.0
 11
632.725722155417
 21
-553.8010366347738
 31
0.0
  0
LINE
  5
285
  8
ZUWAKU
  6
CONTINUOUS
 62
     6
 10
632.725722155417
 20
-553.8010366347738
 30
0.0
 11
633.2871537387188
 21
-554.1411653247236
 31
0.0
  0
LINE
  5
286
  8
ZUWAKU
  6
CONTINUOUS
 62
     6
 10
633.2871537387188
 20
-554.1411653247236
 30
0.0
 11
633.8815648041406
 21
-554.4482916231776
 31
0.0
  0
LINE
  5
287
  8
ZUWAKU
  6
CONTINUOUS
 62
     6
 10
633.8815648041406
 20
-554.4482916231776
 30
0.0
 11
634.5043719513548
 21
-554.7199821391335
 31
0.0
  0
LINE
  5
288
  8
ZUWAKU
  6
CONTINUOUS
 62
     6
 10
634.5043719513548
 20
-554.7199821391335
 30
0.0
 11
635.1507649749452
 21
-554.9540915927686
 31
0.0
  0
LINE
  5
289
  8
ZUWAKU
  6
CONTINUOUS
 62
     6
 10
635.1507649749452
 20
-554.9540915927686
 30
0.0
 11
635.8157462905252
 21
-555.1487784780078
 31
0.0
  0
LINE
  5
28A
  8
ZUWAKU
  6
CONTINUOUS
 62
     6
 10
635.8157462905252
 20
-555.1487784780078
 30
0.0
 11
636.4941709803903
 21
-555.3025184576348
 31
0.0
  0
LINE
  5
28B
  8
ZUWAKU
  6
CONTINUOUS
 62
     6
 10
636.4941709803903
 20
-555.3025184576348
 30
0.0
 11
637.1807874094162
 21
-555.4141155926849
 31
0.0
  0
LINE
  5
28C
  8
ZUWAKU
  6
CONTINUOUS
 62
     6
 10
637.1807874094162
 20
-555.4141155926849
 30
0.0
 11
637.8702783396717
 21
-555.4827114413059
 31
0.0
  0
LINE
  5
28D
  8
ZUWAKU
  6
CONTINUOUS
 62
     6
 10
637.8702783396717
 20
-555.4827114413059
 30
0.0
 11
638.5573024597612
 21
-555.5077920242733
 31
0.0
  0
LINE
  5
28E
  8
ZUWAKU
  6
CONTINUOUS
 62
     6
 10
638.5573024597612
 20
-555.5077920242733
 30
0.0
 11
639.2365362498118
 21
-555.4891926282129
 31
0.0
  0
LINE
  5
28F
  8
ZUWAKU
  6
CONTINUOUS
 62
     6
 10
639.2365362498118
 20
-555.4891926282129
 30
0.0
 11
639.9027161290629
 21
-555.4271003872767
 31
0.0
  0
LINE
  5
290
  8
ZUWAKU
  6
CONTINUOUS
 62
     6
 10
639.9027161290629
 20
-555.4271003872767
 30
0.0
 11
640.5506808784081
 21
-555.3220545303378
 31
0.0
  0
LINE
  5
291
  8
ZUWAKU
  6
CONTINUOUS
 62
     6
 10
640.5506808784081
 20
-555.3220545303378
 30
0.0
 11
641.1754143872637
 21
-555.1749440824391
 31
0.0
  0
LINE
  5
292
  8
ZUWAKU
  6
CONTINUOUS
 62
     6
 10
641.1754143872637
 20
-555.1749440824391
 30
0.0
 11
641.772088820591
 21
-554.9870026390421
 31
0.0
  0
LINE
  5
293
  8
ZUWAKU
  6
CONTINUOUS
 62
     6
 10
641.772088820591
 20
-554.9870026390421
 30
0.0
 11
642.3361082914877
 21
-554.7597995646032
 31
0.0
  0
LINE
  5
294
  8
ZUWAKU
  6
CONTINUOUS
 62
     6
 10
642.3361082914877
 20
-554.7597995646032
 30
0.0
 11
642.8631529714008
 21
-554.4952265951491
 31
0.0
  0
LINE
  5
295
  8
ZUWAKU
  6
CONTINUOUS
 62
     6
 10
642.8631529714008
 20
-554.4952265951491
 30
0.0
 11
643.3492231394836
 21
-554.195478396627
 31
0.0
  0
LINE
  5
296
  8
ZUWAKU
  6
CONTINUOUS
 62
     6
 10
643.3492231394836
 20
-554.195478396627
 30
0.0
 11
643.7906818007065
 21
-553.8630253178038
 31
0.0
  0
LINE
  5
297
  8
ZUWAKU
  6
CONTINUOUS
 62
     6
 10
643.7906818007065
 20
-553.8630253178038
 30
0.0
 11
644.1852179776621
 21
-553.4997250890195
 31
0.0
  0
ARC
  5
298
  8
ZUWAKU
  6
CONTINUOUS
 62
     6
 10
648.7757725321458
 20
-553.9113403349132
 30
0.0
 40
0.1301606670734187
 50
348.9999999999993
 51
45.00000000000031
  0
LINE
  5
299
  8
ZUWAKU
  6
CONTINUOUS
 62
     6
 10
648.8678100224774
 20
-553.8193028445788
 30
0.0
 11
645.7087688619091
 21
-550.6602616840104
 31
0.0
  0
ARC
  5
29A
  8
ZUWAKU
  6
CONTINUOUS
 62
     6
 10
646.165905274797
 20
-550.5651731549136
 30
0.0
 40
0.3904820012202561
 50
168.9999999999942
 51
225.0
  0
LINE
  5
29B
  8
ZUWAKU
  6
CONTINUOUS
 62
     6
 10
645.7825975277525
 20
-550.4906656765492
 30
0.0
 11
645.8577717225722
 21
-550.103927970695
 31
0.0
  0
LINE
  5
29C
  8
ZUWAKU
  6
CONTINUOUS
 62
     6
 10
645.9230388660413
 20
-549.6059388655561
 30
0.0
 11
645.9271342931257
 21
-549.0881411245067
 31
0.0
  0
LINE
  5
29D
  8
ZUWAKU
  6
CONTINUOUS
 62
     6
 10
644.3172959368918
 20
-545.632721607219
 30
0.0
 11
643.8192221179885
 21
-545.1527278950438
 31
0.0
  0
LINE
  5
29E
  8
ZUWAKU
  6
CONTINUOUS
 62
     6
 10
643.8192221179885
 20
-545.1527278950438
 30
0.0
 11
643.3211545466671
 21
-544.7423940110588
 31
0.0
  0
LINE
  5
29F
  8
ZUWAKU
  6
CONTINUOUS
 62
     6
 10
643.3211545466671
 20
-544.7423940110588
 30
0.0
 11
642.7816619970705
 21
-544.3611119521141
 31
0.0
  0
LINE
  5
2A0
  8
ZUWAKU
  6
CONTINUOUS
 62
     6
 10
642.7816619970705
 20
-544.3611119521141
 30
0.0
 11
642.2048251338907
 21
-544.0116503749163
 31
0.0
  0
LINE
  5
2A1
  8
ZUWAKU
  6
CONTINUOUS
 62
     6
 10
642.2048251338907
 20
-544.0116503749163
 30
0.0
 11
641.5949890452117
 21
-543.6965541200283
 31
0.0
  0
LINE
  5
2A2
  8
ZUWAKU
  6
CONTINUOUS
 62
     6
 10
641.5949890452117
 20
-543.6965541200283
 30
0.0
 11
640.9567353786839
 21
-543.4181252857619
 31
0.0
  0
LINE
  5
2A3
  8
ZUWAKU
  6
CONTINUOUS
 62
     6
 10
640.9567353786839
 20
-543.4181252857619
 30
0.0
 11
640.2948513631396
 21
-543.1784053327432
 31
0.0
  0
LINE
  5
2A4
  8
ZUWAKU
  6
CONTINUOUS
 62
     6
 10
640.2948513631396
 20
-543.1784053327432
 30
0.0
 11
639.6142961924166
 21
-542.9791588827796
 31
0.0
  0
LINE
  5
2A5
  8
ZUWAKU
  6
CONTINUOUS
 62
     6
 10
639.6142961924166
 20
-542.9791588827796
 30
0.0
 11
638.9201652939324
 21
-542.8218596691917
 31
0.0
  0
LINE
  5
2A6
  8
ZUWAKU
  6
CONTINUOUS
 62
     6
 10
638.9201652939324
 20
-542.8218596691917
 30
0.0
 11
638.217653009349
 21
-542.7076789490987
 31
0.0
  0
LINE
  5
2A7
  8
ZUWAKU
  6
CONTINUOUS
 62
     6
 10
638.217653009349
 20
-542.7076789490987
 30
0.0
 11
637.5120142090415
 21
-542.6374765864497
 31
0.0
  0
LINE
  5
2A8
  8
ZUWAKU
  6
CONTINUOUS
 62
     6
 10
637.5120142090415
 20
-542.6374765864497
 30
0.0
 11
636.8085253612604
 21
-542.6117949402072
 31
0.0
  0
LINE
  5
2A9
  8
ZUWAKU
  6
CONTINUOUS
 62
     6
 10
636.8085253612604
 20
-542.6117949402072
 30
0.0
 11
636.1124455894247
 21
-542.6308556282296
 31
0.0
  0
LINE
  5
2AA
  8
ZUWAKU
  6
CONTINUOUS
 62
     6
 10
636.1124455894247
 20
-542.6308556282296
 30
0.0
 11
635.4289782794309
 21
-542.6945591686766
 31
0.0
  0
LINE
  5
2AB
  8
ZUWAKU
  6
CONTINUOUS
 62
     6
 10
635.4289782794309
 20
-542.6945591686766
 30
0.0
 11
634.7632338422051
 21
-542.8024874085735
 31
0.0
  0
LINE
  5
2AC
  8
ZUWAKU
  6
CONTINUOUS
 62
     6
 10
634.7632338422051
 20
-542.8024874085735
 30
0.0
 11
634.12019428733
 21
-542.9539085114851
 31
0.0
  0
LINE
  5
2AD
  8
ZUWAKU
  6
CONTINUOUS
 62
     6
 10
634.12019428733
 20
-542.9539085114851
 30
0.0
 11
633.5046802982721
 21
-543.1477840675146
 31
0.0
  0
LINE
  5
2AE
  8
ZUWAKU
  6
CONTINUOUS
 62
     6
 10
633.5046802982721
 20
-543.1477840675146
 30
0.0
 11
632.9213214739699
 21
-543.3827775832054
 31
0.0
  0
LINE
  5
2AF
  8
ZUWAKU
  6
CONTINUOUS
 62
     6
 10
632.9213214739699
 20
-543.3827775832054
 30
0.0
 11
632.3745302274925
 21
-543.6572631994462
 31
0.0
  0
LINE
  5
2B0
  8
ZUWAKU
  6
CONTINUOUS
 62
     6
 10
632.3745302274925
 20
-543.6572631994462
 30
0.0
 11
631.8684793778071
 21
-543.9693330208723
 31
0.0
  0
LINE
  5
2B1
  8
ZUWAKU
  6
CONTINUOUS
 62
     6
 10
631.8684793778071
 20
-543.9693330208723
 30
0.0
 11
631.4070825698797
 21
-544.316801091671
 31
0.0
  0
LINE
  5
2B2
  8
ZUWAKU
  6
CONTINUOUS
 62
     6
 10
631.4070825698797
 20
-544.316801091671
 30
0.0
 11
630.9939752140577
 21
-544.6972021946607
 31
0.0
  0
LINE
  5
2B3
  8
ZUWAKU
  6
CONTINUOUS
 62
     6
 10
630.9939752140577
 20
-544.6972021946607
 30
0.0
 11
630.571786110651
 21
-545.1767360833168
 31
0.0
  0
LINE
  5
2B4
  8
ZUWAKU
  6
CONTINUOUS
 62
     6
 10
629.8447878952808
 20
-546.6470336629412
 30
0.0
 11
629.7567935885369
 21
-546.9864685991528
 31
0.0
  0
LINE
  5
2B5
  8
ZUWAKU
  6
CONTINUOUS
 62
     6
 10
629.7567935885369
 20
-546.9864685991528
 30
0.0
 11
629.6899603509015
 21
-547.4964070219979
 31
0.0
  0
LINE
  5
2B6
  8
ZUWAKU
  6
CONTINUOUS
 62
     6
 10
629.6899603509015
 20
-547.4964070219979
 30
0.0
 11
629.6858649238171
 21
-548.0142047630474
 31
0.0
  0
LINE
  5
2B7
  8
ZUWAKU
  6
CONTINUOUS
 62
     6
 10
629.6858649238171
 20
-548.0142047630474
 30
0.0
 11
629.744417554623
 21
-548.5356020919993
 31
0.0
  0
LINE
  5
2B8
  8
ZUWAKU
  6
CONTINUOUS
 62
     6
 10
629.744417554623
 20
-548.5356020919993
 30
0.0
 11
629.8649595509402
 21
-549.056396159271
 31
0.0
  0
LINE
  5
2B9
  8
ZUWAKU
  6
CONTINUOUS
 62
     6
 10
629.8649595509402
 20
-549.056396159271
 30
0.0
 11
630.0463141276774
 21
-549.5724958423765
 31
0.0
  0
LINE
  5
2BA
  8
ZUWAKU
  6
CONTINUOUS
 62
     6
 10
630.0463141276774
 20
-549.5724958423765
 30
0.0
 11
630.2868398368761
 21
-550.0799503426064
 31
0.0
  0
LINE
  5
2BB
  8
ZUWAKU
  6
CONTINUOUS
 62
     6
 10
630.2868398368761
 20
-550.0799503426064
 30
0.0
 11
630.5844756774101
 21
-550.574959414262
 31
0.0
  0
LINE
  5
2BC
  8
ZUWAKU
  6
CONTINUOUS
 62
     6
 10
630.5844756774101
 20
-550.574959414262
 30
0.0
 11
630.9367744421203
 21
-551.0538754990779
 31
0.0
  0
LINE
  5
2BD
  8
ZUWAKU
  6
CONTINUOUS
 62
     6
 10
630.9367744421203
 20
-551.0538754990779
 30
0.0
 11
631.340926336026
 21
-551.5132057369232
 31
0.0
  0
LINE
  5
2BE
  8
ZUWAKU
  6
CONTINUOUS
 62
     6
 10
631.340926336026
 20
-551.5132057369232
 30
0.0
 11
631.7937770989516
 21
-551.9496179925103
 31
0.0
  0
LINE
  5
2BF
  8
ZUWAKU
  6
CONTINUOUS
 62
     6
 10
631.7937770989516
 20
-551.9496179925103
 30
0.0
 11
632.291844670273
 21
-552.3599518764953
 31
0.0
  0
LINE
  5
2C0
  8
ZUWAKU
  6
CONTINUOUS
 62
     6
 10
632.291844670273
 20
-552.3599518764953
 30
0.0
 11
632.8313372198724
 21
-552.7412339354399
 31
0.0
  0
LINE
  5
2C1
  8
ZUWAKU
  6
CONTINUOUS
 62
     6
 10
632.8313372198724
 20
-552.7412339354399
 30
0.0
 11
633.4081740830521
 21
-553.0906955126378
 31
0.0
  0
LINE
  5
2C2
  8
ZUWAKU
  6
CONTINUOUS
 62
     6
 10
633.4081740830521
 20
-553.0906955126378
 30
0.0
 11
634.0180101717311
 21
-553.4057917675312
 31
0.0
  0
LINE
  5
2C3
  8
ZUWAKU
  6
CONTINUOUS
 62
     6
 10
634.0180101717311
 20
-553.4057917675312
 30
0.0
 11
634.6562638382562
 21
-553.6842206017922
 31
0.0
  0
LINE
  5
2C4
  8
ZUWAKU
  6
CONTINUOUS
 62
     6
 10
634.6562638382562
 20
-553.6842206017922
 30
0.0
 11
635.3181478538005
 21
-553.9239405548109
 31
0.0
  0
LINE
  5
2C5
  8
ZUWAKU
  6
CONTINUOUS
 62
     6
 10
635.3181478538005
 20
-553.9239405548109
 30
0.0
 11
635.9987030245235
 21
-554.1231870047799
 31
0.0
  0
LINE
  5
2C6
  8
ZUWAKU
  6
CONTINUOUS
 62
     6
 10
635.9987030245235
 20
-554.1231870047799
 30
0.0
 11
636.6928339230104
 21
-554.2804862183624
 31
0.0
  0
LINE
  5
2C7
  8
ZUWAKU
  6
CONTINUOUS
 62
     6
 10
636.6928339230104
 20
-554.2804862183624
 30
0.0
 11
637.3953462075912
 21
-554.3946669384553
 31
0.0
  0
LINE
  5
2C8
  8
ZUWAKU
  6
CONTINUOUS
 62
     6
 10
637.3953462075912
 20
-554.3946669384553
 30
0.0
 11
638.1009850078987
 21
-554.4648693011044
 31
0.0
  0
LINE
  5
2C9
  8
ZUWAKU
  6
CONTINUOUS
 62
     6
 10
638.1009850078987
 20
-554.4648693011044
 30
0.0
 11
638.8044738556824
 21
-554.4905509473468
 31
0.0
  0
LINE
  5
2CA
  8
ZUWAKU
  6
CONTINUOUS
 62
     6
 10
638.8044738556824
 20
-554.4905509473468
 30
0.0
 11
639.5005536275154
 21
-554.4714902593245
 31
0.0
  0
LINE
  5
2CB
  8
ZUWAKU
  6
CONTINUOUS
 62
     6
 10
639.5005536275154
 20
-554.4714902593245
 30
0.0
 11
640.1840209375147
 21
-554.4077867188774
 31
0.0
  0
LINE
  5
2CC
  8
ZUWAKU
  6
CONTINUOUS
 62
     6
 10
640.1840209375147
 20
-554.4077867188774
 30
0.0
 11
640.8497653747351
 21
-554.2998584789806
 31
0.0
  0
LINE
  5
2CD
  8
ZUWAKU
  6
CONTINUOUS
 62
     6
 10
640.8497653747351
 20
-554.2998584789806
 30
0.0
 11
641.4928049296155
 21
-554.1484373760744
 31
0.0
  0
LINE
  5
2CE
  8
ZUWAKU
  6
CONTINUOUS
 62
     6
 10
641.4928049296155
 20
-554.1484373760744
 30
0.0
 11
642.1083189186708
 21
-553.9545618200394
 31
0.0
  0
LINE
  5
2CF
  8
ZUWAKU
  6
CONTINUOUS
 62
     6
 10
642.1083189186708
 20
-553.9545618200394
 30
0.0
 11
642.6916777429757
 21
-553.7195683043486
 31
0.0
  0
LINE
  5
2D0
  8
ZUWAKU
  6
CONTINUOUS
 62
     6
 10
642.6916777429757
 20
-553.7195683043486
 30
0.0
 11
643.2384689894476
 21
-553.4450826881078
 31
0.0
  0
LINE
  5
2D1
  8
ZUWAKU
  6
CONTINUOUS
 62
     6
 10
643.2384689894476
 20
-553.4450826881078
 30
0.0
 11
643.744519839133
 21
-553.1330128666872
 31
0.0
  0
LINE
  5
2D2
  8
ZUWAKU
  6
CONTINUOUS
 62
     6
 10
643.744519839133
 20
-553.1330128666872
 30
0.0
 11
644.2059166470632
 21
-552.7855447958831
 31
0.0
  0
LINE
  5
2D3
  8
ZUWAKU
  6
CONTINUOUS
 62
     6
 10
644.2059166470632
 20
-552.7855447958831
 30
0.0
 11
644.6190240028824
 21
-552.4051436928934
 31
0.0
  0
LINE
  5
2D4
  8
ZUWAKU
  6
CONTINUOUS
 62
     6
 10
644.6190240028824
 20
-552.4051436928934
 30
0.0
 11
644.676148857077
 21
-552.3402597268017
 31
0.0
  0
ARC
  5
2D5
  8
ZUWAKU
  6
CONTINUOUS
 62
     6
 10
648.1329788369544
 20
-553.4158066242493
 30
0.0
 40
0.2342892007321535
 50
248.9511701848124
 51
45.0000000000002
  0
LINE
  5
2D6
  8
ZUWAKU
  6
CONTINUOUS
 62
     6
 10
645.7087688619091
 20
-550.6602616840104
 30
0.0
 11
645.7271460318558
 21
-550.6137201323585
 31
0.0
  0
LINE
  5
2D7
  8
ZUWAKU
  6
CONTINUOUS
 62
     6
 10
645.7271460318558
 20
-550.6137201323585
 30
0.0
 11
645.8562056284032
 21
-550.1158772884013
 31
0.0
  0
LINE
  5
2D8
  8
ZUWAKU
  6
CONTINUOUS
 62
     6
 10
645.8562056284032
 20
-550.1158772884013
 30
0.0
 11
645.9230388660413
 21
-549.6059388655561
 31
0.0
  0
LINE
  5
2D9
  8
ZUWAKU
  6
CONTINUOUS
 62
     6
 10
645.9271342931257
 20
-549.0881411245122
 30
0.0
 11
645.8685816623171
 21
-548.5667437955548
 31
0.0
  0
LINE
  5
2DA
  8
ZUWAKU
  6
CONTINUOUS
 62
     6
 10
645.8685816623171
 20
-548.5667437955548
 30
0.0
 11
645.748039666
 21
-548.0459497282831
 31
0.0
  0
LINE
  5
2DB
  8
ZUWAKU
  6
CONTINUOUS
 62
     6
 10
645.748039666
 20
-548.0459497282831
 30
0.0
 11
645.579915860582
 21
-547.567502234648
 31
0.0
  0
LINE
  5
2DC
  8
ZUWAKU
  6
CONTINUOUS
 62
     6
 10
630.003588358201
 20
-545.9088793852628
 30
0.0
 11
630.1564659301708
 21
-545.9677131226293
 31
0.0
  0
LINE
  5
2DD
  8
ZUWAKU
  6
CONTINUOUS
 62
     6
 10
630.1564659301708
 20
-545.9677131226293
 30
0.0
 11
630.1849418692442
 21
-545.9150643148336
 31
0.0
  0
LINE
  5
2DE
  8
ZUWAKU
  6
CONTINUOUS
 62
     6
 10
630.1849418692442
 20
-545.9150643148336
 30
0.0
 11
630.003588358201
 21
-545.9088793852628
 31
0.0
  0
LINE
  5
2DF
  8
ZUWAKU
  6
CONTINUOUS
 62
     6
 10
630.5776193371418
 20
-546.928341297213
 30
0.0
 11
630.5238957466114
 21
-547.1355781537844
 31
0.0
  0
LINE
  5
2E0
  8
ZUWAKU
  6
CONTINUOUS
 62
     6
 10
630.5238957466114
 20
-547.1355781537844
 30
0.0
 11
630.4654019352926
 21
-547.5818866515405
 31
0.0
  0
LINE
  5
2E1
  8
ZUWAKU
  6
CONTINUOUS
 62
     6
 10
630.4654019352926
 20
-547.5818866515405
 30
0.0
 11
630.4618122640383
 21
-548.0357400906017
 31
0.0
  0
LINE
  5
2E2
  8
ZUWAKU
  6
CONTINUOUS
 62
     6
 10
630.4618122640383
 20
-548.0357400906017
 30
0.0
 11
630.5132749737528
 21
-548.4940033490788
 31
0.0
  0
LINE
  5
2E3
  8
ZUWAKU
  6
CONTINUOUS
 62
     6
 10
630.5132749737528
 20
-548.4940033490788
 30
0.0
 11
630.6196114736427
 21
-548.9534234679544
 31
0.0
  0
LINE
  5
2E4
  8
ZUWAKU
  6
CONTINUOUS
 62
     6
 10
630.6196114736427
 20
-548.9534234679544
 30
0.0
 11
630.780271866454
 21
-549.4106315478933
 31
0.0
  0
LINE
  5
2E5
  8
ZUWAKU
  6
CONTINUOUS
 62
     6
 10
630.780271866454
 20
-549.4106315478933
 30
0.0
 11
630.9942946597108
 21
-549.8621709278253
 31
0.0
  0
LINE
  5
2E6
  8
ZUWAKU
  6
CONTINUOUS
 62
     6
 10
630.9942946597108
 20
-549.8621709278253
 30
0.0
 11
631.2602814659673
 21
-550.3045433309675
 31
0.0
  0
LINE
  5
2E7
  8
ZUWAKU
  6
CONTINUOUS
 62
     6
 10
631.2602814659673
 20
-550.3045433309675
 30
0.0
 11
631.5763899837217
 21
-550.7342622765485
 31
0.0
  0
LINE
  5
2E8
  8
ZUWAKU
  6
CONTINUOUS
 62
     6
 10
631.5763899837217
 20
-550.7342622765485
 30
0.0
 11
631.9403430249364
 21
-551.1479053634797
 31
0.0
  0
LINE
  5
2E9
  8
ZUWAKU
  6
CONTINUOUS
 62
     6
 10
631.9403430249364
 20
-551.1479053634797
 30
0.0
 11
632.3494491074367
 21
-551.5421608729179
 31
0.0
  0
LINE
  5
2EA
  8
ZUWAKU
  6
CONTINUOUS
 62
     6
 10
632.3494491074367
 20
-551.5421608729179
 30
0.0
 11
632.80063027979
 21
-551.9138673109522
 31
0.0
  0
LINE
  5
2EB
  8
ZUWAKU
  6
CONTINUOUS
 62
     6
 10
632.80063027979
 20
-551.9138673109522
 30
0.0
 11
633.2904540160049
 21
-552.2600463319617
 31
0.0
  0
LINE
  5
2EC
  8
ZUWAKU
  6
CONTINUOUS
 62
     6
 10
633.2904540160049
 20
-552.2600463319617
 30
0.0
 11
633.8151672623204
 21
-552.577930174581
 31
0.0
  0
LINE
  5
2ED
  8
ZUWAKU
  6
CONTINUOUS
 62
     6
 10
633.8151672623204
 20
-552.577930174581
 30
0.0
 11
634.3707316453543
 21
-552.8649847777727
 31
0.0
  0
LINE
  5
2EE
  8
ZUWAKU
  6
CONTINUOUS
 62
     6
 10
634.3707316453543
 20
-552.8649847777727
 30
0.0
 11
634.9528594114805
 21
-553.1189295082371
 31
0.0
  0
LINE
  5
2EF
  8
ZUWAKU
  6
CONTINUOUS
 62
     6
 10
634.9528594114805
 20
-553.1189295082371
 30
0.0
 11
635.5570499499378
 21
-553.3377541423
 31
0.0
  0
LINE
  5
2F0
  8
ZUWAKU
  6
CONTINUOUS
 62
     6
 10
635.5570499499378
 20
-553.3377541423
 30
0.0
 11
636.1786268627326
 21
-553.5197335005963
 31
0.0
  0
LINE
  5
2F1
  8
ZUWAKU
  6
CONTINUOUS
 62
     6
 10
636.1786268627326
 20
-553.5197335005963
 30
0.0
 11
636.8127755658785
 21
-553.6634399578637
 31
0.0
  0
LINE
  5
2F2
  8
ZUWAKU
  6
CONTINUOUS
 62
     6
 10
636.8127755658785
 20
-553.6634399578637
 30
0.0
 11
637.454581391236
 21
-553.7677539362943
 31
0.0
  0
LINE
  5
2F3
  8
ZUWAKU
  6
CONTINUOUS
 62
     6
 10
637.454581391236
 20
-553.7677539362943
 30
0.0
 11
638.0990681366371
 21
-553.8318724232671
 31
0.0
  0
LINE
  5
2F4
  8
ZUWAKU
  6
CONTINUOUS
 62
     6
 10
638.0990681366371
 20
-553.8318724232671
 30
0.0
 11
638.741236999697
 21
-553.8553155149624
 31
0.0
  0
LINE
  5
2F5
  8
ZUWAKU
  6
CONTINUOUS
 62
     6
 10
638.741236999697
 20
-553.8553155149624
 30
0.0
 11
639.3761058361412
 21
-553.8379309603246
 31
0.0
  0
LINE
  5
2F6
  8
ZUWAKU
  6
CONTINUOUS
 62
     6
 10
639.3761058361412
 20
-553.8379309603246
 30
0.0
 11
639.9987487092864
 21
-553.7798966478243
 31
0.0
  0
LINE
  5
2F7
  8
ZUWAKU
  6
CONTINUOUS
 62
     6
 10
639.9987487092864
 20
-553.7798966478243
 30
0.0
 11
640.604335742934
 21
-553.6817209230379
 31
0.0
  0
LINE
  5
2F8
  8
ZUWAKU
  6
CONTINUOUS
 62
     6
 10
640.604335742934
 20
-553.6817209230379
 30
0.0
 11
641.1881733465085
 21
-553.5442405251655
 31
0.0
  0
LINE
  5
2F9
  8
ZUWAKU
  6
CONTINUOUS
 62
     6
 10
641.1881733465085
 20
-553.5442405251655
 30
0.0
 11
641.7457449275022
 21
-553.3686157591695
 31
0.0
  0
LINE
  5
2FA
  8
ZUWAKU
  6
CONTINUOUS
 62
     6
 10
641.7457449275022
 20
-553.3686157591695
 30
0.0
 11
642.272752195328
 21
-553.1563222521567
 31
0.0
  0
LINE
  5
2FB
  8
ZUWAKU
  6
CONTINUOUS
 62
     6
 10
642.272752195328
 20
-553.1563222521567
 30
0.0
 11
642.7651570066452
 21
-552.9091382693317
 31
0.0
  0
LINE
  5
2FC
  8
ZUWAKU
  6
CONTINUOUS
 62
     6
 10
642.7651570066452
 20
-552.9091382693317
 30
0.0
 11
643.2192232709318
 21
-552.6291261359733
 31
0.0
  0
LINE
  5
2FD
  8
ZUWAKU
  6
CONTINUOUS
 62
     6
 10
643.2192232709318
 20
-552.6291261359733
 30
0.0
 11
643.6315575621817
 21
-552.3186059974654
 31
0.0
  0
LINE
  5
2FE
  8
ZUWAKU
  6
CONTINUOUS
 62
     6
 10
643.6315575621817
 20
-552.3186059974654
 30
0.0
 11
643.9222982817579
 21
-552.0508836031462
 31
0.0
  0
LINE
  5
2FF
  8
ZUWAKU
  6
CONTINUOUS
 62
     6
 10
645.1870987456347
 20
-551.699869331302
 30
0.0
 11
645.2873648667315
 21
-551.5568449954375
 31
0.0
  0
LINE
  5
300
  8
ZUWAKU
  6
CONTINUOUS
 62
     6
 10
645.2873648667315
 20
-551.5568449954375
 30
0.0
 11
645.3623195368142
 21
-551.4182622428929
 31
0.0
  0
LINE
  5
301
  8
ZUWAKU
  6
CONTINUOUS
 62
     6
 10
645.3623195368142
 20
-551.4182622428929
 30
0.0
 11
645.928538793874
 21
-551.9844814999527
 31
0.0
  0
LINE
  5
302
  8
ZUWAKU
  6
CONTINUOUS
 62
     6
 10
644.899984748056
 20
-547.8831157489716
 30
0.0
 11
644.9933877432974
 21
-548.1489224195997
 31
0.0
  0
LINE
  5
303
  8
ZUWAKU
  6
CONTINUOUS
 62
     6
 10
644.9933877432974
 20
-548.1489224195997
 30
0.0
 11
645.09972424319
 21
-548.6083425384753
 31
0.0
  0
LINE
  5
304
  8
ZUWAKU
  6
CONTINUOUS
 62
     6
 10
645.09972424319
 20
-548.6083425384753
 30
0.0
 11
645.1511869529046
 21
-549.0666057969578
 31
0.0
  0
LINE
  5
305
  8
ZUWAKU
  6
CONTINUOUS
 62
     6
 10
645.1511869529046
 20
-549.0666057969578
 30
0.0
 11
645.1475972816503
 21
-549.5204592360136
 31
0.0
  0
LINE
  5
306
  8
ZUWAKU
  6
CONTINUOUS
 62
     6
 10
645.1475972816503
 20
-549.5204592360136
 30
0.0
 11
645.0891034703315
 21
-549.9667677337751
 31
0.0
  0
LINE
  5
307
  8
ZUWAKU
  6
CONTINUOUS
 62
     6
 10
645.0891034703315
 20
-549.9667677337751
 30
0.0
 11
645.07390448022
 21
-550.0253973023213
 31
0.0
  0
LINE
  5
308
  8
ZUWAKU
  6
CONTINUOUS
 62
     6
 10
645.07390448022
 20
-550.0253973023213
 30
0.0
 11
643.5556447688729
 21
-548.5071375909796
 31
0.0
  0
LINE
  5
309
  8
ZUWAKU
  6
CONTINUOUS
 62
     6
 10
631.5376521733584
 20
-545.2087771605969
 30
0.0
 11
631.6138535474353
 21
-545.1222255633733
 31
0.0
  0
LINE
  5
30A
  8
ZUWAKU
  6
CONTINUOUS
 62
     6
 10
631.6138535474353
 20
-545.1222255633733
 30
0.0
 11
631.9814416547612
 21
-544.7837398900941
 31
0.0
  0
LINE
  5
30B
  8
ZUWAKU
  6
CONTINUOUS
 62
     6
 10
631.9814416547612
 20
-544.7837398900941
 30
0.0
 11
632.3937759460083
 21
-544.4732197515808
 31
0.0
  0
LINE
  5
30C
  8
ZUWAKU
  6
CONTINUOUS
 62
     6
 10
632.3937759460083
 20
-544.4732197515808
 30
0.0
 11
632.847842210295
 21
-544.1932076182223
 31
0.0
  0
LINE
  5
30D
  8
ZUWAKU
  6
CONTINUOUS
 62
     6
 10
632.847842210295
 20
-544.1932076182223
 30
0.0
 11
633.3402470216148
 21
-543.9460236353974
 31
0.0
  0
LINE
  5
30E
  8
ZUWAKU
  6
CONTINUOUS
 62
     6
 10
633.3402470216148
 20
-543.9460236353974
 30
0.0
 11
633.8672542894407
 21
-543.7337301283845
 31
0.0
  0
LINE
  5
30F
  8
ZUWAKU
  6
CONTINUOUS
 62
     6
 10
633.8672542894407
 20
-543.7337301283845
 30
0.0
 11
634.4248258704343
 21
-543.5581053623886
 31
0.0
  0
LINE
  5
310
  8
ZUWAKU
  6
CONTINUOUS
 62
     6
 10
634.4248258704343
 20
-543.5581053623886
 30
0.0
 11
635.0086634740061
 21
-543.4206249645162
 31
0.0
  0
LINE
  5
311
  8
ZUWAKU
  6
CONTINUOUS
 62
     6
 10
635.0086634740061
 20
-543.4206249645162
 30
0.0
 11
635.6142505076565
 21
-543.3224492397352
 31
0.0
  0
LINE
  5
312
  8
ZUWAKU
  6
CONTINUOUS
 62
     6
 10
635.6142505076565
 20
-543.3224492397352
 30
0.0
 11
636.2368933808017
 21
-543.2644149272295
 31
0.0
  0
LINE
  5
313
  8
ZUWAKU
  6
CONTINUOUS
 62
     6
 10
636.2368933808017
 20
-543.2644149272295
 30
0.0
 11
636.8717622172431
 21
-543.2470303725917
 31
0.0
  0
LINE
  5
314
  8
ZUWAKU
  6
CONTINUOUS
 62
     6
 10
636.8717622172431
 20
-543.2470303725917
 30
0.0
 11
637.5139310803057
 21
-543.2704734642924
 31
0.0
  0
LINE
  5
315
  8
ZUWAKU
  6
CONTINUOUS
 62
     6
 10
637.5139310803057
 20
-543.2704734642924
 30
0.0
 11
638.1584178257041
 21
-543.3345919512598
 31
0.0
  0
LINE
  5
316
  8
ZUWAKU
  6
CONTINUOUS
 62
     6
 10
638.1584178257041
 20
-543.3345919512598
 30
0.0
 11
638.8002236510644
 21
-543.4389059296903
 31
0.0
  0
LINE
  5
317
  8
ZUWAKU
  6
CONTINUOUS
 62
     6
 10
638.8002236510644
 20
-543.4389059296903
 30
0.0
 11
639.4343723542075
 21
-543.5826123869577
 31
0.0
  0
LINE
  5
318
  8
ZUWAKU
  6
CONTINUOUS
 62
     6
 10
639.4343723542075
 20
-543.5826123869577
 30
0.0
 11
640.0559492670051
 21
-543.764591745254
 31
0.0
  0
LINE
  5
319
  8
ZUWAKU
  6
CONTINUOUS
 62
     6
 10
640.0559492670051
 20
-543.764591745254
 30
0.0
 11
640.6601398054623
 21
-543.9834163793224
 31
0.0
  0
LINE
  5
31A
  8
ZUWAKU
  6
CONTINUOUS
 62
     6
 10
640.6601398054623
 20
-543.9834163793224
 30
0.0
 11
641.2422675715858
 21
-544.2373611097868
 31
0.0
  0
LINE
  5
31B
  8
ZUWAKU
  6
CONTINUOUS
 62
     6
 10
641.2422675715858
 20
-544.2373611097868
 30
0.0
 11
641.7978319546197
 21
-544.5244157129731
 31
0.0
  0
LINE
  5
31C
  8
ZUWAKU
  6
CONTINUOUS
 62
     6
 10
641.7978319546197
 20
-544.5244157129731
 30
0.0
 11
642.322545200938
 21
-544.8422995555924
 31
0.0
  0
LINE
  5
31D
  8
ZUWAKU
  6
CONTINUOUS
 62
     6
 10
642.322545200938
 20
-544.8422995555924
 30
0.0
 11
642.8123689371502
 21
-545.1884785766073
 31
0.0
  0
LINE
  5
31E
  8
ZUWAKU
  6
CONTINUOUS
 62
     6
 10
642.8123689371502
 20
-545.1884785766073
 30
0.0
 11
643.2635501095061
 21
-545.5601850146362
 31
0.0
  0
LINE
  5
31F
  8
ZUWAKU
  6
CONTINUOUS
 62
     6
 10
643.2635501095061
 20
-545.5601850146362
 30
0.0
 11
643.3039361082725
 21
-545.5991049994522
 31
0.0
  0
LINE
  5
320
  8
ZUWAKU
  6
CONTINUOUS
 62
     6
 10
634.3248200269451
 20
-544.5334229457716
 30
0.0
 11
634.7095789776791
 21
-544.4428210158734
 31
0.0
  0
LINE
  5
321
  8
ZUWAKU
  6
CONTINUOUS
 62
     6
 10
634.7095789776791
 20
-544.4428210158734
 30
0.0
 11
635.3329456992047
 21
-544.3417629081345
 31
0.0
  0
LINE
  5
322
  8
ZUWAKU
  6
CONTINUOUS
 62
     6
 10
635.3329456992047
 20
-544.3417629081345
 30
0.0
 11
635.9728760030981
 21
-544.2821172961179
 31
0.0
  0
LINE
  5
323
  8
ZUWAKU
  6
CONTINUOUS
 62
     6
 10
635.9728760030981
 20
-544.2821172961179
 30
0.0
 11
636.6245908213219
 21
-544.2642714495181
 31
0.0
  0
LINE
  5
324
  8
ZUWAKU
  6
CONTINUOUS
 62
     6
 10
636.6245908213219
 20
-544.2642714495181
 30
0.0
 11
637.2832244120788
 21
-544.288315604494
 31
0.0
  0
LINE
  5
325
  8
ZUWAKU
  6
CONTINUOUS
 62
     6
 10
637.2832244120788
 20
-544.288315604494
 30
0.0
 11
637.9438590275291
 21
-544.3540406054893
 31
0.0
  0
LINE
  5
326
  8
ZUWAKU
  6
CONTINUOUS
 62
     6
 10
637.9438590275291
 20
-544.3540406054893
 30
0.0
 11
638.6015607084443
 21
-544.4609381689683
 31
0.0
  0
LINE
  5
327
  8
ZUWAKU
  6
CONTINUOUS
 62
     6
 10
638.6015607084443
 20
-544.4609381689683
 30
0.0
 11
639.2514156202093
 21
-544.6082038601857
 31
0.0
  0
LINE
  5
328
  8
ZUWAKU
  6
CONTINUOUS
 62
     6
 10
639.2514156202093
 20
-544.6082038601857
 30
0.0
 11
639.5880041667384
 21
-544.7067470435744
 31
0.0
  0
LINE
  5
329
  8
ZUWAKU
  6
CONTINUOUS
 62
     6
 10
644.0642969375555
 20
-546.4057223661952
 30
0.0
 11
644.3527177509756
 21
-546.797802556592
 31
0.0
  0
LINE
  5
32A
  8
ZUWAKU
  6
CONTINUOUS
 62
     6
 10
644.3527177509756
 20
-546.797802556592
 30
0.0
 11
644.5775766314524
 21
-547.1717735994574
 31
0.0
  0
ARC
  5
32B
  8
ZUWAKU
  6
CONTINUOUS
 62
     6
 10
643.3319196807603
 20
-548.4674874835276
 30
0.0
 40
0.6508033353670933
 50
114.8999999999998
 51
225.0
  0
LINE
  5
32C
  8
ZUWAKU
  6
CONTINUOUS
 62
     6
 10
642.8717322291019
 20
-548.9276749351833
 30
0.0
 11
644.8094596763327
 21
-550.8246402299995
 31
0.0
  0
LINE
  5
32D
  8
ZUWAKU
  6
CONTINUOUS
 62
     6
 10
644.8094596763327
 20
-550.8246402299995
 30
0.0
 11
644.5900758446284
 21
-551.2302562540284
 31
0.0
  0
LINE
  5
32E
  8
ZUWAKU
  6
CONTINUOUS
 62
     6
 10
644.5900758446284
 20
-551.2302562540284
 30
0.0
 11
644.4572603143421
 21
-551.4197106061405
 31
0.0
  0
LINE
  5
32F
  8
ZUWAKU
  6
CONTINUOUS
 62
     6
 10
630.8479544248127
 20
-546.1955875333573
 30
0.0
 11
630.9692557075556
 21
-545.9713151080235
 31
0.0
  0
LINE
  5
330
  8
ZUWAKU
  6
CONTINUOUS
 62
     6
 10
642.6930734356862
 20
-548.3433083529166
 30
0.0
 11
642.5046300129349
 21
-549.3127657202116
 31
0.0
  0
ARC
  5
331
  8
ZUWAKU
  6
CONTINUOUS
 62
     6
 10
643.143476258009
 20
-549.4369448508172
 30
0.0
 40
0.6508033353670933
 50
169.0
 51
224.9999999999982
  0
LINE
  5
332
  8
ZUWAKU
  6
CONTINUOUS
 62
     6
 10
642.6832888063533
 20
-549.8971323024783
 30
0.0
 11
643.260670391052
 21
-550.4745138871771
 31
0.0
  0
ARC
  5
333
  8
ZUWAKU
  6
CONTINUOUS
 62
     6
 10
643.0950029084566
 20
-550.6401813697724
 30
0.0
 40
0.2342892007321535
 50
248.9511701848126
 51
44.99999999999822
  0
LINE
  5
334
  8
ZUWAKU
  6
CONTINUOUS
 62
     6
 10
630.571786110651
 20
-545.1767360833168
 30
0.0
 11
626.2107496143504
 21
-545.0320656027983
 31
0.0
  0
ARC
  5
335
  8
ZUWAKU
  6
CONTINUOUS
 62
     6
 10
626.2064341142128
 20
-545.1621547096096
 30
0.0
 40
0.1301606670734187
 50
88.10000000000004
 51
168.999999999998
  0
LINE
  5
336
  8
ZUWAKU
  6
CONTINUOUS
 62
     6
 10
626.078664865198
 20
-545.1373188834917
 30
0.0
 11
625.8861699401501
 21
-546.1276194232054
 31
0.0
  0
ARC
  5
337
  8
ZUWAKU
  6
CONTINUOUS
 62
     6
 10
626.013939189165
 20
-546.1524552493287
 30
0.0
 40
0.1301606670734187
 50
168.999999999998
 51
249.0000000000001
  0
LINE
  5
338
  8
ZUWAKU
  6
CONTINUOUS
 62
     6
 10
625.9672937777929
 20
-546.2739707004097
 30
0.0
 11
629.5636743067986
 21
-547.6544918417934
 31
0.0
  0
ARC
  5
339
  8
ZUWAKU
  6
CONTINUOUS
 62
     6
 10
629.4237380726851
 20
-548.0190381950364
 30
0.0
 40
0.3904820012202561
 50
47.38928590658141
 51
69.00000000000026
  0
ARC
  5
33A
  8
ZUWAKU
  6
CONTINUOUS
 62
     6
 10
626.9674973241059
 20
-545.2915875898929
 30
0.0
 40
0.2342892007321533
 50
88.10000000000034
 51
249.0000000000006
  0
LINE
  5
33B
  8
ZUWAKU
  6
CONTINUOUS
 62
     6
 10
629.8447878952808
 20
-546.6470336629412
 30
0.0
 11
626.8835355836378
 21
-545.5103154018365
 31
0.0
  0
LINE
  5
33C
  8
ZUWAKU
  6
CONTINUOUS
 62
     6
 10
631.5376521733584
 20
-545.2087771605969
 30
0.0
 11
643.3039361082725
 21
-545.5991049994522
 31
0.0
  0
ARC
  5
33D
  8
ZUWAKU
  6
CONTINUOUS
 62
     6
 10
634.4143216710851
 20
-544.9135093161825
 30
0.0
 40
0.3904820012202561
 50
103.2504547662727
 51
268.1000000000001
  0
ARC
  5
33E
  8
ZUWAKU
  6
CONTINUOUS
 62
     6
 10
639.4782880451245
 20
-545.0814983823788
 30
0.0
 40
0.3904820012202561
 50
268.1000000000001
 51
73.68152816059866
  0
ARC
  5
33F
  8
ZUWAKU
  6
CONTINUOUS
 62
     6
 10
644.480212168594
 20
-545.2474292951487
 30
0.0
 40
0.3904820012202561
 50
226.0590228224415
 51
268.1000000000001
  0
LINE
  5
340
  8
ZUWAKU
  6
CONTINUOUS
 62
     6
 10
644.3172959368918
 20
-545.632721607219
 30
0.0
 11
649.1032546462625
 21
-545.7914882093322
 31
0.0
  0
ARC
  5
341
  8
ZUWAKU
  6
CONTINUOUS
 62
     6
 10
649.0989391461248
 20
-545.921577316149
 30
0.0
 40
0.1301606670734187
 50
348.9999999999998
 51
88.10000000000012
  0
LINE
  5
342
  8
ZUWAKU
  6
CONTINUOUS
 62
     6
 10
649.2267083951397
 20
-545.9464131422668
 30
0.0
 11
649.0676701790994
 21
-546.7645938352947
 31
0.0
  0
ARC
  5
343
  8
ZUWAKU
  6
CONTINUOUS
 62
     6
 10
648.9399009300846
 20
-546.7397580091714
 30
0.0
 40
0.1301606670734187
 50
294.9000000000004
 51
348.9999999999997
  0
LINE
  5
344
  8
ZUWAKU
  6
CONTINUOUS
 62
     6
 10
648.9947032324158
 20
-546.8578194631376
 30
0.0
 11
646.096073516084
 21
-548.2033185800868
 31
0.0
  0
ARC
  5
345
  8
ZUWAKU
  6
CONTINUOUS
 62
     6
 10
646.260480423072
 20
-548.5575029419855
 30
0.0
 40
0.3904820012202561
 50
114.9000000000003
 51
186.4074391525501
  0
LINE
  5
346
  8
ZUWAKU
  6
CONTINUOUS
 62
     6
 10
645.579915860582
 20
-547.567502234648
 30
0.0
 11
648.4937907509243
 21
-546.2149265435277
 31
0.0
  0
ARC
  5
347
  8
ZUWAKU
  6
CONTINUOUS
 62
     6
 10
648.3951466067288
 20
-546.0024159263907
 30
0.0
 40
0.2342892007321535
 50
294.9000000000001
 51
88.09999999999762
  0
LINE
  5
348
  8
ZUWAKU
  6
CONTINUOUS
 62
     6
 10
644.899984748056
 20
-547.8831157489716
 30
0.0
 11
643.5556447688729
 21
-548.5071375909796
 31
0.0
  0
LINE
  5
349
  8
ZUWAKU
  6
CONTINUOUS
 62
     6
 10
644.5775766314524
 20
-547.1717735994574
 30
0.0
 11
643.05790816911
 21
-547.877180213702
 31
0.0
  0
LINE
  5
34A
  8
ZUWAKU
  6
CONTINUOUS
 62
     6
 10
630.9692557075556
 20
-545.9713151080235
 30
0.0
 11
644.0642969375555
 21
-546.4057223661952
 31
0.0
  0
LINE
  5
34B
  8
ZUWAKU
  6
CONTINUOUS
 62
     6
 10
635.4408069788657
 20
-547.1451185900354
 30
0.0
 11
642.5700027734098
 21
-547.3816183721814
 31
0.0
  0
LINE
  5
34C
  8
ZUWAKU
  6
CONTINUOUS
 62
     6
 10
644.4572603143421
 20
-551.4197106061405
 30
0.0
 11
630.8479544248127
 21
-546.1955875333573
 31
0.0
  0
LINE
  5
34D
  8
ZUWAKU
  6
CONTINUOUS
 62
     6
 10
643.9222982817579
 20
-552.0508836031462
 30
0.0
 11
630.5776193371418
 21
-546.928341297213
 31
0.0
  0
LINE
  5
34E
  8
ZUWAKU
  6
CONTINUOUS
 62
     6
 10
631.0786884805344
 20
-548.2360512956624
 30
0.0
 11
642.1381672174626
 21
-552.4813874290052
 31
0.0
  0
LINE
  5
34F
  8
ZUWAKU
  6
CONTINUOUS
 62
     6
 10
648.049744375297
 20
-553.6352617150063
 30
0.0
 11
644.676148857077
 21
-552.3402597268017
 31
0.0
  0
LINE
  5
350
  8
ZUWAKU
  6
CONTINUOUS
 62
     6
 10
644.589661494822
 20
-553.4224279141821
 30
0.0
 11
648.5521209506146
 21
-554.9434735895451
 31
0.0
  0
ARC
  5
351
  8
ZUWAKU
  6
CONTINUOUS
 62
     6
 10
630.9387522464209
 20
-548.6005976488999
 30
0.0
 40
0.3904820012202561
 50
69.00000000000045
 51
193.0320838540864
  0
ARC
  5
352
  8
ZUWAKU
  6
CONTINUOUS
 62
     6
 10
635.4278604784582
 20
-547.5353859104747
 30
0.0
 40
0.3904820012202561
 50
88.10000000000004
 51
249.0000000000013
  0
ARC
  5
353
  8
ZUWAKU
  6
CONTINUOUS
 62
     6
 10
641.9982309833491
 20
-552.8459337822482
 30
0.0
 40
0.3904820012202561
 50
291.9409771775832
 51
69.00000000000135
  0
ARC
  5
354
  8
ZUWAKU
  6
CONTINUOUS
 62
     6
 10
642.5570562730023
 20
-547.7718856926207
 30
0.0
 40
0.3904820012202561
 50
318.0853946908567
 51
88.10000000000007
  0
ARC
  5
355
  8
ZUWAKU
  6
CONTINUOUS
 62
     6
 10
644.4497252607113
 20
-553.7869742674196
 30
0.0
 40
0.3904820012202561
 50
68.99999999999984
 51
132.639760324211
  0
LINE
  5
356
  8
ZUWAKU
  6
CONTINUOUS
 62
     6
 10
648.908280680193
 20
-553.911796638988
 30
0.0
 11
648.7265356109988
 21
-554.8467939645874
 31
0.0
  0
ARC
  5
357
  8
ZUWAKU
  6
CONTINUOUS
 62
     6
 10
648.598766361984
 20
-554.8219581384641
 30
0.0
 40
0.1301606670734187
 50
249.0000000000002
 51
348.9999999999995
  0
LINE
  5
358
  8
ZUWAKU
  6
CONTINUOUS
 62
     6
 10
645.1870987456347
 20
-551.699869331302
 30
0.0
 11
645.928538793874
 21
-551.9844814999527
 31
0.0
  0
LINE
  5
359
  8
ZUWAKU
  6
CONTINUOUS
 62
     7
 10
628.6139035092125
 20
-534.3206289541071
 30
0.0
 11
628.8217373979229
 21
-533.2514162872816
 31
0.0
  0
LINE
  5
35A
  8
ZUWAKU
  6
CONTINUOUS
 62
     7
 10
629.717354901332
 20
-533.2514162872816
 30
0.0
 11
628.8217373979229
 21
-533.2514162872816
 31
0.0
  0
LINE
  5
35B
  8
ZUWAKU
  6
CONTINUOUS
 62
     7
 10
629.717354901332
 20
-533.2514162872816
 30
0.0
 11
629.5251850533947
 21
-534.2400444502258
 31
0.0
  0
ARC
  5
35C
  8
ZUWAKU
  6
CONTINUOUS
 62
     7
 10
629.7324707199328
 20
-534.2803367021664
 30
0.0
 40
0.2111653691275167
 50
169.0000000000074
 51
270.0000000000001
  0
LINE
  5
35D
  8
ZUWAKU
  6
CONTINUOUS
 62
     7
 10
629.7324707199328
 20
-534.4915020712928
 30
0.0
 11
631.7911334401048
 21
-534.4915020712928
 31
0.0
  0
LINE
  5
35E
  8
ZUWAKU
  6
CONTINUOUS
 62
     7
 10
631.7911334401048
 20
-534.4915020712928
 30
0.0
 11
631.6161080776416
 21
-535.3919295026557
 31
0.0
  0
LINE
  5
35F
  8
ZUWAKU
  6
CONTINUOUS
 62
     7
 10
629.4753525780085
 20
-535.3919295026557
 30
0.0
 11
631.6161080776416
 21
-535.3919295026557
 31
0.0
  0
ARC
  5
360
  8
ZUWAKU
  6
CONTINUOUS
 62
     7
 10
629.4753525780085
 20
-535.603094871782
 30
0.0
 40
0.2111653691275167
 50
89.99999999999814
 51
168.9999999999999
  0
LINE
  5
361
  8
ZUWAKU
  6
CONTINUOUS
 62
     7
 10
629.2680669114703
 20
-535.5628026198414
 30
0.0
 11
628.578136506651
 21
-539.1121868547001
 31
0.0
  0
LINE
  5
362
  8
ZUWAKU
  6
CONTINUOUS
 62
     7
 10
627.6825190032447
 20
-539.1121868547001
 30
0.0
 11
628.578136506651
 21
-539.1121868547001
 31
0.0
  0
LINE
  5
363
  8
ZUWAKU
  6
CONTINUOUS
 62
     7
 10
627.6825190032447
 20
-539.1121868547001
 30
0.0
 11
628.3567853672881
 21
-535.6433871237226
 31
0.0
  0
ARC
  5
364
  8
ZUWAKU
  6
CONTINUOUS
 62
     7
 10
628.14949970075
 20
-535.603094871782
 30
0.0
 40
0.2111653691275167
 50
349.0000000000003
 51
90.0000000000005
  0
LINE
  5
365
  8
ZUWAKU
  6
CONTINUOUS
 62
     7
 10
628.14949970075
 20
-535.3919295026557
 30
0.0
 11
626.090836980578
 21
-535.3919295026557
 31
0.0
  0
LINE
  5
366
  8
ZUWAKU
  6
CONTINUOUS
 62
     7
 10
626.090836980578
 20
-535.3919295026557
 30
0.0
 11
626.2658623430412
 21
-534.4915020712928
 31
0.0
  0
LINE
  5
367
  8
ZUWAKU
  6
CONTINUOUS
 62
     7
 10
626.2658623430412
 20
-534.4915020712928
 30
0.0
 11
628.4066178426743
 21
-534.4915020712928
 31
0.0
  0
ARC
  5
368
  8
ZUWAKU
  6
CONTINUOUS
 62
     7
 10
628.4066178426743
 20
-534.2803367021664
 30
0.0
 40
0.2111653691275167
 50
270.0000000000001
 51
349.0000000000099
  0
LINE
  5
369
  8
ZUWAKU
  6
CONTINUOUS
 62
     7
 10
626.656376368304
 20
-536.3102945545182
 30
0.0
 11
626.5599022780021
 21
-536.8066107232156
 31
0.0
  0
ARC
  5
36A
  8
ZUWAKU
  6
CONTINUOUS
 62
     7
 10
625.2976216181211
 20
-536.5612482183282
 30
0.0
 40
1.285906381940207
 50
285.6048457891953
 51
348.9999999999995
  0
ARC
  5
36B
  8
ZUWAKU
  6
CONTINUOUS
 62
     7
 10
625.6534452576958
 20
-537.8352492830076
 30
0.0
 40
0.0368517876754118
 50
105.6048457891947
 51
168.9999999999997
  0
LINE
  5
36C
  8
ZUWAKU
  6
CONTINUOUS
 62
     7
 10
625.3701345684491
 20
-539.0996219912853
 30
0.0
 11
625.6172705411542
 21
-537.8282176304241
 31
0.0
  0
ARC
  5
36D
  8
ZUWAKU
  6
CONTINUOUS
 62
     7
 10
624.8413381554352
 20
-536.6387723561514
 30
0.0
 40
2.517023355704698
 50
282.127509556616
 51
348.9999999999987
  0
LINE
  5
36E
  8
ZUWAKU
  6
CONTINUOUS
 62
     7
 10
627.312116702769
 20
-537.1190430539922
 30
0.0
 11
627.4693214861114
 21
-536.3102945545182
 31
0.0
  0
LINE
  5
36F
  8
ZUWAKU
  6
CONTINUOUS
 62
     7
 10
627.4693214861114
 20
-536.3102945545182
 30
0.0
 11
626.656376368304
 21
-536.3102945545182
 31
0.0
  0
LINE
  5
370
  8
ZUWAKU
  6
CONTINUOUS
 62
     7
 10
630.0459441779445
 20
-536.3102945545182
 30
0.0
 11
629.7746815564948
 21
-537.7058197630816
 31
0.0
  0
ARC
  5
371
  8
ZUWAKU
  6
CONTINUOUS
 62
     7
 10
630.8658512663793
 20
-537.9179216686119
 30
0.0
 40
1.111592800488102
 50
168.9999999999999
 51
269.9999999999885
  0
LINE
  5
372
  8
ZUWAKU
  6
CONTINUOUS
 62
     7
 10
630.8658512663793
 20
-539.0295144690957
 30
0.0
 11
630.9090331873482
 21
-539.0295144690957
 31
0.0
  0
LINE
  5
373
  8
ZUWAKU
  6
CONTINUOUS
 62
     7
 10
630.9090331873482
 20
-539.0295144690957
 30
0.0
 11
631.1483380852939
 21
-537.7983974953316
 31
0.0
  0
LINE
  5
374
  8
ZUWAKU
  6
CONTINUOUS
 62
     7
 10
631.1483380852939
 20
-537.7983974953316
 30
0.0
 11
631.0439919470233
 21
-537.7983974953316
 31
0.0
  0
ARC
  5
375
  8
ZUWAKU
  6
CONTINUOUS
 62
     7
 10
631.0439919470233
 20
-537.3392149694031
 30
0.0
 40
0.4591825259304453
 50
168.9999999999997
 51
269.9999999999974
  0
LINE
  5
376
  8
ZUWAKU
  6
CONTINUOUS
 62
     7
 10
630.5932458974054
 20
-537.2515988129384
 30
0.0
 11
630.7762169101503
 21
-536.3102945545182
 31
0.0
  0
LINE
  5
377
  8
ZUWAKU
  6
CONTINUOUS
 62
     7
 10
630.7762169101503
 20
-536.3102945545182
 30
0.0
 11
630.0459441779445
 21
-536.3102945545182
 31
0.0
  0
LINE
  5
378
  8
ZUWAKU
  6
CONTINUOUS
 62
     7
 10
634.4939922366508
 20
-533.4167610584794
 30
0.0
 11
634.4146051080412
 21
-533.825172429781
 31
0.0
  0
ARC
  5
379
  8
ZUWAKU
  6
CONTINUOUS
 62
     7
 10
632.5030967599502
 20
-533.4536128461554
 30
0.0
 40
1.947285466748016
 50
271.0152301125743
 51
349.000000000001
  0
LINE
  5
37A
  8
ZUWAKU
  6
CONTINUOUS
 62
     7
 10
632.2995623322482
 20
-536.6251857222272
 30
0.0
 11
632.5375991161969
 21
-535.4005926294179
 31
0.0
  0
ARC
  5
37B
  8
ZUWAKU
  6
CONTINUOUS
 62
     7
 10
632.0913135251973
 20
-533.4536128461554
 30
0.0
 40
3.178402440512506
 50
273.7567084122492
 51
341.5139853209125
  0
ARC
  5
37C
  8
ZUWAKU
  6
CONTINUOUS
 62
     7
 10
635.3059832891892
 20
-534.5283538589687
 30
0.0
 40
0.2111653691275167
 50
89.9999999999993
 51
161.5139853209126
  0
LINE
  5
37D
  8
ZUWAKU
  6
CONTINUOUS
 62
     7
 10
635.3059832891892
 20
-534.3171884898424
 30
0.0
 11
636.7909915223623
 21
-534.3171884898424
 31
0.0
  0
ARC
  5
37E
  8
ZUWAKU
  6
CONTINUOUS
 62
     7
 10
636.7909915223623
 20
-534.5283538589687
 30
0.0
 40
0.2111653691275167
 50
346.2586933201409
 51
90.00000000000375
  0
ARC
  5
37F
  8
ZUWAKU
  6
CONTINUOUS
 62
     7
 10
632.8559903356551
 20
-533.5660979666794
 30
0.0
 40
4.262112263575349
 50
277.267166461819
 51
346.258693320142
  0
LINE
  5
380
  8
ZUWAKU
  6
CONTINUOUS
 62
     7
 10
633.1552164230385
 20
-539.0282278868275
 30
0.0
 11
633.3951312529131
 21
-537.793973085298
 31
0.0
  0
ARC
  5
381
  8
ZUWAKU
  6
CONTINUOUS
 62
     7
 10
633.0437198302703
 20
-534.1976643165675
 30
0.0
 40
4.83185015253203
 50
271.3222370437007
 51
349.0000000000002
  0
LINE
  5
382
  8
ZUWAKU
  6
CONTINUOUS
 62
     7
 10
637.7867952863431
 20
-535.119624789981
 30
0.0
 11
638.1177984648899
 21
-533.4167610584794
 31
0.0
  0
LINE
  5
383
  8
ZUWAKU
  6
CONTINUOUS
 62
     7
 10
634.4939922366508
 20
-533.4167610584794
 30
0.0
 11
638.1177984648899
 21
-533.4167610584794
 31
0.0
  0
LINE
  5
384
  8
ZUWAKU
  6
CONTINUOUS
 62
     7
 10
644.1528826137616
 20
-533.4167610584794
 30
0.0
 11
639.0409734447036
 21
-533.4167610584794
 31
0.0
  0
LINE
  5
385
  8
ZUWAKU
  6
CONTINUOUS
 62
     7
 10
638.8659480822404
 20
-534.3171884898424
 30
0.0
 11
640.6765936456073
 21
-534.3171884898424
 31
0.0
  0
LINE
  5
386
  8
ZUWAKU
  6
CONTINUOUS
 62
     7
 10
642.0024465228686
 20
-534.3171884898424
 30
0.0
 11
643.9778572512984
 21
-534.3171884898424
 31
0.0
  0
LINE
  5
387
  8
ZUWAKU
  6
CONTINUOUS
 62
     7
 10
640.0177284069265
 20
-538.1290870377383
 30
0.0
 11
638.0423176784967
 21
-538.1290870377383
 31
0.0
  0
LINE
  5
388
  8
ZUWAKU
  6
CONTINUOUS
 62
     7
 10
643.2368992331564
 20
-538.1290870377383
 30
0.0
 11
641.3435812841877
 21
-538.1290870377383
 31
0.0
  0
LINE
  5
389
  8
ZUWAKU
  6
CONTINUOUS
 62
     7
 10
637.8672923160335
 20
-539.0295144690957
 30
0.0
 11
643.0618738706931
 21
-539.0295144690957
 31
0.0
  0
LINE
  5
38A
  8
ZUWAKU
  6
CONTINUOUS
 62
     7
 10
639.0409734447036
 20
-533.4167610584794
 30
0.0
 11
638.8659480822404
 21
-534.3171884898424
 31
0.0
  0
ARC
  5
38B
  8
ZUWAKU
  6
CONTINUOUS
 62
     7
 10
640.6765936456073
 20
-534.5283538589687
 30
0.0
 40
0.2111653691275167
 50
348.9999999999997
 51
90.0000000000051
  0
LINE
  5
38C
  8
ZUWAKU
  6
CONTINUOUS
 62
     7
 10
640.8838793121455
 20
-534.5686461109093
 30
0.0
 11
640.2250140734646
 21
-537.9582139205526
 31
0.0
  0
ARC
  5
38D
  8
ZUWAKU
  6
CONTINUOUS
 62
     7
 10
640.0177284069265
 20
-537.9179216686119
 30
0.0
 40
0.2111653691275167
 50
269.9999999999994
 51
348.9999999999999
  0
LINE
  5
38E
  8
ZUWAKU
  6
CONTINUOUS
 62
     7
 10
638.0423176784967
 20
-538.1290870377383
 30
0.0
 11
637.8672923160335
 21
-539.0295144690957
 31
0.0
  0
LINE
  5
38F
  8
ZUWAKU
  6
CONTINUOUS
 62
     7
 10
643.0618738706931
 20
-539.0295144690957
 30
0.0
 11
643.2368992331564
 21
-538.1290870377383
 31
0.0
  0
ARC
  5
390
  8
ZUWAKU
  6
CONTINUOUS
 62
     7
 10
641.3435812841877
 20
-537.9179216686119
 30
0.0
 40
0.2111653691275167
 50
169.0000000000001
 51
270.0000000000013
  0
LINE
  5
391
  8
ZUWAKU
  6
CONTINUOUS
 62
     7
 10
641.1362956176496
 20
-537.8776294166659
 30
0.0
 11
641.7951608563304
 21
-534.488061607028
 31
0.0
  0
ARC
  5
392
  8
ZUWAKU
  6
CONTINUOUS
 62
     7
 10
642.0024465228686
 20
-534.5283538589687
 30
0.0
 40
0.2111653691275167
 50
90.00000000000001
 51
168.9999999999998
  0
LINE
  5
393
  8
ZUWAKU
  6
CONTINUOUS
 62
     7
 10
643.9778572512984
 20
-534.3171884898424
 30
0.0
 11
644.1528826137616
 21
-533.4167610584794
 31
0.0
  0
LINE
  5
394
  8
ZUWAKU
  6
CONTINUOUS
 62
     7
 10
649.3757731224828
 20
-533.2514162872816
 30
0.0
 11
648.6934882116216
 21
-533.2514162872816
 31
0.0
  0
ARC
  5
395
  8
ZUWAKU
  6
CONTINUOUS
 62
     7
 10
648.6934882116216
 20
-533.2882680749575
 30
0.0
 40
0.0368517876754118
 50
90.00000000000001
 51
151.0614722598196
  0
ARC
  5
396
  8
ZUWAKU
  6
CONTINUOUS
 62
     7
 10
644.207797014517
 20
-530.8080965069242
 30
0.0
 40
5.088836119585112
 50
269.999999999989
 51
331.0614722598194
  0
LINE
  5
397
  8
ZUWAKU
  6
CONTINUOUS
 62
     7
 10
644.207797014517
 20
-535.8969326265127
 30
0.0
 11
643.9629602621213
 21
-535.8969326265127
 31
0.0
  0
LINE
  5
398
  8
ZUWAKU
  6
CONTINUOUS
 62
     7
 10
643.6624365775766
 20
-537.2867103065768
 30
0.0
 11
643.9267855455824
 21
-535.9267527615997
 31
0.0
  0
ARC
  5
399
  8
ZUWAKU
  6
CONTINUOUS
 62
     7
 10
643.9629602621213
 20
-535.9337844141886
 30
0.0
 40
0.0368517876754118
 50
89.99999999998872
 51
168.9999999999997
  0
ARC
  5
39A
  8
ZUWAKU
  6
CONTINUOUS
 62
     7
 10
642.8145588404465
 20
-530.0240134944473
 30
0.0
 40
7.312021720561316
 50
276.6588077484425
 51
292.9187661784221
  0
ARC
  5
39B
  8
ZUWAKU
  6
CONTINUOUS
 62
     7
 10
645.7442808372958
 20
-536.953304439969
 30
0.0
 40
0.2111653691275167
 50
349.0000000000001
 51
112.9187661783919
  0
LINE
  5
39C
  8
ZUWAKU
  6
CONTINUOUS
 62
     7
 10
645.951566503834
 20
-536.9935966919096
 30
0.0
 11
645.5397542930547
 21
-539.1121868547001
 31
0.0
  0
LINE
  5
39D
  8
ZUWAKU
  6
CONTINUOUS
 62
     7
 10
645.5397542930547
 20
-539.1121868547001
 30
0.0
 11
646.435371796461
 21
-539.1121868547001
 31
0.0
  0
LINE
  5
39E
  8
ZUWAKU
  6
CONTINUOUS
 62
     7
 10
646.435371796461
 20
-539.1121868547001
 30
0.0
 11
647.0200661987861
 21
-536.1041949191098
 31
0.0
  0
ARC
  5
39F
  8
ZUWAKU
  6
CONTINUOUS
 62
     7
 10
647.3085053263509
 20
-536.16026180589
 30
0.0
 40
0.2938377547284929
 50
126.2175779738571
 51
169.0
  0
ARC
  5
3A0
  8
ZUWAKU
  6
CONTINUOUS
 62
     7
 10
642.8145588404465
 20
-530.0240134944473
 30
0.0
 40
7.312021720561316
 50
306.2175779738571
 51
333.8078384872959
  0
LINE
  5
3A1
  8
ZUWAKU
  6
CONTINUOUS
 62
     2
 10
709.8098154645327
 20
-536.4196480308514
 30
0.0
 11
710.7393464190359
 21
-531.6376258258937
 31
0.0
  0
LINE
  5
3A2
  8
ZUWAKU
  6
CONTINUOUS
 62
     2
 10
714.7449693613348
 20
-531.6376258258937
 30
0.0
 11
710.7393464190359
 21
-531.6376258258937
 31
0.0
  0
LINE
  5
3A3
  8
ZUWAKU
  6
CONTINUOUS
 62
     2
 10
714.7449693613348
 20
-531.6376258258937
 30
0.0
 11
713.8854953684972
 21
-536.0592362073679
 31
0.0
  0
ARC
  5
3A4
  8
ZUWAKU
  6
CONTINUOUS
 62
     2
 10
714.8125744154518
 20
-536.2394421191096
 30
0.0
 40
0.9444309026766677
 50
169.0000000000074
 51
270.0000000000001
  0
LINE
  5
3A5
  8
ZUWAKU
  6
CONTINUOUS
 62
     2
 10
714.8125744154518
 20
-537.1838730217845
 30
0.0
 11
724.01988288251
 21
-537.1838730217845
 31
0.0
  0
LINE
  5
3A6
  8
ZUWAKU
  6
CONTINUOUS
 62
     2
 10
724.01988288251
 20
-537.1838730217845
 30
0.0
 11
723.2370870966956
 21
-541.2110082253879
 31
0.0
  0
LINE
  5
3A7
  8
ZUWAKU
  6
CONTINUOUS
 62
     2
 10
713.6626210879926
 20
-541.2110082253879
 30
0.0
 11
723.2370870966956
 21
-541.2110082253879
 31
0.0
  0
ARC
  5
3A8
  8
ZUWAKU
  6
CONTINUOUS
 62
     2
 10
713.6626210879926
 20
-542.1554391280628
 30
0.0
 40
0.9444309026766677
 50
89.99999999999814
 51
168.9999999999999
  0
LINE
  5
3A9
  8
ZUWAKU
  6
CONTINUOUS
 62
     2
 10
712.7355420410381
 20
-541.975233216321
 30
0.0
 11
709.6498485975494
 21
-557.8497498130713
 31
0.0
  0
LINE
  5
3AA
  8
ZUWAKU
  6
CONTINUOUS
 62
     2
 10
705.6442256552505
 20
-557.8497498130713
 30
0.0
 11
709.6498485975494
 21
-557.8497498130713
 31
0.0
  0
LINE
  5
3AB
  8
ZUWAKU
  6
CONTINUOUS
 62
     2
 10
705.6442256552505
 20
-557.8497498130713
 30
0.0
 11
708.6598621370736
 21
-542.3356450398045
 31
0.0
  0
ARC
  5
3AC
  8
ZUWAKU
  6
CONTINUOUS
 62
     2
 10
707.732783090119
 20
-542.1554391280628
 30
0.0
 40
0.9444309026766677
 50
349.0000000000003
 51
90.0000000000005
  0
LINE
  5
3AD
  8
ZUWAKU
  6
CONTINUOUS
 62
     2
 10
707.732783090119
 20
-541.2110082253879
 30
0.0
 11
698.525474623058
 21
-541.2110082253879
 31
0.0
  0
LINE
  5
3AE
  8
ZUWAKU
  6
CONTINUOUS
 62
     2
 10
698.525474623058
 20
-541.2110082253879
 30
0.0
 11
699.3082704088752
 21
-537.1838730217845
 31
0.0
  0
LINE
  5
3AF
  8
ZUWAKU
  6
CONTINUOUS
 62
     2
 10
699.3082704088752
 20
-537.1838730217845
 30
0.0
 11
708.8827364175754
 21
-537.1838730217845
 31
0.0
  0
ARC
  5
3B0
  8
ZUWAKU
  6
CONTINUOUS
 62
     2
 10
708.8827364175754
 20
-536.2394421191096
 30
0.0
 40
0.9444309026766677
 50
270.0000000000001
 51
349.0000000000099
  0
LINE
  5
3B1
  8
ZUWAKU
  6
CONTINUOUS
 62
     2
 10
701.0548329011567
 20
-545.318368909095
 30
0.0
 11
700.6233553697534
 21
-547.5381283760693
 31
0.0
  0
ARC
  5
3B2
  8
ZUWAKU
  6
CONTINUOUS
 62
     2
 10
694.9778422443355
 20
-546.4407517895091
 30
0.0
 40
5.751178472451637
 50
285.6048457891953
 51
348.9999999999995
  0
ARC
  5
3B3
  8
ZUWAKU
  6
CONTINUOUS
 62
     2
 10
696.5692530069241
 20
-552.1386840806739
 30
0.0
 40
0.1648185365021713
 50
105.6048457891947
 51
168.9999999999997
  0
LINE
  5
3B4
  8
ZUWAKU
  6
CONTINUOUS
 62
     2
 10
695.3021542819474
 20
-557.7935538310124
 30
0.0
 11
696.407462651157
 21
-552.1072352213054
 31
0.0
  0
ARC
  5
3B5
  8
ZUWAKU
  6
CONTINUOUS
 62
     2
 10
692.9371278775757
 20
-546.7874762158011
 30
0.0
 40
11.25731292829056
 50
282.127509556616
 51
348.9999999999987
  0
LINE
  5
3B6
  8
ZUWAKU
  6
CONTINUOUS
 62
     2
 10
703.9876122605624
 20
-548.9354727862886
 30
0.0
 11
704.6907060303934
 21
-545.318368909095
 31
0.0
  0
LINE
  5
3B7
  8
ZUWAKU
  6
CONTINUOUS
 62
     2
 10
704.6907060303934
 20
-545.318368909095
 30
0.0
 11
701.0548329011567
 21
-545.318368909095
 31
0.0
  0
LINE
  5
3B8
  8
ZUWAKU
  6
CONTINUOUS
 62
     2
 10
716.2145752365991
 20
-545.318368909095
 30
0.0
 11
715.0013611404743
 21
-551.5598143595438
 31
0.0
  0
ARC
  5
3B9
  8
ZUWAKU
  6
CONTINUOUS
 62
     2
 10
719.8815855747048
 20
-552.5084338937307
 30
0.0
 40
4.97156610627714
 50
168.9999999999999
 51
269.9999999999885
  0
LINE
  5
3BA
  8
ZUWAKU
  6
CONTINUOUS
 62
     2
 10
719.8815855747021
 20
-557.480000000009
 30
0.0
 11
720.0747154461865
 21
-557.480000000009
 31
0.0
  0
LINE
  5
3BB
  8
ZUWAKU
  6
CONTINUOUS
 62
     2
 10
720.0747154461865
 20
-557.480000000009
 30
0.0
 11
721.1449995638663
 21
-551.9738655441728
 31
0.0
  0
LINE
  5
3BC
  8
ZUWAKU
  6
CONTINUOUS
 62
     2
 10
721.1449995638663
 20
-551.9738655441728
 30
0.0
 11
720.678314529458
 21
-551.9738655441728
 31
0.0
  0
ARC
  5
3BD
  8
ZUWAKU
  6
CONTINUOUS
 62
     2
 10
720.678314529458
 20
-549.9201852023165
 30
0.0
 40
2.053680341855507
 50
168.9999999999997
 51
269.9999999999974
  0
LINE
  5
3BE
  8
ZUWAKU
  6
CONTINUOUS
 62
     2
 10
718.6623660797818
 20
-549.528324519459
 30
0.0
 11
719.4806985527789
 21
-545.318368909095
 31
0.0
  0
LINE
  5
3BF
  8
ZUWAKU
  6
CONTINUOUS
 62
     2
 10
719.4806985527789
 20
-545.318368909095
 30
0.0
 11
716.2145752365991
 21
-545.318368909095
 31
0.0
  0
LINE
  5
3C0
  8
ZUWAKU
  6
CONTINUOUS
 62
     2
 10
736.1083393542162
 20
-532.3771254520128
 30
0.0
 11
735.7532827564314
 21
-534.2037332980384
 31
0.0
  0
ARC
  5
3C1
  8
ZUWAKU
  6
CONTINUOUS
 62
     2
 10
727.2041178904224
 20
-532.5419439885139
 30
0.0
 40
8.709176976928543
 50
271.0152301125743
 51
349.000000000001
  0
LINE
  5
3C2
  8
ZUWAKU
  6
CONTINUOUS
 62
     2
 10
726.2938161488332
 20
-546.7267103951784
 30
0.0
 11
727.3584286639584
 21
-541.2497538050305
 31
0.0
  0
ARC
  5
3C3
  8
ZUWAKU
  6
CONTINUOUS
 62
     2
 10
725.3624294842634
 20
-532.5419439885139
 30
0.0
 40
14.21531143276747
 50
273.7567084122492
 51
341.5139853209125
  0
ARC
  5
3C4
  8
ZUWAKU
  6
CONTINUOUS
 62
     2
 10
739.7399454546062
 20
-537.3486915582911
 30
0.0
 40
0.9444309026766677
 50
89.9999999999993
 51
161.5139853209126
  0
LINE
  5
3C5
  8
ZUWAKU
  6
CONTINUOUS
 62
     2
 10
739.7399454546062
 20
-536.4042606556108
 30
0.0
 11
746.381601100758
 21
-536.4042606556108
 31
0.0
  0
ARC
  5
3C6
  8
ZUWAKU
  6
CONTINUOUS
 62
     2
 10
746.381601100758
 20
-537.3486915582911
 30
0.0
 40
0.9444309026766677
 50
346.2586933201409
 51
90.00000000000375
  0
ARC
  5
3C7
  8
ZUWAKU
  6
CONTINUOUS
 62
     2
 10
728.7824240285404
 20
-533.0450303816564
 30
0.0
 40
19.06217174259771
 50
277.267166461819
 51
346.258693320142
  0
LINE
  5
3C8
  8
ZUWAKU
  6
CONTINUOUS
 62
     2
 10
730.120703903594
 20
-557.4742457986416
 30
0.0
 11
731.1937159238928
 21
-551.954077500421
 31
0.0
  0
ARC
  5
3C9
  8
ZUWAKU
  6
CONTINUOUS
 62
     2
 10
729.6220386717555
 20
-535.8696923060473
 30
0.0
 40
21.61030769395972
 50
271.3222370437007
 51
349.0000000000002
  0
LINE
  5
3CA
  8
ZUWAKU
  6
CONTINUOUS
 62
     2
 10
750.835304146814
 20
-539.99313340691
 30
0.0
 11
752.315706127481
 21
-532.3771254520128
 31
0.0
  0
LINE
  5
3CB
  8
ZUWAKU
  6
CONTINUOUS
 62
     2
 10
736.1083393542162
 20
-532.3771254520128
 30
0.0
 11
752.315706127481
 21
-532.3771254520128
 31
0.0
  0
LINE
  5
3CC
  8
ZUWAKU
  6
CONTINUOUS
 62
     2
 10
779.3074424808351
 20
-532.3771254520128
 30
0.0
 11
756.4445790724953
 21
-532.3771254520128
 31
0.0
  0
LINE
  5
3CD
  8
ZUWAKU
  6
CONTINUOUS
 62
     2
 10
755.6617832866809
 20
-536.4042606556108
 30
0.0
 11
763.7598423145605
 21
-536.4042606556108
 31
0.0
  0
LINE
  5
3CE
  8
ZUWAKU
  6
CONTINUOUS
 62
     2
 10
769.6896803124368
 20
-536.4042606556108
 30
0.0
 11
778.524646695018
 21
-536.4042606556108
 31
0.0
  0
LINE
  5
3CF
  8
ZUWAKU
  6
CONTINUOUS
 62
     2
 10
760.8130869129477
 20
-553.4528647964111
 30
0.0
 11
751.9781205303666
 21
-553.4528647964111
 31
0.0
  0
LINE
  5
3D0
  8
ZUWAKU
  6
CONTINUOUS
 62
     2
 10
775.2107337517632
 20
-553.4528647964111
 30
0.0
 11
766.7429249108241
 21
-553.4528647964111
 31
0.0
  0
LINE
  5
3D1
  8
ZUWAKU
  6
CONTINUOUS
 62
     2
 10
751.1953247445495
 20
-557.480000000009
 30
0.0
 11
774.4279379659488
 21
-557.480000000009
 31
0.0
  0
LINE
  5
3D2
  8
ZUWAKU
  6
CONTINUOUS
 62
     2
 10
756.4445790724953
 20
-532.3771254520128
 30
0.0
 11
755.6617832866809
 21
-536.4042606556108
 31
0.0
  0
ARC
  5
3D3
  8
ZUWAKU
  6
CONTINUOUS
 62
     2
 10
763.7598423145605
 20
-537.3486915582856
 30
0.0
 40
0.9444309026766677
 50
348.9999999999997
 51
90.0000000000051
  0
LINE
  5
3D4
  8
ZUWAKU
  6
CONTINUOUS
 62
     2
 10
764.686921361515
 20
-537.5288974700328
 30
0.0
 11
761.740165959905
 21
-552.6886398054725
 31
0.0
  0
ARC
  5
3D5
  8
ZUWAKU
  6
CONTINUOUS
 62
     2
 10
760.8130869129477
 20
-552.5084338937307
 30
0.0
 40
0.9444309026766677
 50
269.9999999999994
 51
348.9999999999999
  0
LINE
  5
3D6
  8
ZUWAKU
  6
CONTINUOUS
 62
     2
 10
751.9781205303666
 20
-553.4528647964111
 30
0.0
 11
751.1953247445495
 21
-557.480000000009
 31
0.0
  0
LINE
  5
3D7
  8
ZUWAKU
  6
CONTINUOUS
 62
     2
 10
774.4279379659488
 20
-557.480000000009
 30
0.0
 11
775.2107337517632
 21
-553.4528647964111
 31
0.0
  0
ARC
  5
3D8
  8
ZUWAKU
  6
CONTINUOUS
 62
     2
 10
766.7429249108241
 20
-552.5084338937307
 30
0.0
 40
0.9444309026766677
 50
169.0000000000001
 51
270.0000000000013
  0
LINE
  5
3D9
  8
ZUWAKU
  6
CONTINUOUS
 62
     2
 10
765.8158458638695
 20
-552.328227981989
 30
0.0
 11
768.7626012654796
 21
-537.1684856465439
 31
0.0
  0
ARC
  5
3DA
  8
ZUWAKU
  6
CONTINUOUS
 62
     2
 10
769.6896803124368
 20
-537.3486915582911
 30
0.0
 40
0.9444309026766677
 50
90.00000000000001
 51
168.9999999999998
  0
LINE
  5
3DB
  8
ZUWAKU
  6
CONTINUOUS
 62
     2
 10
778.524646695018
 20
-536.4042606556108
 30
0.0
 11
779.3074424808351
 21
-532.3771254520128
 31
0.0
  0
LINE
  5
3DC
  8
ZUWAKU
  6
CONTINUOUS
 62
     2
 10
802.6666666666611
 20
-531.6376258258937
 30
0.0
 11
799.6151674700391
 21
-531.6376258258937
 31
0.0
  0
ARC
  5
3DD
  8
ZUWAKU
  6
CONTINUOUS
 62
     2
 10
799.6151674700391
 20
-531.8024443623948
 30
0.0
 40
0.1648185365021713
 50
90.00000000000001
 51
151.0614722598196
  0
ARC
  5
3DE
  8
ZUWAKU
  6
CONTINUOUS
 62
     2
 10
779.553045523086
 20
-520.7099499706077
 30
0.0
 40
22.75966987319384
 50
269.999999999989
 51
331.0614722598194
  0
LINE
  5
3DF
  8
ZUWAKU
  6
CONTINUOUS
 62
     2
 10
779.5530455230805
 20
-543.4696198437999
 30
0.0
 11
778.4580203490827
 21
-543.4696198437999
 31
0.0
  0
LINE
  5
3E0
  8
ZUWAKU
  6
CONTINUOUS
 62
     2
 10
777.1139370088799
 20
-549.6853596420664
 30
0.0
 11
778.2962299933156
 21
-543.6029895209325
 31
0.0
  0
ARC
  5
3E1
  8
ZUWAKU
  6
CONTINUOUS
 62
     2
 10
778.4580203490827
 20
-543.634438380301
 30
0.0
 40
0.1648185365021713
 50
89.99999999998872
 51
168.9999999999997
  0
ARC
  5
3E2
  8
ZUWAKU
  6
CONTINUOUS
 62
     2
 10
773.321828767143
 20
-517.203161758573
 30
0.0
 40
32.70280208574811
 50
276.6588077484425
 51
292.9187661784221
  0
ARC
  5
3E3
  8
ZUWAKU
  6
CONTINUOUS
 62
     2
 10
786.4249242297578
 20
-548.1942117097282
 30
0.0
 40
0.9444309026766677
 50
349.0000000000001
 51
112.9187661783919
  0
LINE
  5
3E4
  8
ZUWAKU
  6
CONTINUOUS
 62
     2
 10
787.3520032767151
 20
-548.3744176214699
 30
0.0
 11
785.5101852761286
 21
-557.8497498130713
 31
0.0
  0
LINE
  5
3E5
  8
ZUWAKU
  6
CONTINUOUS
 62
     2
 10
785.5101852761286
 20
-557.8497498130713
 30
0.0
 11
789.5158082184275
 21
-557.8497498130713
 31
0.0
  0
LINE
  5
3E6
  8
ZUWAKU
  6
CONTINUOUS
 62
     2
 10
789.5158082184275
 20
-557.8497498130713
 30
0.0
 11
792.1308367359247
 21
-544.3965943514944
 31
0.0
  0
ARC
  5
3E7
  8
ZUWAKU
  6
CONTINUOUS
 62
     2
 10
793.4208722504559
 20
-544.647351853608
 30
0.0
 40
1.314180715736281
 50
126.2175779738571
 51
169.0
  0
ARC
  5
3E8
  8
ZUWAKU
  6
CONTINUOUS
 62
     2
 10
773.321828767143
 20
-517.203161758573
 30
0.0
 40
32.70280208574811
 50
306.2175779738571
 51
333.8078384872959
  0
LINE
  5
3E9
  8
ZUWAKU
  6
CONTINUOUS
 62
     5
 10
-756.0000000000043
 20
-566.0000000000091
 30
0.0
 11
-756.0000000000043
 21
555.6666666666574
 31
0.0
  0
LINE
  5
3EA
  8
ZUWAKU
  6
CONTINUOUS
 62
     5
 10
-756.0000000000043
 20
555.6666666666574
 30
0.0
 11
808.666666666662
 21
555.666666666658
 31
0.0
  0
LINE
  5
3EB
  8
ZUWAKU
  6
CONTINUOUS
 62
     5
 10
808.666666666662
 20
555.666666666658
 30
0.0
 11
808.666666666662
 21
-566.0000000000085
 31
0.0
  0
LINE
  5
3EC
  8
ZUWAKU
  6
CONTINUOUS
 62
     5
 10
808.666666666662
 20
-566.0000000000085
 30
0.0
 11
-756.0000000000043
 21
-566.0000000000091
 31
0.0
  0
LINE
  5
3ED
  8
LAYER0001
  6
CONTINUOUS
 62
     3
 10
-618.1213037079432
 20
-188.4022607495629
 30
0.0
 11
-438.1213037079434
 21
-188.4022607495629
 31
0.0
  0
LINE
  5
3EE
  8
LAYER0001
  6
CONTINUOUS
 62
     3
 10
-618.1213037079432
 20
-338.4022607495629
 30
0.0
 11
-438.1213037079434
 21
-338.4022607495629
 31
0.0
  0
LINE
  5
3EF
  8
LAYER0001
  6
CENTER
 62
     4
 10
-528.1213037079432
 20
-178.059656794429
 30
0.0
 11
-528.1213037079432
 21
-284.1332379019108
 31
0.0
  0
LINE
  5
3F0
  8
LAYER0001
  6
CONTINUOUS
 62
     2
 10
-519.8713037079432
 20
-188.4022607495629
 30
0.0
 11
-519.8713037079432
 21
-268.4022607495629
 31
0.0
  0
LINE
  5
3F1
  8
LAYER0001
  6
CONTINUOUS
 62
     2
 10
-536.3713037079432
 20
-188.4022607495629
 30
0.0
 11
-536.3713037079432
 21
-268.4022607495629
 31
0.0
  0
LINE
  5
3F2
  8
LAYER0001
  6
CONTINUOUS
 62
     2
 10
-536.3713037079432
 20
-268.4022607495629
 30
0.0
 11
-519.8713037079432
 21
-268.4022607495629
 31
0.0
  0
LINE
  5
3F3
  8
LAYER0001
  6
DIVIDE
 62
     7
 10
-618.1213037079432
 20
-188.4022607495629
 30
0.0
 11
-618.1213037079432
 21
-338.4022607495629
 31
0.0
  0
LINE
  5
3F4
  8
LAYER0001
  6
DIVIDE
 62
     7
 10
-438.1213037079434
 20
-188.4022607495629
 30
0.0
 11
-438.1213037079434
 21
-338.4022607495629
 31
0.0
  0
LINE
  5
3F5
  8
0
  6
CENTER
 62
     4
 10
22.79318772952308
 20
417.2767857142852
 30
0.0
 11
535.327560308909
 21
417.2767857142852
 31
0.0
  0
LINE
  5
3F6
  8
0
  6
CENTER
 62
     4
 10
462.043187729524
 20
362.0567060353476
 30
0.0
 11
462.043187729524
 21
475.7136494327777
 31
0.0
  0
ARC
  5
3F7
  8
0
  6
CENTER
 62
     4
 10
22.79318772952308
 20
237.0267857142852
 30
0.0
 40
180.25
 50
90.0
 51
180.0
  0
LINE
  5
3F8
  8
0
  6
CENTER
 62
     4
 10
-124.763919551922
 20
-202.2232142857152
 30
0.0
 11
-196.3722881766809
 21
-202.2232142857152
 31
0.0
  0
LINE
  5
3F9
  8
0
  6
CENTER
 62
     4
 10
-136.6734749862827
 20
-147.2232142857155
 30
0.0
 11
-179.786596182986
 21
-147.2232142857155
 31
0.0
  0
LINE
  5
3FA
  8
0
  6
CENTER
 62
     4
 10
-157.4568122704769
 20
237.0267857142852
 30
0.0
 11
-157.4568122704769
 21
-279.0124392777301
 31
0.0
  0
LINE
  5
3FB
  8
0
  6
CENTER
 62
     4
 10
-136.6734749862827
 20
-257.2232142857155
 30
0.0
 11
-179.786596182986
 21
-257.2232142857155
 31
0.0
  0
LINE
  5
3FC
  8
0
  6
CENTER
 62
     4
 10
407.043187729524
 20
438.0601229984794
 30
0.0
 11
407.043187729524
 21
394.947001801776
 31
0.0
  0
LINE
  5
3FD
  8
0
  6
CENTER
 62
     4
 10
517.043187729524
 20
438.0601229984794
 30
0.0
 11
517.043187729524
 21
394.947001801776
 31
0.0
  0
CIRCLE
  5
3FE
  8
0
  6
CONTINUOUS
 62
     2
 10
-157.4568122704769
 20
-147.2232142857155
 30
0.0
 40
8.25
  0
CIRCLE
  5
3FF
  8
0
  6
CONTINUOUS
 62
     2
 10
-157.4568122704769
 20
-257.2232142857155
 30
0.0
 40
8.25
  0
CIRCLE
  5
400
  8
0
  6
CONTINUOUS
 62
     2
 10
407.043187729524
 20
417.2767857142852
 30
0.0
 40
8.25
  0
CIRCLE
  5
401
  8
0
  6
CONTINUOUS
 62
     2
 10
517.043187729524
 20
417.2767857142852
 30
0.0
 40
8.25
  0
INSERT
  5
402
  8
0
  6
CONTINUOUS
  2
DC_GROUP_1
 10
0.0
 20
0.0
 30
0.0
  0
DIMENSION
  5
403
  8
LAYER0001
  6
CONTINUOUS
  2
*D2
 10
-685.8980830607239
 20
-188.4022607495629
 30
0.0
 11
-685.8980830607239
 21
-228.4022607495629
 31
0.0
 70
   160
  1
<>以上
  3
DC_ROTATED
 13
-540.3713037079432
 23
-268.4022607495629
 33
0.0
 14
-622.1213037079432
 24
-188.4022607495629
 34
0.0
 50
90.0
1001
ACAD
1000
DSTYLE
1002
{
1070
     7
1000
OPEN30
1070
     6
1000
OPEN30
1070
   274
1070
     4
1070
    41
1040
12.00090408325195
1070
    79
1070
     2
1070
   176
1070
     4
1070
   177
1070
     4
1070
   178
1070
     4
1070
   271
1070
     1
1070
    44
1040
8.0
1070
    42
1040
4.0
1070
   147
1040
8.0
1070
   173
1070
     1
1070
    77
1070
     3
1070
    73
1070
     0
1070
   172
1070
     1
1070
    74
1070
     0
1070
   283
1070
     0
1070
   340
1005
C8
1070
   140
1040
20.0
1070
   284
1070
     8
1070
   288
1070
     1
1070
    78
1070
     8
1070
    90
1070
     1
1002
}
  0
INSERT
  5
405
  8
LAYER0001
  6
CONTINUOUS
  2
DA_IMAGEDIMGROUP_1
 10
0.0
 20
0.0
 30
0.0
  0
DIMENSION
  5
406
  8
LAYER0001
  6
CONTINUOUS
  2
*D4
 10
-161.0725302930302
 20
-154.6386767245242
 30
0.0
 11
-15.51303222665331
 21
-25.65982809478714
 31
0.0
 70
   163
  1
4-φ16.5
  3
DC_DIAM06
 15
-151.835057070848
 25
-141.1851377314273
 35
0.0
 40
0.0
1001
ACAD
1000
DSTYLE
1002
{
1070
     7
1000
OPEN30
1070
     6
1000
OPEN30
1070
   274
1070
     4
1070
    41
1040
12.00090408325195
1070
    79
1070
     2
1070
   176
1070
     4
1070
   177
1070
     4
1070
   178
1070
     4
1070
   271
1070
     1
1070
    44
1040
4.0
1070
    42
1040
4.0
1070
   147
1040
8.0
1070
   173
1070
     1
1070
    77
1070
     2
1070
   283
1070
     0
1070
   340
1005
C8
1070
   140
1040
20.0
1070
   284
1070
     8
1070
   288
1070
     1
1070
    78
1070
     8
1070
    90
1070
     1
1002
}
  0
DIMENSION
  5
408
  8
LAYER0001
  6
CONTINUOUS
  2
*D5
 10
517.043187729524
 20
-373.6093558754357
 30
0.0
 11
179.7931877295235
 21
-373.6093558754357
 31
0.0
 70
   160
  3
DC_ROTATED
 13
-157.4568122704769
 23
-283.0124392777301
 33
0.0
 14
517.043187729524
 24
390.947001801776
 34
0.0
1001
ACAD
1000
DSTYLE
1002
{
1070
     7
1000
OPEN30
1070
     6
1000
OPEN30
1070
   274
1070
     4
1070
    41
1040
12.00090408325195
1070
    79
1070
     2
1070
   176
1070
     4
1070
   177
1070
     4
1070
   178
1070
     4
1070
   271
1070
     1
1070
    44
1040
8.0
1070
    42
1040
4.0
1070
   147
1040
8.0
1070
   173
1070
     1
1070
    77
1070
     3
1070
    73
1070
     0
1070
   172
1070
     1
1070
    74
1070
     0
1070
   283
1070
     0
1070
   340
1005
C8
1070
   140
1040
20.0
1070
   284
1070
     8
1070
   288
1070
     1
1070
    78
1070
     8
1070
    90
1070
     1
1002
}
  0
DIMENSION
  5
409
  8
LAYER0001
  6
CONTINUOUS
  2
*D6
 10
633.0691964285721
 20
417.2767857142852
 30
0.0
 11
633.0691964285721
 21
80.02678571428487
 31
0.0
 70
   160
  3
DC_ROTATED
 13
-132.6734749862827
 23
-257.2232142857155
 33
0.0
 14
539.327560308909
 24
417.2767857142852
 34
0.0
 50
90.0
1001
ACAD
1000
DSTYLE
1002
{
1070
     7
1000
OPEN30
1070
     6
1000
OPEN30
1070
   274
1070
     4
1070
    41
1040
12.00090408325195
1070
    79
1070
     2
1070
   176
1070
     4
1070
   177
1070
     4
1070
   178
1070
     4
1070
   271
1070
     1
1070
    44
1040
8.0
1070
    42
1040
4.0
1070
   147
1040
8.0
1070
   173
1070
     1
1070
    77
1070
     3
1070
    73
1070
     0
1070
   172
1070
     1
1070
    74
1070
     0
1070
   283
1070
     0
1070
   340
1005
C8
1070
   140
1040
20.0
1070
   284
1070
     8
1070
   288
1070
     1
1070
    78
1070
     8
1070
    90
1070
     1
1002
}
  0
DIMENSION
  5
40A
  8
LAYER0001
  6
CONTINUOUS
  2
*D7
 10
-242.5818316734287
 20
-147.2232142857155
 30
0.0
 11
-242.5818316734287
 21
-202.2232142857155
 31
0.0
 70
   160
  3
DC_ROTATED
 13
-183.786596182986
 23
-257.2232142857155
 33
0.0
 14
-183.786596182986
 24
-147.2232142857155
 34
0.0
 50
90.0
1001
ACAD
1000
DSTYLE
1002
{
1070
     7
1000
OPEN30
1070
     6
1000
OPEN30
1070
   274
1070
     4
1070
    41
1040
12.00090408325195
1070
    79
1070
     2
1070
   176
1070
     4
1070
   177
1070
     4
1070
   178
1070
     4
1070
   271
1070
     1
1070
    44
1040
8.0
1070
    42
1040
4.0
1070
   147
1040
8.0
1070
   173
1070
     1
1070
    77
1070
     3
1070
    73
1070
     0
1070
   172
1070
     1
1070
    74
1070
     0
1070
   283
1070
     0
1070
   340
1005
C8
1070
   140
1040
20.0
1070
   284
1070
     8
1070
   288
1070
     1
1070
    78
1070
     8
1070
    90
1070
     1
1002
}
  0
DIMENSION
  5
40B
  8
LAYER0001
  6
CONTINUOUS
  2
*D8
 10
517.043187729524
 20
505.3049679834674
 30
0.0
 11
462.043187729524
 21
505.3049679834674
 31
0.0
 70
   160
  3
DC_ROTATED
 13
407.043187729524
 23
442.0601229984794
 33
0.0
 14
517.043187729524
 24
442.0601229984794
 34
0.0
1001
ACAD
1000
DSTYLE
1002
{
1070
     7
1000
OPEN30
1070
     6
1000
OPEN30
1070
   274
1070
     4
1070
    41
1040
12.00090408325195
1070
    79
1070
     2
1070
   176
1070
     4
1070
   177
1070
     4
1070
   178
1070
     4
1070
   271
1070
     1
1070
    44
1040
7.999999999999943
1070
    42
1040
4.0
1070
   147
1040
7.999999999999943
1070
   173
1070
     1
1070
    77
1070
     3
1070
    73
1070
     0
1070
   172
1070
     1
1070
    74
1070
     0
1070
   283
1070
     0
1070
   340
1005
C8
1070
   140
1040
20.0
1070
   284
1070
     8
1070
   288
1070
     1
1070
    78
1070
     8
1070
    90
1070
     1
1002
}
  0
CIRCLE
  5
40C
  8
0
  6
DIVIDE
 62
     7
 10
-157.4568122704769
 20
-202.2232142857155
 30
0.0
 40
24.3
  0
CIRCLE
  5
40D
  8
0
  6
DIVIDE
 62
     7
 10
462.043187729524
 20
417.2767857142852
 30
0.0
 40
24.3
  0
VIEWPORT
  5
AF
 67
     1
  8
0
 10
26.33333333332894
 20
-5.16666666667561
 30
0.0
 40
4693.999999999999
 41
3365.000000000001
 68
     1
 69
     1
1001
ACAD
1000
MVIEW
1002
{
1070
    16
1010
0.0
1020
0.0
1030
0.0
1020
0.0
1030
0.0
1010
0.0
1020
0.0
1030
1.0
1020
0.0
1030
1.0
1040
0.0
1040
3365.000000000001
1040
26.33333333332894
1040
-5.16666666667561
1040
50.0
1040
0.0
1040
0.0
1070
     0
1070
   100
1070
     0
1070
     3
1070
     0
1070
     0
1070
     0
1070
     0
1040
0.0
1040
0.0
1040
0.0
1040
0.5
1040
0.5
1040
0.0
1040
0.0
1070
     0
1002
{
1002
}
1002
}
  0
ENDSEC
  0
EOF
