  0
SECTION
  2
HEADER
  9
$ACADVER
  1
AC1009
  9
$DWGCODEPAGE
  3
ansi_932
  9
$INSBASE
 10
0.0
 20
0.0
 30
0.0
  9
$EXTMIN
 10
-2906.809056850786
 20
-2109.583333333345
 30
0.0
  9
$EXTMAX
 10
2978.618113701556
 20
2096.666666666657
 30
0.0
  9
$LIMMIN
 10
-1050.0
 20
-742.5
  9
$LIMMAX
 10
1050.0
 20
742.5
  9
$ORTHOMODE
 70
     0
  9
$REGENMODE
 70
     1
  9
$FILLMODE
 70
     1
  9
$QTEXTMODE
 70
     0
  9
$MIRRTEXT
 70
     1
  9
$DRAGMODE
 70
     2
  9
$LTSCALE
 40
1.25
  9
$OSMODE
 70
    37
  9
$ATTMODE
 70
     1
  9
$TEXTSIZE
 40
0.2
  9
$TRACEWID
 40
0.05
  9
$TEXTSTYLE
  7
STANDARD
  9
$CLAYER
  8
0
  9
$CELTYPE
  6
BYLAYER
  9
$CECOLOR
 62
   256
  9
$DIMSCALE
 40
1.0
  9
$DIMASZ
 40
15.00113010406494
  9
$DIMEXO
 40
1.0
  9
$DIMDLI
 40
10.0
  9
$DIMRND
 40
0.0
  9
$DIMDLE
 40
0.0
  9
$DIMEXE
 40
1.0
  9
$DIMTP
 40
0.0
  9
$DIMTM
 40
0.0
  9
$DIMTXT
 40
20.0
  9
$DIMCEN
 40
0.0
  9
$DIMTSZ
 40
0.0
  9
$DIMTOL
 70
     0
  9
$DIMLIM
 70
     0
  9
$DIMTIH
 70
     0
  9
$DIMTOH
 70
     0
  9
$DIMSE1
 70
     0
  9
$DIMSE2
 70
     0
  9
$DIMTAD
 70
     1
  9
$DIMZIN
 70
     8
  9
$DIMBLK
  1

  9
$DIMASO
 70
     1
  9
$DIMSHO
 70
     1
  9
$DIMPOST
  1

  9
$DIMAPOST
  1

  9
$DIMALT
 70
     0
  9
$DIMALTD
 70
     2
  9
$DIMALTF
 40
25.4
  9
$DIMLFAC
 40
1.0
  9
$DIMTOFL
 70
     0
  9
$DIMTVP
 40
0.0
  9
$DIMTIX
 70
     0
  9
$DIMSOXD
 70
     0
  9
$DIMSAH
 70
     0
  9
$DIMBLK1
  1

  9
$DIMBLK2
  1

  9
$DIMSTYLE
  2
STANDARD
  9
$DIMCLRD
 70
     0
  9
$DIMCLRE
 70
     0
  9
$DIMCLRT
 70
     0
  9
$DIMTFAC
 40
0.65
  9
$DIMGAP
 40
0.09
  9
$LUNITS
 70
     2
  9
$LUPREC
 70
     4
  9
$SKETCHINC
 40
0.1
  9
$FILLETRAD
 40
0.5
  9
$AUNITS
 70
     0
  9
$AUPREC
 70
     0
  9
$MENU
  1
.
  9
$ELEVATION
 40
0.0
  9
$PELEVATION
 40
0.0
  9
$THICKNESS
 40
0.0
  9
$LIMCHECK
 70
     0
  9
$CHAMFERA
 40
0.0
  9
$CHAMFERB
 40
0.0
  9
$SKPOLY
 70
     0
  9
$TDCREATE
 40
2459031.55618728
  9
$TDUPDATE
 40
2459031.556187465
  9
$TDINDWG
 40
0.0000000116
  9
$TDUSRTIMER
 40
0.0000000116
  9
$USRTIMER
 70
     1
  9
$ANGBASE
 50
0.0
  9
$ANGDIR
 70
     0
  9
$PDMODE
 70
     0
  9
$PDSIZE
 40
1.0
  9
$PLINEWID
 40
0.0
  9
$COORDS
 70
     1
  9
$SPLFRAME
 70
     0
  9
$SPLINETYPE
 70
     6
  9
$SPLINESEGS
 70
     8
  9
$ATTDIA
 70
     0
  9
$ATTREQ
 70
     1
  9
$HANDLING
 70
     1
  9
$HANDSEED
  5
7AC
  9
$SURFTAB1
 70
     6
  9
$SURFTAB2
 70
     6
  9
$SURFTYPE
 70
     6
  9
$SURFU
 70
     6
  9
$SURFV
 70
     6
  9
$UCSNAME
  2

  9
$UCSORG
 10
0.0
 20
0.0
 30
0.0
  9
$UCSXDIR
 10
1.0
 20
0.0
 30
0.0
  9
$UCSYDIR
 10
0.0
 20
1.0
 30
0.0
  9
$PUCSNAME
  2

  9
$PUCSORG
 10
0.0
 20
0.0
 30
0.0
  9
$PUCSXDIR
 10
1.0
 20
0.0
 30
0.0
  9
$PUCSYDIR
 10
0.0
 20
1.0
 30
0.0
  9
$USERI1
 70
     0
  9
$USERI2
 70
     0
  9
$USERI3
 70
     0
  9
$USERI4
 70
     0
  9
$USERI5
 70
     0
  9
$USERR1
 40
0.0
  9
$USERR2
 40
0.0
  9
$USERR3
 40
0.0
  9
$USERR4
 40
0.0
  9
$USERR5
 40
0.0
  9
$WORLDVIEW
 70
     1
  9
$SHADEDGE
 70
     3
  9
$SHADEDIF
 70
    70
  9
$TILEMODE
 70
     1
  9
$MAXACTVP
 70
    64
  9
$PLIMCHECK
 70
     0
  9
$PEXTMIN
 10
1.000000000000000E+20
 20
1.000000000000000E+20
 30
1.000000000000000E+20
  9
$PEXTMAX
 10
-1.000000000000000E+20
 20
-1.000000000000000E+20
 30
-1.000000000000000E+20
  9
$PLIMMIN
 10
0.0
 20
0.0
  9
$PLIMMAX
 10
12.0
 20
9.0
  9
$UNITMODE
 70
     0
  9
$VISRETAIN
 70
     0
  9
$PLINEGEN
 70
     1
  9
$PSLTSCALE
 70
     0
  0
ENDSEC
  0
SECTION
  2
TABLES
  0
TABLE
  2
VPORT
 70
     1
  0
VPORT
  2
*ACTIVE
 70
     0
 10
0.0
 20
0.0
 11
1.0
 21
1.0
 12
42.50452842538482
 22
-6.458333333344399
 13
0.0
 23
0.0
 14
0.5
 24
0.5
 15
0.5
 25
0.5
 16
0.0
 26
0.0
 36
1.0
 17
0.0
 27
0.0
 37
0.0
 40
1430.125000000001
 41
1.408624587352711
 42
50.0
 43
0.0
 44
0.0
 50
0.0
 51
0.0
 71
     0
 72
  1000
 73
     1
 74
     1
 75
     0
 76
     0
 77
     0
 78
     0
  0
ENDTAB
  0
TABLE
  2
LTYPE
 70
    67
  0
LTYPE
  2
CONTINUOUS
 70
     0
  3
Solid line
 72
    65
 73
     0
 40
0.0
  0
LTYPE
  2
HIDDENX2
 70
     0
  3
Hidden (2x) ____ ____ ____ ____ ____ ____ ____ 
 72
    65
 73
     2
 40
19.05
 49
12.7
 49
-6.35
  0
LTYPE
  2
HIDDEN
 70
     0
  3
Hidden __ __ __ __ __ __ __ __ __ __ __ __ __ __
 72
    65
 73
     2
 40
9.524999999999999
 49
6.35
 49
-3.175
  0
LTYPE
  2
HIDDEN2
 70
     0
  3
Hidden (.5x) _ _ _ _ _ _ _ _ _ _ _ _ _ _ _ _ _ 
 72
    65
 73
     2
 40
4.762499999999999
 49
3.175
 49
-1.5875
  0
LTYPE
  2
DASHED
 70
     0
  3
Dashed __ __ __ __ __ __ __ __ __ __ __ __ __ _
 72
    65
 73
     2
 40
19.05
 49
12.7
 49
-6.35
  0
LTYPE
  2
DASHED2
 70
     0
  3
Dashed (.5x) _ _ _ _ _ _ _ _ _ _ _ _ _ _ _ _ _ 
 72
    65
 73
     2
 40
9.524999999999999
 49
6.35
 49
-3.175
  0
LTYPE
  2
DASHEDX2
 70
     0
  3
Dashed (2x) ____  ____  ____  ____  ____  ___
 72
    65
 73
     2
 40
38.09999999999999
 49
25.4
 49
-12.7
  0
LTYPE
  2
DOTX2
 70
     0
  3
Dot (2x) .  .  .  .  .  .  .  .  .  .  .  .  .  .
 72
    65
 73
     2
 40
12.7
 49
0.0
 49
-12.7
  0
LTYPE
  2
DOT
 70
     0
  3
Dot . . . . . . . . . . . . . . . . . . . . . . . .
 72
    65
 73
     2
 40
6.35
 49
0.0
 49
-6.35
  0
LTYPE
  2
DOT2
 70
     0
  3
Dot (.5x) ........................................
 72
    65
 73
     2
 40
3.175
 49
0.0
 49
-3.175
  0
LTYPE
  2
CENTERX2
 70
     0
  3
Center (2x) ________  __  ________  __  _____
 72
    65
 73
     4
 40
101.6
 49
63.5
 49
-12.7
 49
12.7
 49
-12.7
  0
LTYPE
  2
CENTER
 70
     0
  3
Center ____ _ ____ _ ____ _ ____ _ ____ _ ____
 72
    65
 73
     4
 40
50.8
 49
31.75
 49
-6.35
 49
6.35
 49
-6.35
  0
LTYPE
  2
CENTER2
 70
     0
  3
Center (.5x) ___ _ ___ _ ___ _ ___ _ ___ _ ___
 72
    65
 73
     4
 40
28.575
 49
19.05
 49
-3.175
 49
3.175
 49
-3.175
  0
LTYPE
  2
DASHDOTX2
 70
     0
  3
Dash dot (2x) ____  .  ____  .  ____  .  ___
 72
    65
 73
     4
 40
50.8
 49
25.4
 49
-12.7
 49
0.0
 49
-12.7
  0
LTYPE
  2
DASHDOT
 70
     0
  3
Dash dot __ . __ . __ . __ . __ . __ . __ . __
 72
    65
 73
     4
 40
25.4
 49
12.7
 49
-6.35
 49
0.0
 49
-6.35
  0
LTYPE
  2
DASHDOT2
 70
     0
  3
Dash dot (.5x) _._._._._._._._._._._._._._._.
 72
    65
 73
     4
 40
12.7
 49
6.35
 49
-3.175
 49
0.0
 49
-3.175
  0
LTYPE
  2
DIVIDEX2
 70
     0
  3
Divide (2x) ________  .  .  ________  .  .  _
 72
    65
 73
     6
 40
63.5
 49
25.4
 49
-12.7
 49
0.0
 49
-12.7
 49
0.0
 49
-12.7
  0
LTYPE
  2
DIVIDE
 70
     0
  3
Divide ____ . . ____ . . ____ . . ____ . . ____
 72
    65
 73
     6
 40
31.75
 49
12.7
 49
-6.35
 49
0.0
 49
-6.35
 49
0.0
 49
-6.35
  0
LTYPE
  2
DIVIDE2
 70
     0
  3
Divide (.5x) __..__..__..__..__..__..__..__.._
 72
    65
 73
     6
 40
15.875
 49
6.35
 49
-3.175
 49
0.0
 49
-3.175
 49
0.0
 49
-3.175
  0
LTYPE
  2
BORDERX2
 70
     0
  3
Border (2x) ____  ____  .  ____  ____  .  ___
 72
    65
 73
     6
 40
88.89999999999999
 49
25.4
 49
-12.7
 49
25.4
 49
-12.7
 49
0.0
 49
-12.7
  0
LTYPE
  2
BORDER
 70
     0
  3
Border __ __ . __ __ . __ __ . __ __ . __ __ .
 72
    65
 73
     6
 40
44.45
 49
12.7
 49
-6.35
 49
12.7
 49
-6.35
 49
0.0
 49
-6.35
  0
LTYPE
  2
BORDER2
 70
     0
  3
Border (.5x) __.__.__.__.__.__.__.__.__.__.__.
 72
    65
 73
     6
 40
22.225
 49
6.35
 49
-3.175
 49
6.35
 49
-3.175
 49
0.0
 49
-3.175
  0
LTYPE
  2
PHANTOMX2
 70
     0
  3
Phantom (2x) ____________    ____    ____   _
 72
    65
 73
     6
 40
127.0
 49
63.5
 49
-12.7
 49
12.7
 49
-12.7
 49
12.7
 49
-12.7
  0
LTYPE
  2
PHANTOM
 70
     0
  3
Phantom ______  __  __  ______  __  __  ______ 
 72
    65
 73
     6
 40
63.5
 49
31.75
 49
-6.35
 49
6.35
 49
-6.35
 49
6.35
 49
-6.35
  0
LTYPE
  2
PHANTOM2
 70
     0
  3
Phantom (.5x) ___ _ _ ___ _ _ ___ _ _ ___ _ _
 72
    65
 73
     6
 40
31.75
 49
15.875
 49
-3.175
 49
3.175
 49
-3.175
 49
3.175
 49
-3.175
  0
LTYPE
  2
ACAD_ISO06W100
 70
     0
  3
ISO long-dash triple-dot ____ ... ____ ... ____
 72
    65
 73
     8
 40
36.0
 49
24.0
 49
-3.0
 49
0.0
 49
-3.0
 49
0.0
 49
-3.0
 49
0.0
 49
-3.0
  0
LTYPE
  2
ACAD_ISO13W100
 70
     0
  3
ISO double-dash double-dot __ __ . . __ __ . . _
 72
    65
 73
     8
 40
36.0
 49
12.0
 49
-3.0
 49
12.0
 49
-3.0
 49
0.0
 49
-3.0
 49
0.0
 49
-3.0
  0
LTYPE
  2
ACAD_ISO14W100
 70
     0
  3
ISO dash triple-dot __ . . . __ . . . __ . . . _
 72
    65
 73
     8
 40
24.0
 49
12.0
 49
-3.0
 49
0.0
 49
-3.0
 49
0.0
 49
-3.0
 49
0.0
 49
-3.0
  0
LTYPE
  2
ACAD_ISO02W100
 70
     0
  3
ISO dash __ __ __ __ __ __ __ __ __ __ __ __ __
 72
    65
 73
     2
 40
15.0
 49
12.0
 49
-3.0
  0
LTYPE
  2
ACAD_ISO03W100
 70
     0
  3
ISO dash space __    __    __    __    __    __
 72
    65
 73
     2
 40
30.0
 49
12.0
 49
-18.0
  0
LTYPE
  2
ACAD_ISO04W100
 70
     0
  3
ISO long-dash dot ____ . ____ . ____ . ____ . _
 72
    65
 73
     4
 40
30.0
 49
24.0
 49
-3.0
 49
0.0
 49
-3.0
  0
LTYPE
  2
ACAD_ISO05W100
 70
     0
  3
ISO long-dash double-dot ____ .. ____ .. ____ . 
 72
    65
 73
     6
 40
33.0
 49
24.0
 49
-3.0
 49
0.0
 49
-3.0
 49
0.0
 49
-3.0
  0
LTYPE
  2
ACAD_ISO07W100
 70
     0
  3
ISO dot . . . . . . . . . . . . . . . . . . . . 
 72
    65
 73
     2
 40
3.0
 49
0.0
 49
-3.0
  0
LTYPE
  2
ACAD_ISO08W100
 70
     0
  3
ISO long-dash short-dash ____ __ ____ __ ____ _
 72
    65
 73
     4
 40
36.0
 49
24.0
 49
-3.0
 49
6.0
 49
-3.0
  0
LTYPE
  2
ACAD_ISO09W100
 70
     0
  3
ISO long-dash double-short-dash ____ __ __ ____
 72
    65
 73
     6
 40
45.0
 49
24.0
 49
-3.0
 49
6.0
 49
-3.0
 49
6.0
 49
-3.0
  0
LTYPE
  2
ACAD_ISO10W100
 70
     0
  3
ISO dash dot __ . __ . __ . __ . __ . __ . __ . 
 72
    65
 73
     4
 40
18.0
 49
12.0
 49
-3.0
 49
0.0
 49
-3.0
  0
LTYPE
  2
ACAD_ISO11W100
 70
     0
  3
ISO double-dash dot __ __ . __ __ . __ __ . __ _
 72
    65
 73
     6
 40
33.0
 49
12.0
 49
-3.0
 49
12.0
 49
-3.0
 49
0.0
 49
-3.0
  0
LTYPE
  2
ACAD_ISO12W100
 70
     0
  3
ISO dash double-dot __ . . __ . . __ . . __ . . 
 72
    65
 73
     6
 40
21.0
 49
12.0
 49
-3.0
 49
0.0
 49
-3.0
 49
0.0
 49
-3.0
  0
LTYPE
  2
ACAD_ISO15W100
 70
     0
  3
ISO double-dash triple-dot __ __ . . . __ __ . .
 72
    65
 73
    10
 40
39.0
 49
12.0
 49
-3.0
 49
12.0
 49
-3.0
 49
0.0
 49
-3.0
 49
0.0
 49
-3.0
 49
0.0
 49
-3.0
  0
LTYPE
  2
JIS_02_0_7
 70
     0
  3
HIDDEN0.75 _ _ _ _ _ _ _ _ _ _ _ _ _ _ _ _ _ 
 72
    65
 73
     2
 40
1.35
 49
0.75
 49
-0.6
  0
LTYPE
  2
JIS_02_1_0
 70
     0
  3
HIDDEN01 _ _ _ _ _ _ _ _ _ _ _ _ _ _ _ _ _ 
 72
    65
 73
     2
 40
2.0
 49
1.0
 49
-1.0
  0
LTYPE
  2
JIS_02_1_2
 70
     0
  3
HIDDEN01.25  _ _ _ _ _ _ _ _ _ _ _ _ _ _ _ _ _ 
 72
    65
 73
     2
 40
2.5
 49
1.25
 49
-1.25
  0
LTYPE
  2
JIS_02_2_0
 70
     0
  3
HIDDEN02 __ __ __ __ __ __ __ __ __ __ __ 
 72
    65
 73
     2
 40
3.0
 49
2.0
 49
-1.0
  0
LTYPE
  2
JIS_02_4_0
 70
     0
  3
HIDDEN04 ____ ____ ____ ____ ____ ____ ____ 
 72
    65
 73
     2
 40
5.5
 49
4.0
 49
-1.5
  0
LTYPE
  2
JIS_08_11
 70
     0
  3
1SASEN11 ___ _ ___ _ ___ _ ___ _ ___ _ ___
 72
    65
 73
     4
 40
12.8
 49
11.0
 49
-0.6
 49
0.6
 49
-0.6
  0
LTYPE
  2
JIS_08_15
 70
     0
  3
1SASEN15 ____ _ ____ _ ____ _ ____ _ ____ 
 72
    65
 73
     4
 40
17.25
 49
15.0
 49
-0.75
 49
0.75
 49
-0.75
  0
LTYPE
  2
JIS_08_25
 70
     0
  3
1SASEN25 ________  __  ________  __  _____
 72
    65
 73
     4
 40
28.0
 49
25.0
 49
-1.125
 49
0.75
 49
-1.125
  0
LTYPE
  2
JIS_08_37
 70
     0
  3
1SASEN37 ________  __  ________  __  _____
 72
    65
 73
     4
 40
40.5
 49
37.5
 49
-1.125
 49
0.75
 49
-1.125
  0
LTYPE
  2
JIS_08_50
 70
     0
  3
1SASEN50 _______________  __  ____________
 72
    65
 73
     4
 40
53.0
 49
50.0
 49
-1.125
 49
0.75
 49
-1.125
  0
LTYPE
  2
JIS_09_08
 70
     0
  3
2SASEN8 __ _ _ __ _ _ __ _ _ __ _ _ __ _ _ 
 72
    65
 73
     6
 40
10.75
 49
8.0
 49
-0.55
 49
0.55
 49
-0.55
 49
0.55
 49
-0.55
  0
LTYPE
  2
JIS_09_15
 70
     0
  3
2SASEN15 ___ _ _ ___ _ _ ___ _ _ ___ _ _ ___ 
 72
    65
 73
     6
 40
18.9
 49
15.0
 49
-0.9
 49
0.6
 49
-0.9
 49
0.6
 49
-0.9
  0
LTYPE
  2
JIS_09_29
 70
     0
  3
2SASEN29 ______　__  __  ______　__  __  ___
 72
    65
 73
     6
 40
34.0
 49
29.0
 49
-1.2
 49
0.7
 49
-1.2
 49
0.7
 49
-1.2
  0
LTYPE
  2
JIS_09_50
 70
     0
  3
2SASEN50 ____________　__  __  _____________
 72
    65
 73
     6
 40
55.0
 49
50.0
 49
-1.2
 49
0.7
 49
-1.2
 49
0.7
 49
-1.2
  0
LTYPE
  2
SXF_破線
 70
     0
  3
02 dashed -- -- -- -- -- --
 72
    65
 73
     2
 40
7.5
 49
6.0
 49
-1.5
  0
LTYPE
  2
SXF_跳び破線
 70
     0
  3
03 dashed_spaced --  --  --  --
 72
    65
 73
     2
 40
12.0
 49
6.0
 49
-6.0
  0
LTYPE
  2
SXF_一点長鎖線
 70
     0
  3
04 long_dashed_dotted ---- . ---- . ----
 72
    65
 73
     4
 40
15.25
 49
12.0
 49
-1.5
 49
0.25
 49
-1.5
  0
LTYPE
  2
SXF_二点長鎖線
 70
     0
  3
05 long_dashed_double-dotted ---- . . ---- 
 72
    65
 73
     6
 40
17.0
 49
12.0
 49
-1.5
 49
0.25
 49
-1.5
 49
0.25
 49
-1.5
  0
LTYPE
  2
SXF_三点長鎖線
 70
     0
  3
06 long_dashed_triplicate-dotted ---- ... ---- 
 72
    65
 73
     8
 40
18.75
 49
12.0
 49
-1.5
 49
0.25
 49
-1.5
 49
0.25
 49
-1.5
 49
0.25
 49
-1.5
  0
LTYPE
  2
SXF_点線
 70
     0
  3
07 dotted . . . . . . . . . . . . 
 72
    65
 73
     2
 40
1.75
 49
0.25
 49
-1.5
  0
LTYPE
  2
SXF_一点鎖線
 70
     0
  3
08 chain ---- - --- - --- - ---
 72
    65
 73
     4
 40
18.5
 49
12.0
 49
-1.5
 49
3.5
 49
-1.5
  0
LTYPE
  2
SXF_二点鎖線
 70
     0
  3
09 chain_double_dash ---- - - ---- - - ----
 72
    65
 73
     6
 40
23.5
 49
12.0
 49
-1.5
 49
3.5
 49
-1.5
 49
3.5
 49
-1.5
  0
LTYPE
  2
SXF_一点短鎖線
 70
     0
  3
10 dashed_dotted -- . -- . -- . --
 72
    65
 73
     4
 40
9.25
 49
6.0
 49
-1.5
 49
0.25
 49
-1.5
  0
LTYPE
  2
SXF_一点二短鎖線
 70
     0
  3
11 double-dashed_dotted -- -- . -- --
 72
    65
 73
     6
 40
16.75
 49
6.0
 49
-1.5
 49
6.0
 49
-1.5
 49
0.25
 49
-1.5
  0
LTYPE
  2
SXF_二点短鎖線
 70
     0
  3
12 dashed_double_dotted -- . . -- . . --
 72
    65
 73
     6
 40
11.0
 49
6.0
 49
-1.5
 49
0.25
 49
-1.5
 49
0.25
 49
-1.5
  0
LTYPE
  2
SXF_二点二短鎖線
 70
     0
  3
13 double-dashed_double-dotted -- -- . . -- --
 72
    65
 73
     8
 40
18.5
 49
6.0
 49
-1.5
 49
6.0
 49
-1.5
 49
0.25
 49
-1.5
 49
0.25
 49
-1.5
  0
LTYPE
  2
SXF_三点短鎖線
 70
     0
  3
14 dashed triplicate-dotted -- . . . -- . . . --
 72
    65
 73
     8
 40
12.75
 49
6.0
 49
-1.5
 49
0.25
 49
-1.5
 49
0.25
 49
-1.5
 49
0.25
 49
-1.5
  0
LTYPE
  2
SXF_三点二短鎖線
 70
     0
  3
15 double-dashed triplicate-dotted -- -- . . . -- -- 
 72
    65
 73
    10
 40
20.25
 49
6.0
 49
-1.5
 49
6.0
 49
-1.5
 49
0.25
 49
-1.5
 49
0.25
 49
-1.5
 49
0.25
 49
-1.5
  0
ENDTAB
  0
TABLE
  2
LAYER
 70
     4
  0
LAYER
  2
0
 70
     0
 62
     7
  6
CONTINUOUS
  0
LAYER
  2
LAYER0001
 70
     0
 62
     7
  6
CONTINUOUS
  0
LAYER
  2
LAYER0006
 70
     0
 62
     7
  6
CONTINUOUS
  0
LAYER
  2
ZUWAKU
 70
     0
 62
     7
  6
CONTINUOUS
  0
ENDTAB
  0
TABLE
  2
STYLE
 70
     2
  0
STYLE
  2
STANDARD
 70
     0
 40
0.0
 41
1.0
 50
0.0
 71
     0
 42
0.2
  3
txt.shx
  4
bigfont.shx
  0
STYLE
  2
DCSTYLE0
 70
     0
 40
0.0
 41
0.8
 50
0.0
 71
     0
 42
0.2
  3
txt.shx
  4
bigfont
  0
ENDTAB
  0
TABLE
  2
VIEW
 70
     0
  0
ENDTAB
  0
TABLE
  2
UCS
 70
     0
  0
ENDTAB
  0
TABLE
  2
APPID
 70
     2
  0
APPID
  2
ACAD
 70
     0
  0
APPID
  2
DAFUSIONOUT
 70
     0
  0
ENDTAB
  0
TABLE
  2
DIMSTYLE
 70
     3
  0
DIMSTYLE
  2
STANDARD
 70
     0
  3

  4

  5

  6

  7

 40
1.0
 41
0.18
 42
0.0625
 43
0.38
 44
0.18
 45
0.0
 46
0.0
 47
0.0
 48
0.0
140
0.18
141
0.09
142
0.0
143
25.4
144
1.0
145
0.0
146
1.0
147
0.09
 71
     0
 72
     0
 73
     1
 74
     1
 75
     0
 76
     0
 77
     0
 78
     0
170
     0
171
     2
172
     0
173
     0
174
     0
175
     0
176
     0
177
     0
178
     0
  0
DIMSTYLE
  2
DC_ROTATED
 70
     0
  3

  4

  5

  6
OPEN30
  7
OPEN30
 40
1.0
 41
15.00113010406494
 42
5.0
 43
0.38
 44
5.0
 45
0.0
 46
0.0
 47
0.0
 48
0.0
140
15.0
141
0.09
142
0.0
143
25.4
144
1.0
145
0.0
146
1.0
147
2.5
 71
     0
 72
     0
 73
     0
 74
     0
 75
     0
 76
     0
 77
     3
 78
     8
170
     0
171
     2
172
     1
173
     1
174
     0
175
     0
176
     4
177
     9
178
     4
  0
DIMSTYLE
  2
DC_RADIAL06
 70
     0
  3

  4

  5

  6
OPEN30
  7
OPEN30
 40
1.0
 41
15.00113010406494
 42
5.0
 43
0.38
 44
5.0
 45
0.0
 46
0.0
 47
0.0
 48
0.0
140
17.5
141
0.09
142
0.0
143
25.4
144
1.0
145
0.0
146
1.0
147
5.0
 71
     0
 72
     0
 73
     1
 74
     1
 75
     0
 76
     0
 77
     2
 78
     8
170
     0
171
     2
172
     0
173
     1
174
     0
175
     0
176
     4
177
     9
178
     4
  0
ENDTAB
  0
ENDSEC
  0
SECTION
  2
BLOCKS
  0
BLOCK
  8
0
  2
$MODEL_SPACE
 70
     0
 10
0.0
 20
0.0
 30
0.0
  3
$MODEL_SPACE
  1

  0
ENDBLK
  5
21
  8
0
  0
BLOCK
 67
     1
  8
0
  2
$PAPER_SPACE
 70
     0
 10
0.0
 20
0.0
 30
0.0
  3
$PAPER_SPACE
  1

  0
ENDBLK
  5
1D
 67
     1
  8
0
  0
BLOCK
  8
0
  2
*D1
 70
     1
 10
0.0
 20
0.0
 30
0.0
  3
*D1
  1

  0
LINE
  5
F9
  8
0
  6
CONTINUOUS
 62
     4
 10
-796.5903426430712
 20
-596.5489396530861
 30
0.0
 11
-651.5903426430712
 21
-596.5489396530861
 31
0.0
  0
INSERT
  5
100
  8
0
 62
     4
  2
_OPEN30
 10
-796.5903426430712
 20
-596.5489396530861
 30
0.0
 41
15.00115266964712
 42
15.00081580252128
 50
180.0
  0
INSERT
  5
101
  8
0
 62
     4
  2
_OPEN30
 10
-651.5903426430712
 20
-596.5489396530861
 30
0.0
 41
15.00115266964712
 42
15.00081580252128
 50
360.0
  0
TEXT
  5
103
  8
0
 62
     4
 10
-742.0903426430712
 20
-594.0489396530861
 30
0.0
 40
15.0
  1
145
 41
0.8842105263157894
  7
DCSTYLE0
 72
     5
 11
-706.0903426430712
 21
-594.0489396530861
 31
0.0
  0
LINE
  5
104
  8
0
  6
CONTINUOUS
 62
     9
 10
-796.5903426430712
 20
-477.5280556754219
 30
0.0
 11
-796.5903426430712
 21
-601.5489396530861
 31
0.0
  0
LINE
  5
105
  8
0
  6
CONTINUOUS
 62
     9
 10
-651.5903426430712
 20
-477.5280556754219
 30
0.0
 11
-651.5903426430712
 21
-601.5489396530861
 31
0.0
  0
ENDBLK
  5
B3
  8
0
  0
BLOCK
  8
0
  2
*D2
 70
     1
 10
0.0
 20
0.0
 30
0.0
  3
*D2
  1

  0
LINE
  5
106
  8
0
  6
CONTINUOUS
 62
     9
 10
-748.3903426430704
 20
58.17194432457836
 30
0.0
 11
-748.3903426430704
 21
293.1328941182046
 31
0.0
  0
LINE
  5
107
  8
0
  6
CONTINUOUS
 62
     9
 10
-60.29034264306824
 20
58.17194432457836
 30
0.0
 11
-60.29034264306824
 21
293.1328941182046
 31
0.0
  0
LINE
  5
108
  8
0
  6
CONTINUOUS
 62
     4
 10
-748.3903426430704
 20
288.1328941182046
 30
0.0
 11
-60.29034264306824
 21
288.1328941182046
 31
0.0
  0
INSERT
  5
109
  8
0
 62
     4
  2
_OPEN30
 10
-748.3903426430704
 20
288.1328941182046
 30
0.0
 41
15.00115266964712
 42
15.00081580252128
 50
180.0
  0
INSERT
  5
10A
  8
0
 62
     4
  2
_OPEN30
 10
-60.29034264306824
 20
288.1328941182046
 30
0.0
 41
15.00115266964712
 42
15.00081580252128
 50
360.0
  0
TEXT
  5
10B
  8
0
 62
    30
 10
-486.8403426430675
 20
293.1328941182046
 30
0.0
 40
25.0
  1
688.1
 41
1.037037037037037
  7
DCSTYLE0
 72
     5
 11
-386.8403426430675
 21
293.1328941182046
 31
0.0
  0
TEXT
  5
10C
  8
0
 62
    30
 10
-381.8403426430675
 20
293.1328941182046
 30
0.0
 40
25.0
  1
　±2
 41
0.8262295081967213
  7
DCSTYLE0
 72
     5
 11
-321.8403426430675
 21
293.1328941182046
 31
0.0
  0
ENDBLK
  5
B6
  8
0
  0
BLOCK
  8
0
  2
*D3
 70
     1
 10
0.0
 20
0.0
 30
0.0
  3
*D3
  1

  0
LINE
  5
10D
  8
0
  6
CONTINUOUS
 62
     9
 10
-229.5903426430712
 20
227.4719443245783
 30
0.0
 11
94.40518590652505
 21
227.4719443245783
 31
0.0
  0
LINE
  5
10E
  8
0
  6
CONTINUOUS
 62
     9
 10
17.30352099673405
 20
-472.5280556754219
 30
0.0
 11
94.40518590652505
 21
-472.5280556754219
 31
0.0
  0
LINE
  5
10F
  8
0
  6
CONTINUOUS
 62
     4
 10
89.40518590652505
 20
-472.5280556754219
 30
0.0
 11
89.40518590652505
 21
227.4719443245783
 31
0.0
  0
INSERT
  5
110
  8
0
 62
     4
  2
_OPEN30
 10
89.40518590652505
 20
-472.5280556754219
 30
0.0
 41
15.00115266964712
 42
15.00081580252128
 50
270.0
  0
INSERT
  5
111
  8
0
 62
     4
  2
_OPEN30
 10
89.40518590652505
 20
227.4719443245783
 30
0.0
 41
15.00115266964712
 42
15.00081580252128
 50
90.0
  0
TEXT
  5
112
  8
0
 62
    30
 10
84.40518590652505
 20
-185.0280556754219
 30
0.0
 40
25.0
  1
700
 50
90.0
 41
0.8842105263157894
  7
DCSTYLE0
 72
     5
 11
84.40518590652505
 21
-125.0280556754219
 31
0.0
  0
TEXT
  5
113
  8
0
 62
    30
 10
84.40518590652505
 20
-120.0280556754219
 30
0.0
 40
25.0
  1
　±1
 50
90.0
 41
0.9163636363636363
  7
DCSTYLE0
 72
     5
 11
84.40518590652505
 21
-60.02805567542191
 31
0.0
  0
ENDBLK
  5
B9
  8
0
  0
BLOCK
  8
0
  2
DC_GROUP_1
 70
     0
 10
0.0
 20
0.0
 30
0.0
  3
DC_GROUP_1
  1

  0
LINE
  5
114
  8
0
  6
CENTER
 62
     7
 10
-669.0903426430712
 20
-440.6515255075997
 30
0.0
 11
-669.0903426430712
 21
-553.9860021099098
 31
0.0
  0
LINE
  5
115
  8
0
  6
CONTINUOUS
 62
     3
 10
-678.5903426430712
 20
-451.0280556754219
 30
0.0
 11
-659.5903426430712
 21
-451.0280556754219
 31
0.0
  0
LINE
  5
116
  8
0
  6
CONTINUOUS
 62
     3
 10
-659.5903426430712
 20
-451.0280556754219
 30
0.0
 11
-659.5903426430712
 21
-461.0280556754219
 31
0.0
  0
LINE
  5
117
  8
0
  6
CONTINUOUS
 62
     3
 10
-678.5903426430712
 20
-461.0280556754219
 30
0.0
 11
-678.5903426430712
 21
-451.0280556754219
 31
0.0
  0
LINE
  5
118
  8
0
  6
CONTINUOUS
 62
     3
 10
-669.0903426430712
 20
-461.0280556754219
 30
0.0
 11
-669.0903426430712
 21
-452.1538887003412
 31
0.0
  0
ARC
  5
119
  8
0
  6
CONTINUOUS
 62
     3
 10
-664.3403426430712
 20
-461.5049582813613
 30
0.0
 40
10.48832695471864
 50
63.07110270695188
 51
116.9288972930481
  0
ARC
  5
11A
  8
0
  6
CONTINUOUS
 62
     3
 10
-673.8403426430712
 20
-461.5049582813613
 30
0.0
 40
10.48832695471864
 50
63.07110270695188
 51
116.9288972930481
  0
LINE
  5
11B
  8
0
  6
CONTINUOUS
 62
     3
 10
-679.8403426430712
 20
-461.0280556754219
 30
0.0
 11
-679.8403426430712
 21
-464.0280556754219
 31
0.0
  0
LINE
  5
11C
  8
0
  6
CONTINUOUS
 62
     3
 10
-658.3403426430712
 20
-464.0280556754219
 30
0.0
 11
-658.3403426430712
 21
-461.0280556754219
 31
0.0
  0
LINE
  5
11D
  8
0
  6
CONTINUOUS
 62
     3
 10
-679.8403426430712
 20
-461.0280556754219
 30
0.0
 11
-658.3403426430712
 21
-461.0280556754219
 31
0.0
  0
LINE
  5
11E
  8
0
  6
CONTINUOUS
 62
     3
 10
-669.0903426430712
 20
-461.0280556754219
 30
0.0
 11
-669.894190220363
 21
-464.0280556754219
 31
0.0
  0
LINE
  5
11F
  8
0
  6
CONTINUOUS
 62
     3
 10
-668.2864950657756
 20
-461.0280556754219
 30
0.0
 11
-669.0903426430712
 21
-464.0280556754219
 31
0.0
  0
LINE
  5
120
  8
0
  6
CONTINUOUS
 62
     3
 10
-685.0903426430712
 20
-464.0280556754219
 30
0.0
 11
-685.0903426430712
 21
-466.5280556754219
 31
0.0
  0
LINE
  5
121
  8
0
  6
CONTINUOUS
 62
     3
 10
-685.0903426430712
 20
-466.5280556754219
 30
0.0
 11
-653.0903426430712
 21
-466.5280556754219
 31
0.0
  0
LINE
  5
122
  8
0
  6
CONTINUOUS
 62
     3
 10
-653.0903426430712
 20
-466.5280556754219
 30
0.0
 11
-653.0903426430712
 21
-464.0280556754219
 31
0.0
  0
LINE
  5
123
  8
0
  6
CONTINUOUS
 62
     3
 10
-685.0903426430712
 20
-464.0280556754219
 30
0.0
 11
-653.0903426430712
 21
-464.0280556754219
 31
0.0
  0
LINE
  5
124
  8
0
  6
CONTINUOUS
 62
     3
 10
-661.0903426430712
 20
-543.1907251652215
 30
0.0
 11
-661.0903426430712
 21
-546.1907251652215
 31
0.0
  0
LINE
  5
125
  8
0
  6
CONTINUOUS
 62
     3
 10
-677.0903426430712
 20
-543.1907251652215
 30
0.0
 11
-677.0903426430712
 21
-546.1907251652215
 31
0.0
  0
LINE
  5
126
  8
0
  6
CONTINUOUS
 62
     3
 10
-675.0903426430712
 20
-531.1907251652215
 30
0.0
 11
-677.0903426430712
 21
-543.1907251652215
 31
0.0
  0
LINE
  5
127
  8
0
  6
CONTINUOUS
 62
     3
 10
-675.0903426430712
 20
-531.1907251652215
 30
0.0
 11
-663.0903426430712
 21
-531.1907251652215
 31
0.0
  0
LINE
  5
128
  8
0
  6
CONTINUOUS
 62
     3
 10
-663.0903426430712
 20
-531.1907251652215
 30
0.0
 11
-661.0903426430712
 21
-543.1907251652215
 31
0.0
  0
LINE
  5
129
  8
0
  6
CONTINUOUS
 62
     3
 10
-677.0903426430712
 20
-546.1907251652215
 30
0.0
 11
-661.0903426430712
 21
-546.1907251652215
 31
0.0
  0
LINE
  5
12A
  8
0
  6
CONTINUOUS
 62
     3
 10
-677.0903426430712
 20
-543.1907251652215
 30
0.0
 11
-661.0903426430712
 21
-543.1907251652215
 31
0.0
  0
LINE
  5
12B
  8
0
  6
CONTINUOUS
 62
     3
 10
-661.0903426430712
 20
-474.1907251652215
 30
0.0
 11
-661.0903426430712
 21
-531.1907251652215
 31
0.0
  0
LINE
  5
12C
  8
0
  6
CONTINUOUS
 62
     3
 10
-677.0903426430712
 20
-474.1907251652215
 30
0.0
 11
-677.0903426430712
 21
-531.1907251652215
 31
0.0
  0
LINE
  5
12D
  8
0
  6
CONTINUOUS
 62
     3
 10
-669.0903426430712
 20
-516.1907251652215
 30
0.0
 11
-666.0903426430712
 21
-511.1907251652215
 31
0.0
  0
LINE
  5
12E
  8
0
  6
CONTINUOUS
 62
     3
 10
-669.0903426430712
 20
-516.1907251652215
 30
0.0
 11
-672.0903426430712
 21
-511.1907251652215
 31
0.0
  0
ARC
  5
12F
  8
0
  6
CONTINUOUS
 62
     3
 10
-669.0903426430712
 20
-511.1907251652215
 30
0.0
 40
3.0
 50
0.0000000000001191
 51
179.9999999999998
  0
LINE
  5
130
  8
0
  6
CONTINUOUS
 62
     3
 10
-677.0903426430712
 20
-474.1907251652215
 30
0.0
 11
-661.0903426430712
 21
-474.1907251652215
 31
0.0
  0
LINE
  5
131
  8
0
  6
CONTINUOUS
 62
     3
 10
-677.0903426430712
 20
-531.1907251652215
 30
0.0
 11
-661.0903426430712
 21
-531.1907251652215
 31
0.0
  0
LINE
  5
132
  8
0
  6
CONTINUOUS
 62
     3
 10
-669.0903426430712
 20
-516.1907251652215
 30
0.0
 11
-669.0903426430712
 21
-531.1907251652215
 31
0.0
  0
INSERT
  5
133
  8
0
  6
CONTINUOUS
  2
DC_GROUP_2
 10
0.0
 20
0.0
 30
0.0
  0
ENDBLK
  5
BC
  8
0
  0
BLOCK
  8
0
  2
DC_GROUP_2
 70
     0
 10
0.0
 20
0.0
 30
0.0
  3
DC_GROUP_2
  1

  0
LINE
  5
134
  8
0
  6
CONTINUOUS
 62
     3
 10
-674.143342643071
 20
-446.1907251652215
 30
0.0
 11
-664.0373426430713
 21
-446.1907251652215
 31
0.0
  0
LINE
  5
135
  8
0
  6
CONTINUOUS
 62
     3
 10
-674.143342643071
 20
-446.1907251652215
 30
0.0
 11
-675.0903426430712
 21
-447.1377251652216
 31
0.0
  0
LINE
  5
136
  8
0
  6
CONTINUOUS
 62
     3
 10
-664.0373426430713
 20
-446.1907251652215
 30
0.0
 11
-663.0903426430712
 21
-447.1377251652216
 31
0.0
  0
LINE
  5
137
  8
0
  6
CONTINUOUS
 62
     3
 10
-675.0903426430712
 20
-447.1377251652216
 30
0.0
 11
-663.0903426430712
 21
-447.1377251652216
 31
0.0
  0
LINE
  5
138
  8
0
  6
CONTINUOUS
 62
     3
 10
-663.0903426430712
 20
-474.1907251652215
 30
0.0
 11
-663.0903426430712
 21
-472.5280556754219
 31
0.0
  0
LINE
  5
139
  8
0
  6
CONTINUOUS
 62
     3
 10
-663.0903426430712
 20
-451.0913852965941
 30
0.0
 11
-663.0903426430712
 21
-447.1377251652216
 31
0.0
  0
LINE
  5
13A
  8
0
  6
CONTINUOUS
 62
     3
 10
-675.0903426430712
 20
-474.1907251652215
 30
0.0
 11
-675.0903426430712
 21
-472.5280556754219
 31
0.0
  0
LINE
  5
13B
  8
0
  6
CONTINUOUS
 62
     3
 10
-675.0903426430712
 20
-451.0913852965941
 30
0.0
 11
-675.0903426430712
 21
-447.1377251652216
 31
0.0
  0
ENDBLK
  5
BF
  8
0
  0
BLOCK
  8
0
  2
DC_GROUP_3
 70
     0
 10
0.0
 20
0.0
 30
0.0
  3
DC_GROUP_3
  1

  0
LINE
  5
13C
  8
0
  6
CENTER
 62
     7
 10
-779.0903426430712
 20
-440.6515255075997
 30
0.0
 11
-779.0903426430712
 21
-553.9860021099098
 31
0.0
  0
LINE
  5
13D
  8
0
  6
CONTINUOUS
 62
     3
 10
-788.5903426430712
 20
-451.0280556754219
 30
0.0
 11
-769.5903426430712
 21
-451.0280556754219
 31
0.0
  0
LINE
  5
13E
  8
0
  6
CONTINUOUS
 62
     3
 10
-769.5903426430712
 20
-451.0280556754219
 30
0.0
 11
-769.5903426430712
 21
-461.0280556754219
 31
0.0
  0
LINE
  5
13F
  8
0
  6
CONTINUOUS
 62
     3
 10
-788.5903426430712
 20
-461.0280556754219
 30
0.0
 11
-788.5903426430712
 21
-451.0280556754219
 31
0.0
  0
LINE
  5
140
  8
0
  6
CONTINUOUS
 62
     3
 10
-779.0903426430712
 20
-461.0280556754219
 30
0.0
 11
-779.0903426430712
 21
-452.1538887003412
 31
0.0
  0
ARC
  5
141
  8
0
  6
CONTINUOUS
 62
     3
 10
-774.3403426430712
 20
-461.5049582813613
 30
0.0
 40
10.48832695471864
 50
63.07110270695188
 51
116.9288972930481
  0
ARC
  5
142
  8
0
  6
CONTINUOUS
 62
     3
 10
-783.8403426430712
 20
-461.5049582813613
 30
0.0
 40
10.48832695471864
 50
63.07110270695188
 51
116.9288972930481
  0
LINE
  5
143
  8
0
  6
CONTINUOUS
 62
     3
 10
-789.8403426430712
 20
-461.0280556754219
 30
0.0
 11
-789.8403426430712
 21
-464.0280556754219
 31
0.0
  0
LINE
  5
144
  8
0
  6
CONTINUOUS
 62
     3
 10
-768.3403426430712
 20
-464.0280556754219
 30
0.0
 11
-768.3403426430712
 21
-461.0280556754219
 31
0.0
  0
LINE
  5
145
  8
0
  6
CONTINUOUS
 62
     3
 10
-789.8403426430712
 20
-461.0280556754219
 30
0.0
 11
-768.3403426430712
 21
-461.0280556754219
 31
0.0
  0
LINE
  5
146
  8
0
  6
CONTINUOUS
 62
     3
 10
-779.0903426430712
 20
-461.0280556754219
 30
0.0
 11
-779.894190220363
 21
-464.0280556754219
 31
0.0
  0
LINE
  5
147
  8
0
  6
CONTINUOUS
 62
     3
 10
-778.2864950657756
 20
-461.0280556754219
 30
0.0
 11
-779.0903426430712
 21
-464.0280556754219
 31
0.0
  0
LINE
  5
148
  8
0
  6
CONTINUOUS
 62
     3
 10
-795.0903426430712
 20
-464.0280556754219
 30
0.0
 11
-795.0903426430712
 21
-466.5280556754219
 31
0.0
  0
LINE
  5
149
  8
0
  6
CONTINUOUS
 62
     3
 10
-795.0903426430712
 20
-466.5280556754219
 30
0.0
 11
-763.0903426430712
 21
-466.5280556754219
 31
0.0
  0
LINE
  5
14A
  8
0
  6
CONTINUOUS
 62
     3
 10
-763.0903426430712
 20
-466.5280556754219
 30
0.0
 11
-763.0903426430712
 21
-464.0280556754219
 31
0.0
  0
LINE
  5
14B
  8
0
  6
CONTINUOUS
 62
     3
 10
-795.0903426430712
 20
-464.0280556754219
 30
0.0
 11
-763.0903426430712
 21
-464.0280556754219
 31
0.0
  0
LINE
  5
14C
  8
0
  6
CONTINUOUS
 62
     3
 10
-771.0903426430712
 20
-543.1907251652215
 30
0.0
 11
-771.0903426430712
 21
-546.1907251652215
 31
0.0
  0
LINE
  5
14D
  8
0
  6
CONTINUOUS
 62
     3
 10
-787.0903426430712
 20
-543.1907251652215
 30
0.0
 11
-787.0903426430712
 21
-546.1907251652215
 31
0.0
  0
LINE
  5
14E
  8
0
  6
CONTINUOUS
 62
     3
 10
-785.0903426430712
 20
-531.1907251652215
 30
0.0
 11
-787.0903426430712
 21
-543.1907251652215
 31
0.0
  0
LINE
  5
14F
  8
0
  6
CONTINUOUS
 62
     3
 10
-785.0903426430712
 20
-531.1907251652215
 30
0.0
 11
-773.0903426430712
 21
-531.1907251652215
 31
0.0
  0
LINE
  5
150
  8
0
  6
CONTINUOUS
 62
     3
 10
-773.0903426430712
 20
-531.1907251652215
 30
0.0
 11
-771.0903426430712
 21
-543.1907251652215
 31
0.0
  0
LINE
  5
151
  8
0
  6
CONTINUOUS
 62
     3
 10
-787.0903426430712
 20
-546.1907251652215
 30
0.0
 11
-771.0903426430712
 21
-546.1907251652215
 31
0.0
  0
LINE
  5
152
  8
0
  6
CONTINUOUS
 62
     3
 10
-787.0903426430712
 20
-543.1907251652215
 30
0.0
 11
-771.0903426430712
 21
-543.1907251652215
 31
0.0
  0
LINE
  5
153
  8
0
  6
CONTINUOUS
 62
     3
 10
-771.0903426430712
 20
-474.1907251652215
 30
0.0
 11
-771.0903426430712
 21
-531.1907251652215
 31
0.0
  0
LINE
  5
154
  8
0
  6
CONTINUOUS
 62
     3
 10
-787.0903426430712
 20
-474.1907251652215
 30
0.0
 11
-787.0903426430712
 21
-531.1907251652215
 31
0.0
  0
LINE
  5
155
  8
0
  6
CONTINUOUS
 62
     3
 10
-779.0903426430712
 20
-516.1907251652215
 30
0.0
 11
-776.0903426430712
 21
-511.1907251652215
 31
0.0
  0
LINE
  5
156
  8
0
  6
CONTINUOUS
 62
     3
 10
-779.0903426430712
 20
-516.1907251652215
 30
0.0
 11
-782.0903426430712
 21
-511.1907251652215
 31
0.0
  0
ARC
  5
157
  8
0
  6
CONTINUOUS
 62
     3
 10
-779.0903426430712
 20
-511.1907251652215
 30
0.0
 40
3.0
 50
0.0000000000001191
 51
179.9999999999998
  0
LINE
  5
158
  8
0
  6
CONTINUOUS
 62
     3
 10
-787.0903426430712
 20
-474.1907251652215
 30
0.0
 11
-771.0903426430712
 21
-474.1907251652215
 31
0.0
  0
LINE
  5
159
  8
0
  6
CONTINUOUS
 62
     3
 10
-787.0903426430712
 20
-531.1907251652215
 30
0.0
 11
-771.0903426430712
 21
-531.1907251652215
 31
0.0
  0
LINE
  5
15A
  8
0
  6
CONTINUOUS
 62
     3
 10
-779.0903426430712
 20
-516.1907251652215
 30
0.0
 11
-779.0903426430712
 21
-531.1907251652215
 31
0.0
  0
INSERT
  5
15B
  8
0
  6
CONTINUOUS
  2
DC_GROUP_4
 10
0.0
 20
0.0
 30
0.0
  0
ENDBLK
  5
C2
  8
0
  0
BLOCK
  8
0
  2
DC_GROUP_4
 70
     0
 10
0.0
 20
0.0
 30
0.0
  3
DC_GROUP_4
  1

  0
LINE
  5
15C
  8
0
  6
CONTINUOUS
 62
     3
 10
-784.143342643071
 20
-446.1907251652215
 30
0.0
 11
-774.0373426430713
 21
-446.1907251652215
 31
0.0
  0
LINE
  5
15D
  8
0
  6
CONTINUOUS
 62
     3
 10
-784.143342643071
 20
-446.1907251652215
 30
0.0
 11
-785.0903426430712
 21
-447.1377251652216
 31
0.0
  0
LINE
  5
15E
  8
0
  6
CONTINUOUS
 62
     3
 10
-774.0373426430713
 20
-446.1907251652215
 30
0.0
 11
-773.0903426430712
 21
-447.1377251652216
 31
0.0
  0
LINE
  5
15F
  8
0
  6
CONTINUOUS
 62
     3
 10
-785.0903426430712
 20
-447.1377251652216
 30
0.0
 11
-773.0903426430712
 21
-447.1377251652216
 31
0.0
  0
LINE
  5
160
  8
0
  6
CONTINUOUS
 62
     3
 10
-773.0903426430712
 20
-474.1907251652215
 30
0.0
 11
-773.0903426430712
 21
-472.5280556754219
 31
0.0
  0
LINE
  5
161
  8
0
  6
CONTINUOUS
 62
     3
 10
-773.0903426430712
 20
-451.0913852965941
 30
0.0
 11
-773.0903426430712
 21
-447.1377251652216
 31
0.0
  0
LINE
  5
162
  8
0
  6
CONTINUOUS
 62
     3
 10
-785.0903426430712
 20
-474.1907251652215
 30
0.0
 11
-785.0903426430712
 21
-472.5280556754219
 31
0.0
  0
LINE
  5
163
  8
0
  6
CONTINUOUS
 62
     3
 10
-785.0903426430712
 20
-451.0913852965941
 30
0.0
 11
-785.0903426430712
 21
-447.1377251652216
 31
0.0
  0
ENDBLK
  5
C5
  8
0
  0
BLOCK
  8
0
  2
*D8
 70
     1
 10
0.0
 20
0.0
 30
0.0
  3
*D8
  1

  0
LINE
  5
164
  8
0
  6
CONTINUOUS
 62
     4
 10
215.4649658448682
 20
-613.6591695464717
 30
0.0
 11
305.4649658448682
 21
-613.6591695464717
 31
0.0
  0
INSERT
  5
165
  8
0
 62
     4
  2
_OPEN30
 10
215.4649658448682
 20
-613.6591695464717
 30
0.0
 41
15.00115266964712
 42
15.00081580252128
 50
180.0
  0
INSERT
  5
166
  8
0
 62
     4
  2
_OPEN30
 10
305.4649658448682
 20
-613.6591695464717
 30
0.0
 41
15.00115266964712
 42
15.00081580252128
 50
360.0
  0
TEXT
  5
167
  8
0
 62
     4
 10
248.4649658448682
 20
-608.6591695464717
 30
0.0
 40
15.0
  1
90
 41
0.908108108108108
  7
DCSTYLE0
 72
     5
 11
272.4649658448682
 21
-608.6591695464717
 31
0.0
  0
LINE
  5
168
  8
0
  6
CONTINUOUS
 62
     9
 10
215.4649658448682
 20
-477.5280556754219
 30
0.0
 11
215.4649658448682
 21
-618.6591695464717
 31
0.0
  0
LINE
  5
169
  8
0
  6
CONTINUOUS
 62
     9
 10
305.4649658448682
 20
-477.5280556754219
 30
0.0
 11
305.4649658448682
 21
-618.6591695464717
 31
0.0
  0
ENDBLK
  5
C8
  8
0
  0
BLOCK
  8
0
  2
DC_GROUP_5
 70
     0
 10
0.0
 20
0.0
 30
0.0
  3
DC_GROUP_5
  1

  0
LINE
  5
16A
  8
0
  6
CENTER
 62
     7
 10
260.4649658448682
 20
-440.6515255076001
 30
0.0
 11
260.4649658448682
 21
-553.9860021099098
 31
0.0
  0
LINE
  5
16B
  8
0
  6
CONTINUOUS
 62
     3
 10
269.9649658448682
 20
-451.0280556754219
 30
0.0
 11
250.9649658448682
 21
-451.0280556754219
 31
0.0
  0
LINE
  5
16C
  8
0
  6
CONTINUOUS
 62
     3
 10
250.9649658448682
 20
-451.0280556754219
 30
0.0
 11
250.9649658448682
 21
-461.0280556754219
 31
0.0
  0
LINE
  5
16D
  8
0
  6
CONTINUOUS
 62
     3
 10
269.9649658448682
 20
-461.0280556754219
 30
0.0
 11
269.9649658448682
 21
-451.0280556754219
 31
0.0
  0
LINE
  5
16E
  8
0
  6
CONTINUOUS
 62
     3
 10
260.4649658448682
 20
-461.0280556754219
 30
0.0
 11
260.4649658448682
 21
-452.1538887003412
 31
0.0
  0
ARC
  5
16F
  8
0
  6
CONTINUOUS
 62
     3
 10
255.7149658448682
 20
-461.5049582813613
 30
0.0
 40
10.48832695471864
 50
63.0711027069519
 51
116.9288972930481
  0
ARC
  5
170
  8
0
  6
CONTINUOUS
 62
     3
 10
265.2149658448682
 20
-461.5049582813613
 30
0.0
 40
10.48832695471864
 50
63.0711027069519
 51
116.9288972930481
  0
LINE
  5
171
  8
0
  6
CONTINUOUS
 62
     3
 10
271.2149658448682
 20
-461.0280556754219
 30
0.0
 11
271.2149658448682
 21
-464.0280556754219
 31
0.0
  0
LINE
  5
172
  8
0
  6
CONTINUOUS
 62
     3
 10
249.7149658448682
 20
-464.0280556754219
 30
0.0
 11
249.7149658448682
 21
-461.0280556754219
 31
0.0
  0
LINE
  5
173
  8
0
  6
CONTINUOUS
 62
     3
 10
271.2149658448682
 20
-461.0280556754219
 30
0.0
 11
249.7149658448682
 21
-461.0280556754219
 31
0.0
  0
LINE
  5
174
  8
0
  6
CONTINUOUS
 62
     3
 10
260.4649658448682
 20
-461.0280556754219
 30
0.0
 11
261.2688134221637
 21
-464.0280556754219
 31
0.0
  0
LINE
  5
175
  8
0
  6
CONTINUOUS
 62
     3
 10
259.6611182675763
 20
-461.0280556754219
 30
0.0
 11
260.4649658448682
 21
-464.0280556754219
 31
0.0
  0
LINE
  5
176
  8
0
  6
CONTINUOUS
 62
     3
 10
276.4649658448682
 20
-464.0280556754219
 30
0.0
 11
276.4649658448682
 21
-466.5280556754219
 31
0.0
  0
LINE
  5
177
  8
0
  6
CONTINUOUS
 62
     3
 10
276.4649658448682
 20
-466.5280556754219
 30
0.0
 11
244.4649658448682
 21
-466.5280556754219
 31
0.0
  0
LINE
  5
178
  8
0
  6
CONTINUOUS
 62
     3
 10
244.4649658448682
 20
-466.5280556754219
 30
0.0
 11
244.4649658448682
 21
-464.0280556754219
 31
0.0
  0
LINE
  5
179
  8
0
  6
CONTINUOUS
 62
     3
 10
276.4649658448682
 20
-464.0280556754219
 30
0.0
 11
244.4649658448682
 21
-464.0280556754219
 31
0.0
  0
LINE
  5
17A
  8
0
  6
CONTINUOUS
 62
     3
 10
252.4649658448682
 20
-543.1907251652215
 30
0.0
 11
252.4649658448682
 21
-546.1907251652215
 31
0.0
  0
LINE
  5
17B
  8
0
  6
CONTINUOUS
 62
     3
 10
268.4649658448682
 20
-543.1907251652215
 30
0.0
 11
268.4649658448682
 21
-546.1907251652215
 31
0.0
  0
LINE
  5
17C
  8
0
  6
CONTINUOUS
 62
     3
 10
266.4649658448682
 20
-531.1907251652215
 30
0.0
 11
268.4649658448682
 21
-543.1907251652215
 31
0.0
  0
LINE
  5
17D
  8
0
  6
CONTINUOUS
 62
     3
 10
266.4649658448682
 20
-531.1907251652215
 30
0.0
 11
254.4649658448682
 21
-531.1907251652215
 31
0.0
  0
LINE
  5
17E
  8
0
  6
CONTINUOUS
 62
     3
 10
254.4649658448682
 20
-531.1907251652215
 30
0.0
 11
252.4649658448682
 21
-543.1907251652215
 31
0.0
  0
LINE
  5
17F
  8
0
  6
CONTINUOUS
 62
     3
 10
268.4649658448682
 20
-546.1907251652215
 30
0.0
 11
252.4649658448682
 21
-546.1907251652215
 31
0.0
  0
LINE
  5
180
  8
0
  6
CONTINUOUS
 62
     3
 10
268.4649658448682
 20
-543.1907251652215
 30
0.0
 11
252.4649658448682
 21
-543.1907251652215
 31
0.0
  0
LINE
  5
181
  8
0
  6
CONTINUOUS
 62
     3
 10
252.4649658448682
 20
-474.1907251652215
 30
0.0
 11
252.4649658448682
 21
-531.1907251652215
 31
0.0
  0
LINE
  5
182
  8
0
  6
CONTINUOUS
 62
     3
 10
268.4649658448682
 20
-474.1907251652215
 30
0.0
 11
268.4649658448682
 21
-531.1907251652215
 31
0.0
  0
LINE
  5
183
  8
0
  6
CONTINUOUS
 62
     3
 10
260.4649658448682
 20
-516.1907251652215
 30
0.0
 11
257.4649658448682
 21
-511.1907251652215
 31
0.0
  0
LINE
  5
184
  8
0
  6
CONTINUOUS
 62
     3
 10
260.4649658448682
 20
-516.1907251652215
 30
0.0
 11
263.4649658448682
 21
-511.1907251652215
 31
0.0
  0
ARC
  5
185
  8
0
  6
CONTINUOUS
 62
     3
 10
260.4649658448682
 20
-511.1907251652215
 30
0.0
 40
3.0
 50
0.0000000000001357
 51
179.9999999999999
  0
LINE
  5
186
  8
0
  6
CONTINUOUS
 62
     3
 10
268.4649658448682
 20
-474.1907251652215
 30
0.0
 11
252.4649658448682
 21
-474.1907251652215
 31
0.0
  0
LINE
  5
187
  8
0
  6
CONTINUOUS
 62
     3
 10
268.4649658448682
 20
-531.1907251652215
 30
0.0
 11
252.4649658448682
 21
-531.1907251652215
 31
0.0
  0
LINE
  5
188
  8
0
  6
CONTINUOUS
 62
     3
 10
260.4649658448682
 20
-516.1907251652215
 30
0.0
 11
260.4649658448682
 21
-531.1907251652215
 31
0.0
  0
INSERT
  5
189
  8
0
  6
CONTINUOUS
  2
DC_GROUP_6
 10
0.0
 20
0.0
 30
0.0
  0
ENDBLK
  5
CB
  8
0
  0
BLOCK
  8
0
  2
DC_GROUP_6
 70
     0
 10
0.0
 20
0.0
 30
0.0
  3
DC_GROUP_6
  1

  0
LINE
  5
18A
  8
0
  6
CONTINUOUS
 62
     3
 10
265.5179658448681
 20
-446.1907251652215
 30
0.0
 11
255.4119658448683
 21
-446.1907251652215
 31
0.0
  0
LINE
  5
18B
  8
0
  6
CONTINUOUS
 62
     3
 10
265.5179658448681
 20
-446.1907251652215
 30
0.0
 11
266.4649658448682
 21
-447.1377251652216
 31
0.0
  0
LINE
  5
18C
  8
0
  6
CONTINUOUS
 62
     3
 10
255.4119658448683
 20
-446.1907251652215
 30
0.0
 11
254.4649658448682
 21
-447.1377251652216
 31
0.0
  0
LINE
  5
18D
  8
0
  6
CONTINUOUS
 62
     3
 10
266.4649658448682
 20
-447.1377251652216
 30
0.0
 11
254.4649658448682
 21
-447.1377251652216
 31
0.0
  0
LINE
  5
18E
  8
0
  6
CONTINUOUS
 62
     3
 10
254.4649658448682
 20
-474.1907251652215
 30
0.0
 11
254.4649658448682
 21
-472.5280556754219
 31
0.0
  0
LINE
  5
18F
  8
0
  6
CONTINUOUS
 62
     3
 10
254.4649658448682
 20
-451.0913852965941
 30
0.0
 11
254.4649658448682
 21
-447.1377251652216
 31
0.0
  0
LINE
  5
190
  8
0
  6
CONTINUOUS
 62
     3
 10
266.4649658448682
 20
-474.1907251652215
 30
0.0
 11
266.4649658448682
 21
-472.5280556754219
 31
0.0
  0
LINE
  5
191
  8
0
  6
CONTINUOUS
 62
     3
 10
266.4649658448682
 20
-451.0913852965941
 30
0.0
 11
266.4649658448682
 21
-447.1377251652216
 31
0.0
  0
ENDBLK
  5
CE
  8
0
  0
BLOCK
  8
0
  2
DC_GROUP_7
 70
     0
 10
0.0
 20
0.0
 30
0.0
  3
DC_GROUP_7
  1

  0
LINE
  5
192
  8
0
  6
CENTER
 62
     7
 10
-139.5903426430712
 20
-440.6515255075997
 30
0.0
 11
-139.5903426430712
 21
-553.9860021099098
 31
0.0
  0
LINE
  5
193
  8
0
  6
CONTINUOUS
 62
     3
 10
-130.0903426430712
 20
-451.0280556754219
 30
0.0
 11
-149.0903426430712
 21
-451.0280556754219
 31
0.0
  0
LINE
  5
194
  8
0
  6
CONTINUOUS
 62
     3
 10
-149.0903426430712
 20
-451.0280556754219
 30
0.0
 11
-149.0903426430712
 21
-461.0280556754219
 31
0.0
  0
LINE
  5
195
  8
0
  6
CONTINUOUS
 62
     3
 10
-130.0903426430712
 20
-461.0280556754219
 30
0.0
 11
-130.0903426430712
 21
-451.0280556754219
 31
0.0
  0
LINE
  5
196
  8
0
  6
CONTINUOUS
 62
     3
 10
-139.5903426430712
 20
-461.0280556754219
 30
0.0
 11
-139.5903426430712
 21
-452.1538887003412
 31
0.0
  0
ARC
  5
197
  8
0
  6
CONTINUOUS
 62
     3
 10
-144.3403426430712
 20
-461.5049582813613
 30
0.0
 40
10.48832695471864
 50
63.0711027069519
 51
116.9288972930481
  0
ARC
  5
198
  8
0
  6
CONTINUOUS
 62
     3
 10
-134.8403426430712
 20
-461.5049582813613
 30
0.0
 40
10.48832695471864
 50
63.0711027069519
 51
116.9288972930481
  0
LINE
  5
199
  8
0
  6
CONTINUOUS
 62
     3
 10
-128.8403426430712
 20
-461.0280556754219
 30
0.0
 11
-128.8403426430712
 21
-464.0280556754219
 31
0.0
  0
LINE
  5
19A
  8
0
  6
CONTINUOUS
 62
     3
 10
-150.3403426430712
 20
-464.0280556754219
 30
0.0
 11
-150.3403426430712
 21
-461.0280556754219
 31
0.0
  0
LINE
  5
19B
  8
0
  6
CONTINUOUS
 62
     3
 10
-128.8403426430712
 20
-461.0280556754219
 30
0.0
 11
-150.3403426430712
 21
-461.0280556754219
 31
0.0
  0
LINE
  5
19C
  8
0
  6
CONTINUOUS
 62
     3
 10
-139.5903426430712
 20
-461.0280556754219
 30
0.0
 11
-138.7864950657756
 21
-464.0280556754219
 31
0.0
  0
LINE
  5
19D
  8
0
  6
CONTINUOUS
 62
     3
 10
-140.394190220363
 20
-461.0280556754219
 30
0.0
 11
-139.5903426430712
 21
-464.0280556754219
 31
0.0
  0
LINE
  5
19E
  8
0
  6
CONTINUOUS
 62
     3
 10
-123.5903426430712
 20
-464.0280556754219
 30
0.0
 11
-123.5903426430712
 21
-466.5280556754219
 31
0.0
  0
LINE
  5
19F
  8
0
  6
CONTINUOUS
 62
     3
 10
-123.5903426430712
 20
-466.5280556754219
 30
0.0
 11
-155.5903426430712
 21
-466.5280556754219
 31
0.0
  0
LINE
  5
1A0
  8
0
  6
CONTINUOUS
 62
     3
 10
-155.5903426430712
 20
-466.5280556754219
 30
0.0
 11
-155.5903426430712
 21
-464.0280556754219
 31
0.0
  0
LINE
  5
1A1
  8
0
  6
CONTINUOUS
 62
     3
 10
-123.5903426430712
 20
-464.0280556754219
 30
0.0
 11
-155.5903426430712
 21
-464.0280556754219
 31
0.0
  0
LINE
  5
1A2
  8
0
  6
CONTINUOUS
 62
     3
 10
-147.5903426430712
 20
-543.1907251652215
 30
0.0
 11
-147.5903426430712
 21
-546.1907251652215
 31
0.0
  0
LINE
  5
1A3
  8
0
  6
CONTINUOUS
 62
     3
 10
-131.5903426430712
 20
-543.1907251652215
 30
0.0
 11
-131.5903426430712
 21
-546.1907251652215
 31
0.0
  0
LINE
  5
1A4
  8
0
  6
CONTINUOUS
 62
     3
 10
-133.5903426430712
 20
-531.1907251652215
 30
0.0
 11
-131.5903426430712
 21
-543.1907251652215
 31
0.0
  0
LINE
  5
1A5
  8
0
  6
CONTINUOUS
 62
     3
 10
-133.5903426430712
 20
-531.1907251652215
 30
0.0
 11
-145.5903426430712
 21
-531.1907251652215
 31
0.0
  0
LINE
  5
1A6
  8
0
  6
CONTINUOUS
 62
     3
 10
-145.5903426430712
 20
-531.1907251652215
 30
0.0
 11
-147.5903426430712
 21
-543.1907251652215
 31
0.0
  0
LINE
  5
1A7
  8
0
  6
CONTINUOUS
 62
     3
 10
-131.5903426430712
 20
-546.1907251652215
 30
0.0
 11
-147.5903426430712
 21
-546.1907251652215
 31
0.0
  0
LINE
  5
1A8
  8
0
  6
CONTINUOUS
 62
     3
 10
-131.5903426430712
 20
-543.1907251652215
 30
0.0
 11
-147.5903426430712
 21
-543.1907251652215
 31
0.0
  0
LINE
  5
1A9
  8
0
  6
CONTINUOUS
 62
     3
 10
-147.5903426430712
 20
-474.1907251652215
 30
0.0
 11
-147.5903426430712
 21
-531.1907251652215
 31
0.0
  0
LINE
  5
1AA
  8
0
  6
CONTINUOUS
 62
     3
 10
-131.5903426430712
 20
-474.1907251652215
 30
0.0
 11
-131.5903426430712
 21
-531.1907251652215
 31
0.0
  0
LINE
  5
1AB
  8
0
  6
CONTINUOUS
 62
     3
 10
-139.5903426430712
 20
-516.1907251652215
 30
0.0
 11
-142.5903426430712
 21
-511.1907251652215
 31
0.0
  0
LINE
  5
1AC
  8
0
  6
CONTINUOUS
 62
     3
 10
-139.5903426430712
 20
-516.1907251652215
 30
0.0
 11
-136.5903426430712
 21
-511.1907251652215
 31
0.0
  0
ARC
  5
1AD
  8
0
  6
CONTINUOUS
 62
     3
 10
-139.5903426430712
 20
-511.1907251652215
 30
0.0
 40
3.0
 50
0.0000000000001523
 51
179.9999999999999
  0
LINE
  5
1AE
  8
0
  6
CONTINUOUS
 62
     3
 10
-131.5903426430712
 20
-474.1907251652215
 30
0.0
 11
-147.5903426430712
 21
-474.1907251652215
 31
0.0
  0
LINE
  5
1AF
  8
0
  6
CONTINUOUS
 62
     3
 10
-131.5903426430712
 20
-531.1907251652215
 30
0.0
 11
-147.5903426430712
 21
-531.1907251652215
 31
0.0
  0
LINE
  5
1B0
  8
0
  6
CONTINUOUS
 62
     3
 10
-139.5903426430712
 20
-516.1907251652215
 30
0.0
 11
-139.5903426430712
 21
-531.1907251652215
 31
0.0
  0
INSERT
  5
1B1
  8
0
  6
CONTINUOUS
  2
DC_GROUP_8
 10
0.0
 20
0.0
 30
0.0
  0
ENDBLK
  5
D1
  8
0
  0
BLOCK
  8
0
  2
DC_GROUP_8
 70
     0
 10
0.0
 20
0.0
 30
0.0
  3
DC_GROUP_8
  1

  0
LINE
  5
1B2
  8
0
  6
CONTINUOUS
 62
     3
 10
-134.5373426430713
 20
-446.1907251652215
 30
0.0
 11
-144.643342643071
 21
-446.1907251652215
 31
0.0
  0
LINE
  5
1B3
  8
0
  6
CONTINUOUS
 62
     3
 10
-134.5373426430713
 20
-446.1907251652215
 30
0.0
 11
-133.5903426430712
 21
-447.1377251652216
 31
0.0
  0
LINE
  5
1B4
  8
0
  6
CONTINUOUS
 62
     3
 10
-144.643342643071
 20
-446.1907251652215
 30
0.0
 11
-145.5903426430712
 21
-447.1377251652216
 31
0.0
  0
LINE
  5
1B5
  8
0
  6
CONTINUOUS
 62
     3
 10
-133.5903426430712
 20
-447.1377251652216
 30
0.0
 11
-145.5903426430712
 21
-447.1377251652216
 31
0.0
  0
LINE
  5
1B6
  8
0
  6
CONTINUOUS
 62
     3
 10
-145.5903426430712
 20
-474.1907251652215
 30
0.0
 11
-145.5903426430712
 21
-472.5280556754219
 31
0.0
  0
LINE
  5
1B7
  8
0
  6
CONTINUOUS
 62
     3
 10
-145.5903426430712
 20
-451.0913852965941
 30
0.0
 11
-145.5903426430712
 21
-447.1377251652216
 31
0.0
  0
LINE
  5
1B8
  8
0
  6
CONTINUOUS
 62
     3
 10
-133.5903426430712
 20
-474.1907251652215
 30
0.0
 11
-133.5903426430712
 21
-472.5280556754219
 31
0.0
  0
LINE
  5
1B9
  8
0
  6
CONTINUOUS
 62
     3
 10
-133.5903426430712
 20
-451.0913852965941
 30
0.0
 11
-133.5903426430712
 21
-447.1377251652216
 31
0.0
  0
ENDBLK
  5
D4
  8
0
  0
BLOCK
  8
0
  2
DC_GROUP_9
 70
     0
 10
0.0
 20
0.0
 30
0.0
  3
DC_GROUP_9
  1

  0
LINE
  5
1BA
  8
0
  6
CENTER
 62
     7
 10
-29.59034264307115
 20
-440.6515255075997
 30
0.0
 11
-29.59034264307115
 21
-553.9860021099098
 31
0.0
  0
LINE
  5
1BB
  8
0
  6
CONTINUOUS
 62
     3
 10
-20.09034264307115
 20
-451.0280556754219
 30
0.0
 11
-39.09034264307115
 21
-451.0280556754219
 31
0.0
  0
LINE
  5
1BC
  8
0
  6
CONTINUOUS
 62
     3
 10
-39.09034264307115
 20
-451.0280556754219
 30
0.0
 11
-39.09034264307115
 21
-461.0280556754219
 31
0.0
  0
LINE
  5
1BD
  8
0
  6
CONTINUOUS
 62
     3
 10
-20.09034264307115
 20
-461.0280556754219
 30
0.0
 11
-20.09034264307115
 21
-451.0280556754219
 31
0.0
  0
LINE
  5
1BE
  8
0
  6
CONTINUOUS
 62
     3
 10
-29.59034264307115
 20
-461.0280556754219
 30
0.0
 11
-29.59034264307115
 21
-452.1538887003412
 31
0.0
  0
ARC
  5
1BF
  8
0
  6
CONTINUOUS
 62
     3
 10
-34.34034264307115
 20
-461.5049582813613
 30
0.0
 40
10.48832695471864
 50
63.0711027069519
 51
116.9288972930481
  0
ARC
  5
1C0
  8
0
  6
CONTINUOUS
 62
     3
 10
-24.84034264307115
 20
-461.5049582813613
 30
0.0
 40
10.48832695471864
 50
63.0711027069519
 51
116.9288972930481
  0
LINE
  5
1C1
  8
0
  6
CONTINUOUS
 62
     3
 10
-18.84034264307115
 20
-461.0280556754219
 30
0.0
 11
-18.84034264307115
 21
-464.0280556754219
 31
0.0
  0
LINE
  5
1C2
  8
0
  6
CONTINUOUS
 62
     3
 10
-40.34034264307115
 20
-464.0280556754219
 30
0.0
 11
-40.34034264307115
 21
-461.0280556754219
 31
0.0
  0
LINE
  5
1C3
  8
0
  6
CONTINUOUS
 62
     3
 10
-18.84034264307115
 20
-461.0280556754219
 30
0.0
 11
-40.34034264307115
 21
-461.0280556754219
 31
0.0
  0
LINE
  5
1C4
  8
0
  6
CONTINUOUS
 62
     3
 10
-29.59034264307115
 20
-461.0280556754219
 30
0.0
 11
-28.78649506577562
 21
-464.0280556754219
 31
0.0
  0
LINE
  5
1C5
  8
0
  6
CONTINUOUS
 62
     3
 10
-30.39419022036304
 20
-461.0280556754219
 30
0.0
 11
-29.59034264307115
 21
-464.0280556754219
 31
0.0
  0
LINE
  5
1C6
  8
0
  6
CONTINUOUS
 62
     3
 10
-13.59034264307115
 20
-464.0280556754219
 30
0.0
 11
-13.59034264307115
 21
-466.5280556754219
 31
0.0
  0
LINE
  5
1C7
  8
0
  6
CONTINUOUS
 62
     3
 10
-13.59034264307115
 20
-466.5280556754219
 30
0.0
 11
-45.59034264307115
 21
-466.5280556754219
 31
0.0
  0
LINE
  5
1C8
  8
0
  6
CONTINUOUS
 62
     3
 10
-45.59034264307115
 20
-466.5280556754219
 30
0.0
 11
-45.59034264307115
 21
-464.0280556754219
 31
0.0
  0
LINE
  5
1C9
  8
0
  6
CONTINUOUS
 62
     3
 10
-13.59034264307115
 20
-464.0280556754219
 30
0.0
 11
-45.59034264307115
 21
-464.0280556754219
 31
0.0
  0
LINE
  5
1CA
  8
0
  6
CONTINUOUS
 62
     3
 10
-37.59034264307115
 20
-543.1907251652215
 30
0.0
 11
-37.59034264307115
 21
-546.1907251652215
 31
0.0
  0
LINE
  5
1CB
  8
0
  6
CONTINUOUS
 62
     3
 10
-21.59034264307115
 20
-543.1907251652215
 30
0.0
 11
-21.59034264307115
 21
-546.1907251652215
 31
0.0
  0
LINE
  5
1CC
  8
0
  6
CONTINUOUS
 62
     3
 10
-23.59034264307115
 20
-531.1907251652215
 30
0.0
 11
-21.59034264307115
 21
-543.1907251652215
 31
0.0
  0
LINE
  5
1CD
  8
0
  6
CONTINUOUS
 62
     3
 10
-23.59034264307115
 20
-531.1907251652215
 30
0.0
 11
-35.59034264307115
 21
-531.1907251652215
 31
0.0
  0
LINE
  5
1CE
  8
0
  6
CONTINUOUS
 62
     3
 10
-35.59034264307115
 20
-531.1907251652215
 30
0.0
 11
-37.59034264307115
 21
-543.1907251652215
 31
0.0
  0
LINE
  5
1CF
  8
0
  6
CONTINUOUS
 62
     3
 10
-21.59034264307115
 20
-546.1907251652215
 30
0.0
 11
-37.59034264307115
 21
-546.1907251652215
 31
0.0
  0
LINE
  5
1D0
  8
0
  6
CONTINUOUS
 62
     3
 10
-21.59034264307115
 20
-543.1907251652215
 30
0.0
 11
-37.59034264307115
 21
-543.1907251652215
 31
0.0
  0
LINE
  5
1D1
  8
0
  6
CONTINUOUS
 62
     3
 10
-37.59034264307115
 20
-474.1907251652215
 30
0.0
 11
-37.59034264307115
 21
-531.1907251652215
 31
0.0
  0
LINE
  5
1D2
  8
0
  6
CONTINUOUS
 62
     3
 10
-21.59034264307115
 20
-474.1907251652215
 30
0.0
 11
-21.59034264307115
 21
-531.1907251652215
 31
0.0
  0
LINE
  5
1D3
  8
0
  6
CONTINUOUS
 62
     3
 10
-29.59034264307115
 20
-516.1907251652215
 30
0.0
 11
-32.59034264307115
 21
-511.1907251652215
 31
0.0
  0
LINE
  5
1D4
  8
0
  6
CONTINUOUS
 62
     3
 10
-29.59034264307115
 20
-516.1907251652215
 30
0.0
 11
-26.59034264307115
 21
-511.1907251652215
 31
0.0
  0
ARC
  5
1D5
  8
0
  6
CONTINUOUS
 62
     3
 10
-29.59034264307115
 20
-511.1907251652215
 30
0.0
 40
3.0
 50
0.0000000000001523
 51
179.9999999999999
  0
LINE
  5
1D6
  8
0
  6
CONTINUOUS
 62
     3
 10
-21.59034264307115
 20
-474.1907251652215
 30
0.0
 11
-37.59034264307115
 21
-474.1907251652215
 31
0.0
  0
LINE
  5
1D7
  8
0
  6
CONTINUOUS
 62
     3
 10
-21.59034264307115
 20
-531.1907251652215
 30
0.0
 11
-37.59034264307115
 21
-531.1907251652215
 31
0.0
  0
LINE
  5
1D8
  8
0
  6
CONTINUOUS
 62
     3
 10
-29.59034264307115
 20
-516.1907251652215
 30
0.0
 11
-29.59034264307115
 21
-531.1907251652215
 31
0.0
  0
INSERT
  5
1D9
  8
0
  6
CONTINUOUS
  2
DC_GROUP_10
 10
0.0
 20
0.0
 30
0.0
  0
ENDBLK
  5
D7
  8
0
  0
BLOCK
  8
0
  2
DC_GROUP_10
 70
     0
 10
0.0
 20
0.0
 30
0.0
  3
DC_GROUP_10
  1

  0
LINE
  5
1DA
  8
0
  6
CONTINUOUS
 62
     3
 10
-24.53734264307127
 20
-446.1907251652215
 30
0.0
 11
-34.64334264307104
 21
-446.1907251652215
 31
0.0
  0
LINE
  5
1DB
  8
0
  6
CONTINUOUS
 62
     3
 10
-24.53734264307127
 20
-446.1907251652215
 30
0.0
 11
-23.59034264307115
 21
-447.1377251652216
 31
0.0
  0
LINE
  5
1DC
  8
0
  6
CONTINUOUS
 62
     3
 10
-34.64334264307104
 20
-446.1907251652215
 30
0.0
 11
-35.59034264307115
 21
-447.1377251652216
 31
0.0
  0
LINE
  5
1DD
  8
0
  6
CONTINUOUS
 62
     3
 10
-23.59034264307115
 20
-447.1377251652216
 30
0.0
 11
-35.59034264307115
 21
-447.1377251652216
 31
0.0
  0
LINE
  5
1DE
  8
0
  6
CONTINUOUS
 62
     3
 10
-35.59034264307115
 20
-474.1907251652215
 30
0.0
 11
-35.59034264307115
 21
-472.5280556754219
 31
0.0
  0
LINE
  5
1DF
  8
0
  6
CONTINUOUS
 62
     3
 10
-35.59034264307115
 20
-451.0913852965941
 30
0.0
 11
-35.59034264307115
 21
-447.1377251652216
 31
0.0
  0
LINE
  5
1E0
  8
0
  6
CONTINUOUS
 62
     3
 10
-23.59034264307115
 20
-474.1907251652215
 30
0.0
 11
-23.59034264307115
 21
-472.5280556754219
 31
0.0
  0
LINE
  5
1E1
  8
0
  6
CONTINUOUS
 62
     3
 10
-23.59034264307115
 20
-451.0913852965941
 30
0.0
 11
-23.59034264307115
 21
-447.1377251652216
 31
0.0
  0
ENDBLK
  5
DA
  8
0
  0
BLOCK
  8
0
  2
*D15
 70
     1
 10
0.0
 20
0.0
 30
0.0
  3
*D15
  1

  0
LINE
  5
1E2
  8
LAYER0001
  6
CONTINUOUS
 62
     4
 10
-202.1697748755985
 20
92.54851954820333
 30
0.0
 11
-154.6925146414912
 21
150.2122817138847
 31
0.0
  0
INSERT
  5
1E3
  8
LAYER0001
 62
     4
  2
_OPEN30
 10
-154.6925146414912
 20
150.2122817138847
 30
0.0
 41
15.00115266964712
 42
15.00081580252128
 50
50.5337834790046
  0
LINE
  5
1E4
  8
LAYER0001
  6
CONTINUOUS
 62
     4
 10
-285.6697748755985
 20
92.54851954820333
 30
0.0
 11
-202.1697748755985
 21
92.54851954820333
 31
0.0
  0
TEXT
  5
1E5
  8
LAYER0001
 62
     4
 10
-280.6697748755985
 20
97.54851954820333
 30
0.0
 40
17.5
  1
R125.7
 41
0.8166666666666665
  7
DCSTYLE0
 72
     5
 11
-207.1697748755985
 21
97.54851954820333
 31
0.0
  0
ENDBLK
  5
DD
  8
0
  0
BLOCK
  8
0
  2
DA_IMAGEDIMGROUP_1
 70
     0
 10
0.0
 20
0.0
 30
0.0
  3
DA_IMAGEDIMGROUP_1
  1

  0
LINE
  5
1E6
  8
LAYER0001
  6
CONTINUOUS
 62
     4
 10
236.1649658448689
 20
50.77313246239964
 30
0.0
 11
284.7649658448711
 21
50.77313246239964
 31
0.0
  0
LINE
  5
1E7
  8
LAYER0001
  6
CONTINUOUS
 62
     4
 10
370.504965844869
 20
50.77313246239964
 30
0.0
 11
284.7649658448711
 21
50.77313246239964
 31
0.0
  0
INSERT
  5
1E8
  8
LAYER0001
 62
     4
  2
_OPEN30
 10
284.7649658448711
 20
50.77313246239964
 30
0.0
 41
15.00115266964712
 42
15.00081580252128
 50
180.0
  0
LINE
  5
1E9
  8
LAYER0001
  6
CONTINUOUS
 62
     4
 10
211.1649658448689
 20
50.77313246239964
 30
0.0
 11
236.1649658448689
 21
50.77313246239964
 31
0.0
  0
INSERT
  5
1EA
  8
LAYER0001
 62
     4
  2
_OPEN30
 10
236.1649658448689
 20
50.77313246239964
 30
0.0
 41
15.00115266964712
 42
15.00081580252128
 50
360.0
  0
TEXT
  5
1EB
  8
LAYER0001
 62
     4
 10
304.254965844869
 20
55.77313246239964
 30
0.0
 40
17.5
  1
φ48.6
 41
0.8647058823529411
  7
DCSTYLE0
 72
     5
 11
365.504965844869
 21
55.77313246239964
 31
0.0
  0
ENDBLK
  5
E0
  8
0
  0
BLOCK
  8
0
  2
*D17
 70
     1
 10
0.0
 20
0.0
 30
0.0
  3
*D17
  1

  0
LINE
  5
1EC
  8
0
  6
CONTINUOUS
 62
     9
 10
-796.5903426430712
 20
480.3495855100896
 30
0.0
 11
-796.5903426430712
 21
417.4667391370376
 31
0.0
  0
LINE
  5
1ED
  8
0
  6
CONTINUOUS
 62
     9
 10
-12.09034264307115
 20
480.34958551009
 30
0.0
 11
-12.09034264307115
 21
417.4667391370376
 31
0.0
  0
LINE
  5
1EE
  8
0
  6
CONTINUOUS
 62
     4
 10
-796.5903426430712
 20
422.4667391370376
 30
0.0
 11
-12.09034264307115
 21
422.4667391370376
 31
0.0
  0
INSERT
  5
1EF
  8
0
 62
     4
  2
_OPEN30
 10
-796.5903426430712
 20
422.4667391370376
 30
0.0
 41
15.00115266964712
 42
15.00081580252128
 50
180.0
  0
INSERT
  5
1F0
  8
0
 62
     4
  2
_OPEN30
 10
-12.09034264307115
 20
422.4667391370376
 30
0.0
 41
15.00115266964712
 42
15.00081580252128
 50
360.0
  0
TEXT
  5
1F1
  8
0
 62
     4
 10
-434.3403426430675
 20
427.4667391370376
 30
0.0
 40
15.0
  1
784.5
 41
0.9655172413793102
  7
DCSTYLE0
 72
     5
 11
-374.3403426430675
 21
427.4667391370376
 31
0.0
  0
ENDBLK
  5
E3
  8
0
  0
BLOCK
  8
0
  2
DC_GROUP_11
 70
     0
 10
0.0
 20
0.0
 30
0.0
  3
DC_GROUP_11
  1

  0
LINE
  5
1F2
  8
0
  6
CONTINUOUS
 62
     3
 10
-790.0599977576755
 20
521.0320438756082
 30
0.0
 11
-784.5751702003733
 21
530.5320438756082
 31
0.0
  0
LINE
  5
1F3
  8
0
  6
CONTINUOUS
 62
     3
 10
-784.5751702003733
 20
530.5320438756082
 30
0.0
 11
-773.605515085769
 21
530.5320438756082
 31
0.0
  0
LINE
  5
1F4
  8
0
  6
CONTINUOUS
 62
     3
 10
-773.605515085769
 20
530.5320438756082
 30
0.0
 11
-768.1206875284668
 21
521.0320438756082
 31
0.0
  0
LINE
  5
1F5
  8
0
  6
CONTINUOUS
 62
     3
 10
-768.1206875284668
 20
521.0320438756082
 30
0.0
 11
-773.605515085769
 21
511.5320438756082
 31
0.0
  0
LINE
  5
1F6
  8
0
  6
CONTINUOUS
 62
     3
 10
-773.605515085769
 20
511.5320438756082
 30
0.0
 11
-784.5751702003733
 21
511.5320438756082
 31
0.0
  0
LINE
  5
1F7
  8
0
  6
CONTINUOUS
 62
     3
 10
-784.5751702003733
 20
511.5320438756082
 30
0.0
 11
-790.0599977576755
 21
521.0320438756082
 31
0.0
  0
CIRCLE
  5
1F8
  8
0
  6
CONTINUOUS
 62
     3
 10
-779.0903426430712
 20
521.0320438756082
 30
0.0
 40
6.0
  0
CIRCLE
  5
1F9
  8
0
  6
CONTINUOUS
 62
     3
 10
-779.0903426430712
 20
521.0320438756082
 30
0.0
 40
12.0
  0
ENDBLK
  5
E6
  8
0
  0
BLOCK
  8
0
  2
*D19
 70
     1
 10
0.0
 20
0.0
 30
0.0
  3
*D19
  1

  0
LINE
  5
1FA
  8
LAYER0001
  6
CONTINUOUS
 62
     4
 10
-848.2384962803051
 20
476.0320438756082
 30
0.0
 11
-848.2384962803051
 21
566.032043875608
 31
0.0
  0
INSERT
  5
1FB
  8
LAYER0001
 62
     4
  2
_OPEN30
 10
-848.2384962803051
 20
476.0320438756082
 30
0.0
 41
15.00115266964712
 42
15.00081580252128
 50
270.0
  0
INSERT
  5
1FC
  8
LAYER0001
 62
     4
  2
_OPEN30
 10
-848.2384962803051
 20
566.032043875608
 30
0.0
 41
15.00115266964712
 42
15.00081580252128
 50
90.0
  0
LINE
  5
1FD
  8
LAYER0001
  6
CONTINUOUS
 62
     4
 10
-790.3353406414687
 20
476.0320438756082
 30
0.0
 11
-853.2384962803051
 21
476.0320438756082
 31
0.0
  0
LINE
  5
1FE
  8
LAYER0001
  6
CONTINUOUS
 62
     4
 10
-790.3353406414687
 20
566.032043875608
 30
0.0
 11
-853.2384962803051
 21
566.032043875608
 31
0.0
  0
TEXT
  5
1FF
  8
LAYER0001
 62
     4
 10
-853.2384962803051
 20
508.7820438756082
 30
0.0
 40
17.5
  1
90
 50
90.0
 41
0.7945945945945946
  7
DCSTYLE0
 72
     5
 11
-853.2384962803051
 21
533.2820438756082
 31
0.0
  0
ENDBLK
  5
E9
  8
0
  0
BLOCK
  8
0
  2
*D20
 70
     1
 10
0.0
 20
0.0
 30
0.0
  3
*D20
  1

  0
LINE
  5
200
  8
LAYER0001
  6
CONTINUOUS
 62
     4
 10
-796.5903426430712
 20
608.0038846978698
 30
0.0
 11
-651.5903426430712
 21
608.0038846978698
 31
0.0
  0
INSERT
  5
201
  8
LAYER0001
 62
     4
  2
_OPEN30
 10
-796.5903426430712
 20
608.0038846978698
 30
0.0
 41
15.00115266964712
 42
15.00081580252128
 50
180.0
  0
INSERT
  5
202
  8
LAYER0001
 62
     4
  2
_OPEN30
 10
-651.5903426430712
 20
608.0038846978698
 30
0.0
 41
15.00115266964712
 42
15.00081580252128
 50
360.0
  0
LINE
  5
203
  8
LAYER0001
  6
CONTINUOUS
 62
     4
 10
-796.5903426430712
 20
561.7145022411264
 30
0.0
 11
-796.5903426430712
 21
613.0038846978698
 31
0.0
  0
LINE
  5
204
  8
LAYER0001
  6
CONTINUOUS
 62
     4
 10
-651.5903426430712
 20
561.7145022411264
 30
0.0
 11
-651.5903426430712
 21
613.0038846978698
 31
0.0
  0
TEXT
  5
205
  8
LAYER0001
 62
     4
 10
-742.4653426430712
 20
613.0038846978698
 30
0.0
 40
17.5
  1
145
 41
0.7736842105263158
  7
DCSTYLE0
 72
     5
 11
-705.7153426430712
 21
613.0038846978698
 31
0.0
  0
ENDBLK
  5
EC
  8
0
  0
BLOCK
  8
0
  2
DC_GROUP_12
 70
     0
 10
0.0
 20
0.0
 30
0.0
  3
DC_GROUP_12
  1

  0
LINE
  5
206
  8
0
  6
CONTINUOUS
 62
     3
 10
-18.62068752846676
 20
521.0320438756082
 30
0.0
 11
-24.10551508576896
 21
530.5320438756082
 31
0.0
  0
LINE
  5
207
  8
0
  6
CONTINUOUS
 62
     3
 10
-24.10551508576896
 20
530.5320438756082
 30
0.0
 11
-35.07517020036971
 21
530.5320438756082
 31
0.0
  0
LINE
  5
208
  8
0
  6
CONTINUOUS
 62
     3
 10
-35.07517020036971
 20
530.5320438756082
 30
0.0
 11
-40.55999775767191
 21
521.0320438756082
 31
0.0
  0
LINE
  5
209
  8
0
  6
CONTINUOUS
 62
     3
 10
-40.55999775767191
 20
521.0320438756082
 30
0.0
 11
-35.07517020036971
 21
511.5320438756082
 31
0.0
  0
LINE
  5
20A
  8
0
  6
CONTINUOUS
 62
     3
 10
-35.07517020036971
 20
511.5320438756082
 30
0.0
 11
-24.10551508576896
 21
511.5320438756082
 31
0.0
  0
LINE
  5
20B
  8
0
  6
CONTINUOUS
 62
     3
 10
-24.10551508576896
 20
511.5320438756082
 30
0.0
 11
-18.62068752846676
 21
521.0320438756082
 31
0.0
  0
CIRCLE
  5
20C
  8
0
  6
CONTINUOUS
 62
     3
 10
-29.59034264307115
 20
521.0320438756082
 30
0.0
 40
6.0
  0
CIRCLE
  5
20D
  8
0
  6
CONTINUOUS
 62
     3
 10
-29.59034264307115
 20
521.0320438756082
 30
0.0
 40
12.0
  0
ENDBLK
  5
EF
  8
0
  0
BLOCK
  8
0
  2
DC_GROUP_13
 70
     0
 10
0.0
 20
0.0
 30
0.0
  3
DC_GROUP_13
  1

  0
LINE
  5
20E
  8
0
  6
CONTINUOUS
 62
     4
 10
-368.7639508928571
 20
545.3320438756077
 30
0.0
 11
-326.672488233466
 21
605.949492924121
 31
0.0
  0
INSERT
  5
20F
  8
0
 62
     4
  2
_OPEN30
 10
-368.7639508928571
 20
545.3320438756077
 30
0.0
 41
15.00115266964712
 42
15.00081580252128
 50
235.2247118226278
  0
CIRCLE
  5
210
  8
0
  6
CONTINUOUS
 62
     4
 10
-312.4135044642857
 20
626.484375
 30
0.0
 40
25.0
  0
TEXT
  5
211
  8
0
 62
     4
 10
-318.5385044642857
 20
617.734375
 30
0.0
 40
17.5
  1
1
 41
1.336363636363636
  7
DCSTYLE0
 72
     5
 11
-306.2885044642857
 21
617.734375
 31
0.0
  0
ENDBLK
  5
F2
  8
0
  0
BLOCK
  8
0
  2
DC_GROUP_14
 70
     0
 10
0.0
 20
0.0
 30
0.0
  3
DC_GROUP_14
  1

  0
LINE
  5
212
  8
0
  6
CONTINUOUS
 62
     4
 10
-43.86439732142857
 20
566.032043875608
 30
0.0
 11
-10.60202977802598
 21
611.3089413055977
 31
0.0
  0
INSERT
  5
213
  8
0
 62
     4
  2
_OPEN30
 10
-43.86439732142857
 20
566.032043875608
 30
0.0
 41
15.00115266964712
 42
15.00081580252128
 50
233.6973864161086
  0
CIRCLE
  5
214
  8
0
  6
CONTINUOUS
 62
     4
 10
4.19921875
 20
631.4564732142859
 30
0.0
 40
25.0
  0
TEXT
  5
215
  8
0
 62
     4
 10
-1.92578125
 20
622.7064732142859
 30
0.0
 40
17.5
  1
2
 41
0.8647058823529411
  7
DCSTYLE0
 72
     5
 11
10.32421875
 21
622.7064732142859
 31
0.0
  0
ENDBLK
  5
F5
  8
0
  0
BLOCK
  8
0
  2
DC_GROUP_15
 70
     0
 10
0.0
 20
0.0
 30
0.0
  3
DC_GROUP_15
  1

  0
LINE
  5
216
  8
0
  6
CONTINUOUS
 62
     4
 10
-147.5903426430712
 20
-531.1907251652215
 30
0.0
 11
-206.1119492239402
 21
-584.2749318386254
 31
0.0
  0
INSERT
  5
217
  8
0
 62
     4
  2
_OPEN30
 10
-147.5903426430712
 20
-531.1907251652215
 30
0.0
 41
15.00115266964712
 42
15.00081580252128
 50
42.21077319980547
  0
CIRCLE
  5
218
  8
0
  6
CONTINUOUS
 62
     4
 10
-224.6289062500003
 20
-601.0714285714279
 30
0.0
 40
25.0
  0
TEXT
  5
219
  8
0
 62
     4
 10
-230.7539062500003
 20
-609.8214285714279
 30
0.0
 40
17.5
  1
3
 41
0.8647058823529411
  7
DCSTYLE0
 72
     5
 11
-218.5039062500003
 21
-609.8214285714279
 31
0.0
  0
ENDBLK
  5
F8
  8
0
  0
BLOCK
  8
0
  2
_OPEN30
 70
     0
 10
0.0
 20
0.0
 30
0.0
  3
_OPEN30
  1

  0
LINE
  5
FD
  8
0
  6
BYBLOCK
 62
     0
 10
-1.0
 20
0.267949
 30
0.0
 11
0.0
 21
0.0
 31
0.0
  0
LINE
  5
FE
  8
0
  6
BYBLOCK
 62
     0
 10
0.0
 20
0.0
 30
0.0
 11
-1.0
 21
-0.267949
 31
0.0
  0
LINE
  5
FF
  8
0
  6
BYBLOCK
 62
     0
 10
0.0
 20
0.0
 30
0.0
 11
-1.0
 21
0.0
 31
0.0
  0
ENDBLK
  5
FC
  8
0
  0
ENDSEC
  0
SECTION
  2
ENTITIES
  0
LINE
  5
21A
  8
ZUWAKU
  6
CONTINUOUS
 62
   190
 10
865.8333333333275
 20
694.5833333333225
 30
0.0
 11
865.8333333333278
 21
569.5833333333226
 31
0.0
  0
LINE
  5
21B
  8
ZUWAKU
  6
CONTINUOUS
 62
   190
 10
1010.833333333327
 20
569.5833333333225
 30
0.0
 11
865.8333333333278
 21
569.5833333333226
 31
0.0
  0
TEXT
  5
21C
  8
ZUWAKU
 62
   190
 10
905.4771128963666
 20
646.0220265916582
 30
0.0
 40
20.0
  1
　
 41
1.12
  7
DCSTYLE0
 72
     5
 11
921.4771128963666
 21
646.0220265916582
 31
0.0
  0
TEXT
  5
21D
  8
ZUWAKU
 62
   190
 10
874.5201430249514
 20
622.1384459281965
 30
0.0
 40
20.0
  1
重量5.2kg
 41
0.9966101694915255
  7
DCSTYLE0
 72
     5
 11
986.5201430249514
 21
622.1384459281965
 31
0.0
  0
LINE
  5
21E
  8
ZUWAKU
  6
CONTINUOUS
 62
     3
 10
515.8333333333276
 20
-538.7500000000109
 30
0.0
 11
515.8333333333273
 21
-707.5000000000111
 31
0.0
  0
LINE
  5
21F
  8
ZUWAKU
  6
CONTINUOUS
 62
     3
 10
515.8333333333276
 20
-557.5000000000109
 30
0.0
 11
1010.833333333327
 21
-557.5000000000107
 31
0.0
  0
LINE
  5
220
  8
ZUWAKU
  6
CONTINUOUS
 62
     3
 10
1010.833333333327
 20
-538.7500000000124
 30
0.0
 11
515.8333333333273
 21
-538.7500000000124
 31
0.0
  0
LINE
  5
221
  8
ZUWAKU
  6
CONTINUOUS
 62
     4
 10
790.8333333333276
 20
-438.7500000000121
 30
0.0
 11
790.8333333333275
 21
-557.5000000000108
 31
0.0
  0
LINE
  5
222
  8
ZUWAKU
  6
CONTINUOUS
 62
     4
 10
808.333333333328
 20
-617.5000000000108
 30
0.0
 11
808.3333333333283
 21
-655.0000000000111
 31
0.0
  0
LINE
  5
223
  8
ZUWAKU
  6
CONTINUOUS
 62
     4
 10
876.7708333333294
 20
-557.5000000000108
 30
0.0
 11
876.7708333333278
 21
-655.0000000000108
 31
0.0
  0
LINE
  5
224
  8
ZUWAKU
  6
CONTINUOUS
 62
     4
 10
515.8333333333276
 20
-617.5000000000111
 30
0.0
 11
1010.833333333327
 21
-617.5000000000108
 31
0.0
  0
LINE
  5
225
  8
ZUWAKU
  6
CONTINUOUS
 62
     4
 10
1010.833333333327
 20
-655.0000000000111
 30
0.0
 11
515.8333333333276
 21
-655.0000000000111
 31
0.0
  0
LINE
  5
226
  8
ZUWAKU
  6
CONTINUOUS
 62
     4
 10
542.0833333333276
 20
-557.5000000000108
 30
0.0
 11
542.0833333333276
 21
-655.0000000000111
 31
0.0
  0
LINE
  5
227
  8
ZUWAKU
  6
CONTINUOUS
 62
     4
 10
834.5833333333278
 20
-617.5000000000108
 30
0.0
 11
834.5833333333279
 21
-655.0000000000111
 31
0.0
  0
LINE
  5
228
  8
ZUWAKU
  6
CONTINUOUS
 62
     4
 10
903.0208333333276
 20
-557.5000000000108
 30
0.0
 11
903.0208333333278
 21
-655.0000000000107
 31
0.0
  0
LINE
  5
229
  8
ZUWAKU
  6
CONTINUOUS
 62
     4
 10
565.8333333333285
 20
-438.7500000000114
 30
0.0
 11
565.8333333333276
 21
-557.5000000000108
 31
0.0
  0
LINE
  5
22A
  8
ZUWAKU
  6
CONTINUOUS
 62
     4
 10
715.8333333333253
 20
-438.7500000000118
 30
0.0
 11
715.8333333333279
 21
-557.5000000000108
 31
0.0
  0
LINE
  5
22B
  8
ZUWAKU
  6
CONTINUOUS
 62
     4
 10
840.833333333327
 20
-438.7500000000122
 30
0.0
 11
840.8333333333275
 21
-557.5000000000108
 31
0.0
  0
LINE
  5
22C
  8
ZUWAKU
  6
CONTINUOUS
 62
     4
 10
763.3333333333283
 20
-617.5000000000111
 30
0.0
 11
763.3333333333283
 21
-707.5000000000107
 31
0.0
  0
LINE
  5
22D
  8
ZUWAKU
  6
CONTINUOUS
 62
     4
 10
737.0833333333283
 20
-617.5000000000111
 30
0.0
 11
737.0833333333283
 21
-655.0000000000111
 31
0.0
  0
LINE
  5
22E
  8
ZUWAKU
  6
CONTINUOUS
 62
     4
 10
692.0833333333283
 20
-617.5000000000111
 30
0.0
 11
692.0833333333283
 21
-655.0000000000111
 31
0.0
  0
LINE
  5
22F
  8
ZUWAKU
  6
CONTINUOUS
 62
     4
 10
665.8333333333283
 20
-617.5000000000111
 30
0.0
 11
665.8333333333283
 21
-655.0000000000111
 31
0.0
  0
LINE
  5
230
  8
ZUWAKU
  6
CONTINUOUS
 62
     4
 10
557.0833333333273
 20
-655.0000000000111
 30
0.0
 11
557.0833333333273
 21
-707.5000000000107
 31
0.0
  0
LINE
  5
231
  8
ZUWAKU
  6
CONTINUOUS
 62
     4
 10
515.8333333333273
 20
-538.7500000000109
 30
0.0
 11
1010.833333333327
 21
-538.7500000000125
 31
0.0
  0
ARC
  5
232
  8
ZUWAKU
  6
CONTINUOUS
 62
     4
 10
812.0639003901903
 20
-670.2323869647539
 30
0.0
 40
0.3254016676835618
 50
89.99999999999883
 51
269.9999999999989
  0
LINE
  5
233
  8
ZUWAKU
  6
CONTINUOUS
 62
     4
 10
812.0639003901903
 20
-670.5577886324345
 30
0.0
 11
815.1552162331831
 21
-670.5577886324345
 31
0.0
  0
ARC
  5
234
  8
ZUWAKU
  6
CONTINUOUS
 62
     4
 10
815.1552162331831
 20
-675.6015144815347
 30
0.0
 40
5.043725849094973
 50
0.0000000000000114
 51
89.99999999999905
  0
LINE
  5
235
  8
ZUWAKU
  6
CONTINUOUS
 62
     4
 10
820.1989420822798
 20
-675.6015144815347
 30
0.0
 11
820.1989420822798
 21
-696.2645203794391
 31
0.0
  0
LINE
  5
236
  8
ZUWAKU
  6
CONTINUOUS
 62
     4
 10
820.1989420822798
 20
-696.2645203794391
 30
0.0
 11
773.0157002681626
 21
-696.2645203794391
 31
0.0
  0
LINE
  5
237
  8
ZUWAKU
  6
CONTINUOUS
 62
     4
 10
773.0157002681626
 20
-696.2645203794391
 30
0.0
 11
773.0157002681626
 21
-675.6015144815347
 31
0.0
  0
ARC
  5
238
  8
ZUWAKU
  6
CONTINUOUS
 62
     4
 10
778.0594261172594
 20
-675.6015144815347
 30
0.0
 40
5.043725849094973
 50
90.0000000000001
 51
179.9999999999999
  0
LINE
  5
239
  8
ZUWAKU
  6
CONTINUOUS
 62
     4
 10
778.0594261172594
 20
-670.5577886324345
 30
0.0
 11
781.1507419602522
 21
-670.5577886324345
 31
0.0
  0
ARC
  5
23A
  8
ZUWAKU
  6
CONTINUOUS
 62
     4
 10
781.1507419602522
 20
-670.2323869647539
 30
0.0
 40
0.3254016676835588
 50
270.0000000000001
 51
90.0000000000004
  0
LINE
  5
23B
  8
ZUWAKU
  6
CONTINUOUS
 62
     4
 10
781.1507419602522
 20
-669.9069852970733
 30
0.0
 11
778.0594261172594
 21
-669.9069852970733
 31
0.0
  0
ARC
  5
23C
  8
ZUWAKU
  6
CONTINUOUS
 62
     4
 10
778.0594261172594
 20
-675.6015144815347
 30
0.0
 40
5.69452918446207
 50
90.00000000000058
 51
179.9999999999999
  0
LINE
  5
23D
  8
ZUWAKU
  6
CONTINUOUS
 62
     4
 10
772.364896932798
 20
-675.6015144815347
 30
0.0
 11
772.364896932798
 21
-696.9153237148071
 31
0.0
  0
LINE
  5
23E
  8
ZUWAKU
  6
CONTINUOUS
 62
     4
 10
772.364896932798
 20
-696.9153237148071
 30
0.0
 11
820.8497454176444
 21
-696.9153237148071
 31
0.0
  0
LINE
  5
23F
  8
ZUWAKU
  6
CONTINUOUS
 62
     4
 10
820.8497454176444
 20
-696.9153237148071
 30
0.0
 11
820.8497454176444
 21
-675.6015144815347
 31
0.0
  0
ARC
  5
240
  8
ZUWAKU
  6
CONTINUOUS
 62
     4
 10
815.1552162331831
 20
-675.6015144815347
 30
0.0
 40
5.69452918446207
 50
0.0000000000000114
 51
89.99999999999905
  0
LINE
  5
241
  8
ZUWAKU
  6
CONTINUOUS
 62
     4
 10
815.1552162331831
 20
-669.9069852970733
 30
0.0
 11
812.0639003901903
 21
-669.9069852970733
 31
0.0
  0
LINE
  5
242
  8
ZUWAKU
  6
CONTINUOUS
 62
     4
 10
807.1602413092462
 20
-687.6137427041617
 30
0.0
 11
807.2411816950303
 21
-686.9961665679448
 31
0.0
  0
LINE
  5
243
  8
ZUWAKU
  6
CONTINUOUS
 62
     4
 10
807.2411816950303
 20
-686.9961665679448
 30
0.0
 11
807.246144987708
 21
-686.3686418474576
 31
0.0
  0
LINE
  5
244
  8
ZUWAKU
  6
CONTINUOUS
 62
     4
 10
807.246144987708
 20
-686.3686418474576
 30
0.0
 11
807.1750934136203
 21
-685.7359443847376
 31
0.0
  0
LINE
  5
245
  8
ZUWAKU
  6
CONTINUOUS
 62
     4
 10
807.1750934136203
 20
-685.7359443847376
 30
0.0
 11
807.0285677181535
 21
-685.1028893895163
 31
0.0
  0
LINE
  5
246
  8
ZUWAKU
  6
CONTINUOUS
 62
     4
 10
807.0285677181535
 20
-685.1028893895163
 30
0.0
 11
806.8076830503192
 21
-684.4742947925538
 31
0.0
  0
LINE
  5
247
  8
ZUWAKU
  6
CONTINUOUS
 62
     4
 10
806.8076830503192
 20
-684.4742947925538
 30
0.0
 11
806.7623541365306
 21
-684.378661101794
 31
0.0
  0
LINE
  5
248
  8
ZUWAKU
  6
CONTINUOUS
 62
     4
 10
805.3120762107023
 20
-682.2008877386684
 30
0.0
 11
805.2223667092421
 21
-682.0989303130937
 31
0.0
  0
LINE
  5
249
  8
ZUWAKU
  6
CONTINUOUS
 62
     4
 10
805.2223667092421
 20
-682.0989303130937
 30
0.0
 11
804.66568624657
 21
-681.5624573815153
 31
0.0
  0
LINE
  5
24A
  8
ZUWAKU
  6
CONTINUOUS
 62
     4
 10
804.66568624657
 20
-681.5624573815153
 30
0.0
 11
804.0526297662798
 21
-681.0573896735405
 31
0.0
  0
LINE
  5
24B
  8
ZUWAKU
  6
CONTINUOUS
 62
     4
 10
804.0526297662798
 20
-681.0573896735405
 30
0.0
 11
803.3878629983606
 21
-680.587571059405
 31
0.0
  0
LINE
  5
24C
  8
ZUWAKU
  6
CONTINUOUS
 62
     4
 10
803.3878629983606
 20
-680.587571059405
 30
0.0
 11
802.6764452193113
 21
-680.1565771424412
 31
0.0
  0
LINE
  5
24D
  8
ZUWAKU
  6
CONTINUOUS
 62
     4
 10
802.6764452193113
 20
-680.1565771424412
 30
0.0
 11
801.9237907479949
 21
-679.7676880465956
 31
0.0
  0
LINE
  5
24E
  8
ZUWAKU
  6
CONTINUOUS
 62
     4
 10
801.9237907479949
 20
-679.7676880465956
 30
0.0
 11
801.1356277394095
 21
-679.4238634527101
 31
0.0
  0
LINE
  5
24F
  8
ZUWAKU
  6
CONTINUOUS
 62
     4
 10
801.1356277394095
 20
-679.4238634527101
 30
0.0
 11
800.3179545899486
 21
-679.1277200735481
 31
0.0
  0
LINE
  5
250
  8
ZUWAKU
  6
CONTINUOUS
 62
     4
 10
800.3179545899486
 20
-679.1277200735481
 30
0.0
 11
799.476994286011
 21
-678.8815117390463
 31
0.0
  0
LINE
  5
251
  8
ZUWAKU
  6
CONTINUOUS
 62
     4
 10
799.476994286011
 20
-678.8815117390463
 30
0.0
 11
798.6191470432909
 21
-678.6871122432904
 31
0.0
  0
LINE
  5
252
  8
ZUWAKU
  6
CONTINUOUS
 62
     4
 10
798.6191470432909
 20
-678.6871122432904
 30
0.0
 11
797.7509415972868
 21
-678.546001083826
 31
0.0
  0
LINE
  5
253
  8
ZUWAKU
  6
CONTINUOUS
 62
     4
 10
797.7509415972868
 20
-678.546001083826
 30
0.0
 11
796.8789855156849
 21
-678.4592522017788
 31
0.0
  0
LINE
  5
254
  8
ZUWAKU
  6
CONTINUOUS
 62
     4
 10
796.8789855156849
 20
-678.4592522017788
 30
0.0
 11
796.0099149107641
 21
-678.4275258085295
 31
0.0
  0
LINE
  5
255
  8
ZUWAKU
  6
CONTINUOUS
 62
     4
 10
796.0099149107641
 20
-678.4275258085295
 30
0.0
 11
795.1503439345852
 21
-678.4510633610744
 31
0.0
  0
LINE
  5
256
  8
ZUWAKU
  6
CONTINUOUS
 62
     4
 10
795.1503439345852
 20
-678.4510633610744
 30
0.0
 11
794.3068144413037
 21
-678.5296857244389
 31
0.0
  0
LINE
  5
257
  8
ZUWAKU
  6
CONTINUOUS
 62
     4
 10
794.3068144413037
 20
-678.5296857244389
 30
0.0
 11
793.4857461997019
 21
-678.6627945349646
 31
0.0
  0
LINE
  5
258
  8
ZUWAKU
  6
CONTINUOUS
 62
     4
 10
793.4857461997019
 20
-678.6627945349646
 30
0.0
 11
792.6933880348686
 21
-678.8493767542177
 31
0.0
  0
LINE
  5
259
  8
ZUWAKU
  6
CONTINUOUS
 62
     4
 10
792.6933880348686
 20
-678.8493767542177
 30
0.0
 11
791.9357702708778
 21
-679.0880123788593
 31
0.0
  0
LINE
  5
25A
  8
ZUWAKU
  6
CONTINUOUS
 62
     4
 10
791.9357702708778
 20
-679.0880123788593
 30
0.0
 11
791.2186588363768
 21
-679.3768852476937
 31
0.0
  0
LINE
  5
25B
  8
ZUWAKU
  6
CONTINUOUS
 62
     4
 10
791.2186588363768
 20
-679.3768852476937
 30
0.0
 11
790.5475113823861
 21
-679.713796863753
 31
0.0
  0
LINE
  5
25C
  8
ZUWAKU
  6
CONTINUOUS
 62
     4
 10
790.5475113823861
 20
-679.713796863753
 30
0.0
 11
789.9274357462793
 21
-680.0961831262139
 31
0.0
  0
LINE
  5
25D
  8
ZUWAKU
  6
CONTINUOUS
 62
     4
 10
789.9274357462793
 20
-680.0961831262139
 30
0.0
 11
789.3631510780604
 21
-680.5211338447343
 31
0.0
  0
LINE
  5
25E
  8
ZUWAKU
  6
CONTINUOUS
 62
     4
 10
789.3631510780604
 20
-680.5211338447343
 30
0.0
 11
788.858951924778
 21
-680.9854148877394
 31
0.0
  0
LINE
  5
25F
  8
ZUWAKU
  6
CONTINUOUS
 62
     4
 10
788.858951924778
 20
-680.9854148877394
 30
0.0
 11
788.4186755464311
 21
-681.4854927961578
 31
0.0
  0
LINE
  5
260
  8
ZUWAKU
  6
CONTINUOUS
 62
     4
 10
788.4186755464311
 20
-681.4854927961578
 30
0.0
 11
788.3124951362636
 21
-681.6369535535914
 31
0.0
  0
LINE
  5
261
  8
ZUWAKU
  6
CONTINUOUS
 62
     4
 10
787.9066220585146
 20
-682.2746506903813
 30
0.0
 11
787.7427821986028
 21
-682.5775721592872
 31
0.0
  0
LINE
  5
262
  8
ZUWAKU
  6
CONTINUOUS
 62
     4
 10
787.7427821986028
 20
-682.5775721592872
 30
0.0
 11
787.7333495339003
 21
-682.6014610851898
 31
0.0
  0
LINE
  5
263
  8
ZUWAKU
  6
CONTINUOUS
 62
     4
 10
787.4999417998749
 20
-683.2089689851141
 30
0.0
 11
787.3560077119289
 21
-683.7641896552809
 31
0.0
  0
LINE
  5
264
  8
ZUWAKU
  6
CONTINUOUS
 62
     4
 10
787.3560077119289
 20
-683.7641896552809
 30
0.0
 11
787.2750673261448
 21
-684.3817657915047
 31
0.0
  0
LINE
  5
265
  8
ZUWAKU
  6
CONTINUOUS
 62
     4
 10
787.2750673261448
 20
-684.3817657915047
 30
0.0
 11
787.2701040334705
 21
-685.009290511985
 31
0.0
  0
LINE
  5
266
  8
ZUWAKU
  6
CONTINUOUS
 62
     4
 10
787.2701040334705
 20
-685.009290511985
 30
0.0
 11
787.3411556075582
 21
-685.641987974705
 31
0.0
  0
LINE
  5
267
  8
ZUWAKU
  6
CONTINUOUS
 62
     4
 10
787.3411556075582
 20
-685.641987974705
 30
0.0
 11
787.487681303025
 21
-686.2750429699263
 31
0.0
  0
LINE
  5
268
  8
ZUWAKU
  6
CONTINUOUS
 62
     4
 10
787.487681303025
 20
-686.2750429699263
 30
0.0
 11
787.7085659708594
 21
-686.9036375668957
 31
0.0
  0
LINE
  5
269
  8
ZUWAKU
  6
CONTINUOUS
 62
     4
 10
787.7085659708594
 20
-686.9036375668957
 30
0.0
 11
788.0021285453604
 21
-687.5229877811653
 31
0.0
  0
LINE
  5
26A
  8
ZUWAKU
  6
CONTINUOUS
 62
     4
 10
788.0021285453604
 20
-687.5229877811653
 30
0.0
 11
788.3661348380788
 21
-688.1283799836347
 31
0.0
  0
LINE
  5
26B
  8
ZUWAKU
  6
CONTINUOUS
 62
     4
 10
788.3661348380788
 20
-688.1283799836347
 30
0.0
 11
788.7978145413372
 21
-688.7152067741004
 31
0.0
  0
LINE
  5
26C
  8
ZUWAKU
  6
CONTINUOUS
 62
     4
 10
788.7978145413372
 20
-688.7152067741004
 30
0.0
 11
789.2938823119364
 21
-689.279002046349
 31
0.0
  0
LINE
  5
26D
  8
ZUWAKU
  6
CONTINUOUS
 62
     4
 10
789.2938823119364
 20
-689.279002046349
 30
0.0
 11
789.8505627746051
 21
-689.8154749779342
 31
0.0
  0
LINE
  5
26E
  8
ZUWAKU
  6
CONTINUOUS
 62
     4
 10
789.8505627746051
 20
-689.8154749779342
 30
0.0
 11
790.4636192548953
 21
-690.3205426859022
 31
0.0
  0
LINE
  5
26F
  8
ZUWAKU
  6
CONTINUOUS
 62
     4
 10
790.4636192548953
 20
-690.3205426859022
 30
0.0
 11
791.128386022818
 21
-690.7903613000376
 31
0.0
  0
LINE
  5
270
  8
ZUWAKU
  6
CONTINUOUS
 62
     4
 10
791.128386022818
 20
-690.7903613000376
 30
0.0
 11
791.8398038018672
 21
-691.2213552170083
 31
0.0
  0
LINE
  5
271
  8
ZUWAKU
  6
CONTINUOUS
 62
     4
 10
791.8398038018672
 20
-691.2213552170083
 30
0.0
 11
792.5924582731802
 21
-691.610244312847
 31
0.0
  0
LINE
  5
272
  8
ZUWAKU
  6
CONTINUOUS
 62
     4
 10
792.5924582731802
 20
-691.610244312847
 30
0.0
 11
793.380621281769
 21
-691.9540689067326
 31
0.0
  0
LINE
  5
273
  8
ZUWAKU
  6
CONTINUOUS
 62
     4
 10
793.380621281769
 20
-691.9540689067326
 30
0.0
 11
794.1982944312265
 21
-692.2502122858946
 31
0.0
  0
LINE
  5
274
  8
ZUWAKU
  6
CONTINUOUS
 62
     4
 10
794.1982944312265
 20
-692.2502122858946
 30
0.0
 11
795.0392547351676
 21
-692.4964206203963
 31
0.0
  0
LINE
  5
275
  8
ZUWAKU
  6
CONTINUOUS
 62
     4
 10
795.0392547351676
 20
-692.4964206203963
 30
0.0
 11
795.8971019778876
 21
-692.6908201161523
 31
0.0
  0
LINE
  5
276
  8
ZUWAKU
  6
CONTINUOUS
 62
     4
 10
795.8971019778876
 20
-692.6908201161523
 30
0.0
 11
796.7653074238883
 21
-692.8319312756234
 31
0.0
  0
LINE
  5
277
  8
ZUWAKU
  6
CONTINUOUS
 62
     4
 10
796.7653074238883
 20
-692.8319312756234
 30
0.0
 11
797.6372635054936
 21
-692.9186801576639
 31
0.0
  0
LINE
  5
278
  8
ZUWAKU
  6
CONTINUOUS
 62
     4
 10
797.6372635054936
 20
-692.9186801576639
 30
0.0
 11
798.5063341104144
 21
-692.95040655092
 31
0.0
  0
LINE
  5
279
  8
ZUWAKU
  6
CONTINUOUS
 62
     4
 10
798.5063341104144
 20
-692.95040655092
 30
0.0
 11
799.3659050865899
 21
-692.9268689983683
 31
0.0
  0
LINE
  5
27A
  8
ZUWAKU
  6
CONTINUOUS
 62
     4
 10
799.3659050865899
 20
-692.9268689983683
 30
0.0
 11
800.2094345798714
 21
-692.8482466350038
 31
0.0
  0
LINE
  5
27B
  8
ZUWAKU
  6
CONTINUOUS
 62
     4
 10
800.2094345798714
 20
-692.8482466350038
 30
0.0
 11
801.0305028214766
 21
-692.7151378244848
 31
0.0
  0
LINE
  5
27C
  8
ZUWAKU
  6
CONTINUOUS
 62
     4
 10
801.0305028214766
 20
-692.7151378244848
 30
0.0
 11
801.8228609863099
 21
-692.5285556052249
 31
0.0
  0
LINE
  5
27D
  8
ZUWAKU
  6
CONTINUOUS
 62
     4
 10
801.8228609863099
 20
-692.5285556052249
 30
0.0
 11
802.5804787503007
 21
-692.2899199805834
 31
0.0
  0
LINE
  5
27E
  8
ZUWAKU
  6
CONTINUOUS
 62
     4
 10
802.5804787503007
 20
-692.2899199805834
 30
0.0
 11
803.2975901848017
 21
-692.0010471117557
 31
0.0
  0
LINE
  5
27F
  8
ZUWAKU
  6
CONTINUOUS
 62
     4
 10
803.2975901848017
 20
-692.0010471117557
 30
0.0
 11
803.9687376387924
 21
-691.6641354956896
 31
0.0
  0
LINE
  5
280
  8
ZUWAKU
  6
CONTINUOUS
 62
     4
 10
803.9687376387924
 20
-691.6641354956896
 30
0.0
 11
804.5888132748992
 21
-691.2817492332288
 31
0.0
  0
LINE
  5
281
  8
ZUWAKU
  6
CONTINUOUS
 62
     4
 10
804.5888132748992
 20
-691.2817492332288
 30
0.0
 11
805.1530979431182
 21
-690.8567985147151
 31
0.0
  0
LINE
  5
282
  8
ZUWAKU
  6
CONTINUOUS
 62
     4
 10
805.1530979431182
 20
-690.8567985147151
 30
0.0
 11
805.6572970964005
 21
-690.3925174717033
 31
0.0
  0
LINE
  5
283
  8
ZUWAKU
  6
CONTINUOUS
 62
     4
 10
805.6572970964005
 20
-690.3925174717033
 30
0.0
 11
805.7978472323914
 21
-690.2328767971408
 31
0.0
  0
LINE
  5
284
  8
ZUWAKU
  6
CONTINUOUS
 62
     4
 10
806.2310385719725
 20
-689.702058638175
 30
0.0
 11
806.4705763090656
 21
-689.3603706842923
 31
0.0
  0
LINE
  5
285
  8
ZUWAKU
  6
CONTINUOUS
 62
     4
 10
806.4705763090656
 20
-689.3603706842923
 30
0.0
 11
806.6636199861348
 21
-689.0034546429074
 31
0.0
  0
LINE
  5
286
  8
ZUWAKU
  6
CONTINUOUS
 62
     4
 10
806.945418929268
 20
-688.3648786827307
 30
0.0
 11
807.0039398355636
 21
-688.2166701288229
 31
0.0
  0
LINE
  5
287
  8
ZUWAKU
  6
CONTINUOUS
 62
     4
 10
807.0039398355636
 20
-688.2166701288229
 30
0.0
 11
807.1602413092462
 21
-687.6137427041617
 31
0.0
  0
LINE
  5
288
  8
ZUWAKU
  6
CONTINUOUS
 62
     4
 10
806.5213950641721
 20
-687.489563573552
 30
0.0
 11
806.5971134895842
 21
-686.9118310590243
 31
0.0
  0
LINE
  5
289
  8
ZUWAKU
  6
CONTINUOUS
 62
     4
 10
806.5971134895842
 20
-686.9118310590243
 30
0.0
 11
806.6017565698298
 21
-686.3247918043799
 31
0.0
  0
LINE
  5
28A
  8
ZUWAKU
  6
CONTINUOUS
 62
     4
 10
806.6017565698298
 20
-686.3247918043799
 30
0.0
 11
806.5352889682636
 21
-685.7329135328
 31
0.0
  0
LINE
  5
28B
  8
ZUWAKU
  6
CONTINUOUS
 62
     4
 10
806.5352889682636
 20
-685.7329135328
 30
0.0
 11
806.3982165434716
 21
-685.1407007953371
 31
0.0
  0
LINE
  5
28C
  8
ZUWAKU
  6
CONTINUOUS
 62
     4
 10
806.3982165434716
 20
-685.1407007953371
 30
0.0
 11
806.2190580538295
 21
-684.6308507469216
 31
0.0
  0
LINE
  5
28D
  8
ZUWAKU
  6
CONTINUOUS
 62
     4
 10
805.9464654578057
 20
-684.0355195220154
 30
0.0
 11
805.9169594458019
 21
-683.9732685525682
 31
0.0
  0
LINE
  5
28E
  8
ZUWAKU
  6
CONTINUOUS
 62
     4
 10
805.9169594458019
 20
-683.9732685525682
 30
0.0
 11
805.5764374300322
 21
-683.4069339115472
 31
0.0
  0
LINE
  5
28F
  8
ZUWAKU
  6
CONTINUOUS
 62
     4
 10
805.5764374300322
 20
-683.4069339115472
 30
0.0
 11
805.1646573133241
 21
-682.8471586836536
 31
0.0
  0
LINE
  5
290
  8
ZUWAKU
  6
CONTINUOUS
 62
     4
 10
804.5476905439643
 20
-682.175530454495
 30
0.0
 11
804.1877790377982
 21
-681.8286837555916
 31
0.0
  0
LINE
  5
291
  8
ZUWAKU
  6
CONTINUOUS
 62
     4
 10
804.1877790377982
 20
-681.8286837555916
 30
0.0
 11
803.6142745884952
 21
-681.3562010610353
 31
0.0
  0
LINE
  5
292
  8
ZUWAKU
  6
CONTINUOUS
 62
     4
 10
803.6142745884952
 20
-681.3562010610353
 30
0.0
 11
802.99239599915
 21
-680.9166933252282
 31
0.0
  0
LINE
  5
293
  8
ZUWAKU
  6
CONTINUOUS
 62
     4
 10
802.99239599915
 20
-680.9166933252282
 30
0.0
 11
802.3268761413267
 21
-680.5135054674274
 31
0.0
  0
LINE
  5
294
  8
ZUWAKU
  6
CONTINUOUS
 62
     4
 10
802.3268761413267
 20
-680.5135054674274
 30
0.0
 11
801.622780023002
 21
-680.1497059906665
 31
0.0
  0
LINE
  5
295
  8
ZUWAKU
  6
CONTINUOUS
 62
     4
 10
801.622780023002
 20
-680.1497059906665
 30
0.0
 11
800.8854662407732
 21
-679.8280636286454
 31
0.0
  0
LINE
  5
296
  8
ZUWAKU
  6
CONTINUOUS
 62
     4
 10
800.8854662407732
 20
-679.8280636286454
 30
0.0
 11
800.1205461977322
 21
-679.5510262739485
 31
0.0
  0
LINE
  5
297
  8
ZUWAKU
  6
CONTINUOUS
 62
     4
 10
800.1205461977322
 20
-679.5510262739485
 30
0.0
 11
799.3338413972726
 21
-679.3207023481186
 31
0.0
  0
LINE
  5
298
  8
ZUWAKU
  6
CONTINUOUS
 62
     4
 10
799.3338413972726
 20
-679.3207023481186
 30
0.0
 11
798.531339137955
 21
-679.138844755319
 31
0.0
  0
LINE
  5
299
  8
ZUWAKU
  6
CONTINUOUS
 62
     4
 10
798.531339137955
 20
-679.138844755319
 30
0.0
 11
797.7191469465329
 21
-679.0068375416222
 31
0.0
  0
LINE
  5
29A
  8
ZUWAKU
  6
CONTINUOUS
 62
     4
 10
797.7191469465329
 20
-679.0068375416222
 30
0.0
 11
796.9034460960024
 21
-678.9256853616489
 31
0.0
  0
LINE
  5
29B
  8
ZUWAKU
  6
CONTINUOUS
 62
     4
 10
796.9034460960024
 20
-678.9256853616489
 30
0.0
 11
796.0904445623653
 21
-678.896005832476
 31
0.0
  0
LINE
  5
29C
  8
ZUWAKU
  6
CONTINUOUS
 62
     4
 10
796.0904445623653
 20
-678.896005832476
 30
0.0
 11
795.2863297781978
 21
-678.9180248332495
 31
0.0
  0
LINE
  5
29D
  8
ZUWAKU
  6
CONTINUOUS
 62
     4
 10
795.2863297781978
 20
-678.9180248332495
 30
0.0
 11
794.4972215425487
 21
-678.991574786076
 31
0.0
  0
LINE
  5
29E
  8
ZUWAKU
  6
CONTINUOUS
 62
     4
 10
794.4972215425487
 20
-678.991574786076
 30
0.0
 11
793.7291254455654
 21
-679.1160959313975
 31
0.0
  0
LINE
  5
29F
  8
ZUWAKU
  6
CONTINUOUS
 62
     4
 10
793.7291254455654
 20
-679.1160959313975
 30
0.0
 11
792.9878871623334
 21
-679.2906405881245
 31
0.0
  0
LINE
  5
2A0
  8
ZUWAKU
  6
CONTINUOUS
 62
     4
 10
792.9878871623334
 20
-679.2906405881245
 30
0.0
 11
792.2791479637631
 21
-679.5138803660147
 31
0.0
  0
LINE
  5
2A1
  8
ZUWAKU
  6
CONTINUOUS
 62
     4
 10
792.2791479637631
 20
-679.5138803660147
 30
0.0
 11
791.6083017831006
 21
-679.7841162755667
 31
0.0
  0
LINE
  5
2A2
  8
ZUWAKU
  6
CONTINUOUS
 62
     4
 10
791.6083017831006
 20
-679.7841162755667
 30
0.0
 11
790.9804541648516
 21
-680.0992916583327
 31
0.0
  0
LINE
  5
2A3
  8
ZUWAKU
  6
CONTINUOUS
 62
     4
 10
790.9804541648516
 20
-680.0992916583327
 30
0.0
 11
790.4003834084933
 21
-680.4570078393458
 31
0.0
  0
LINE
  5
2A4
  8
ZUWAKU
  6
CONTINUOUS
 62
     4
 10
790.4003834084933
 20
-680.4570078393458
 30
0.0
 11
789.8725042027406
 21
-680.8545423824721
 31
0.0
  0
LINE
  5
2A5
  8
ZUWAKU
  6
CONTINUOUS
 62
     4
 10
789.8725042027406
 20
-680.8545423824721
 30
0.0
 11
789.4008340270882
 21
-681.2888698098031
 31
0.0
  0
LINE
  5
2A6
  8
ZUWAKU
  6
CONTINUOUS
 62
     4
 10
789.4008340270882
 20
-681.2888698098031
 30
0.0
 11
789.0721877962342
 21
-681.6621551546909
 31
0.0
  0
LINE
  5
2A7
  8
ZUWAKU
  6
CONTINUOUS
 62
     4
 10
788.6163516306324
 20
-682.2981948451484
 30
0.0
 11
788.3566752509905
 21
-682.7783072573793
 31
0.0
  0
LINE
  5
2A8
  8
ZUWAKU
  6
CONTINUOUS
 62
     4
 10
788.3566752509905
 20
-682.7783072573793
 30
0.0
 11
788.3352703242754
 21
-682.8325168285533
 31
0.0
  0
LINE
  5
2A9
  8
ZUWAKU
  6
CONTINUOUS
 62
     4
 10
788.1102472330958
 20
-683.4432432913154
 30
0.0
 11
787.9948539570064
 21
-683.8883687858906
 31
0.0
  0
LINE
  5
2AA
  8
ZUWAKU
  6
CONTINUOUS
 62
     4
 10
787.9948539570064
 20
-683.8883687858906
 30
0.0
 11
787.9191355315943
 21
-684.4661013004184
 31
0.0
  0
LINE
  5
2AB
  8
ZUWAKU
  6
CONTINUOUS
 62
     4
 10
787.9191355315943
 20
-684.4661013004184
 30
0.0
 11
787.9144924513487
 21
-685.0531405550696
 31
0.0
  0
LINE
  5
2AC
  8
ZUWAKU
  6
CONTINUOUS
 62
     4
 10
787.9144924513487
 20
-685.0531405550696
 30
0.0
 11
787.980960052915
 21
-685.6450188266426
 31
0.0
  0
LINE
  5
2AD
  8
ZUWAKU
  6
CONTINUOUS
 62
     4
 10
787.980960052915
 20
-685.6450188266426
 30
0.0
 11
788.118032477707
 21
-686.2372315641055
 31
0.0
  0
LINE
  5
2AE
  8
ZUWAKU
  6
CONTINUOUS
 62
     4
 10
788.118032477707
 20
-686.2372315641055
 30
0.0
 11
788.3246665218082
 21
-686.8252716709485
 31
0.0
  0
LINE
  5
2AF
  8
ZUWAKU
  6
CONTINUOUS
 62
     4
 10
788.3246665218082
 20
-686.8252716709485
 30
0.0
 11
788.5992895753732
 21
-687.4046638068812
 31
0.0
  0
LINE
  5
2B0
  8
ZUWAKU
  6
CONTINUOUS
 62
     4
 10
788.5992895753732
 20
-687.4046638068812
 30
0.0
 11
788.9398115911429
 21
-687.9709984479023
 31
0.0
  0
LINE
  5
2B1
  8
ZUWAKU
  6
CONTINUOUS
 62
     4
 10
788.9398115911429
 20
-687.9709984479023
 30
0.0
 11
789.3436409909652
 21
-688.5199654454327
 31
0.0
  0
LINE
  5
2B2
  8
ZUWAKU
  6
CONTINUOUS
 62
     4
 10
789.3436409909652
 20
-688.5199654454327
 30
0.0
 11
789.8077043892665
 21
-689.0473868291479
 31
0.0
  0
LINE
  5
2B3
  8
ZUWAKU
  6
CONTINUOUS
 62
     4
 10
789.8077043892665
 20
-689.0473868291479
 30
0.0
 11
790.3284699833803
 21
-689.5492486038511
 31
0.0
  0
LINE
  5
2B4
  8
ZUWAKU
  6
CONTINUOUS
 62
     4
 10
790.3284699833803
 20
-689.5492486038511
 30
0.0
 11
790.9019744326833
 21
-690.0217312984073
 31
0.0
  0
LINE
  5
2B5
  8
ZUWAKU
  6
CONTINUOUS
 62
     4
 10
790.9019744326833
 20
-690.0217312984073
 30
0.0
 11
791.5238530220286
 21
-690.4612390342145
 31
0.0
  0
LINE
  5
2B6
  8
ZUWAKU
  6
CONTINUOUS
 62
     4
 10
791.5238530220286
 20
-690.4612390342145
 30
0.0
 11
792.1893728798484
 21
-690.864426892022
 31
0.0
  0
LINE
  5
2B7
  8
ZUWAKU
  6
CONTINUOUS
 62
     4
 10
792.1893728798484
 20
-690.864426892022
 30
0.0
 11
792.8934689981766
 21
-691.2282263687762
 31
0.0
  0
LINE
  5
2B8
  8
ZUWAKU
  6
CONTINUOUS
 62
     4
 10
792.8934689981766
 20
-691.2282263687762
 30
0.0
 11
793.6307827804019
 21
-691.5498687307972
 31
0.0
  0
LINE
  5
2B9
  8
ZUWAKU
  6
CONTINUOUS
 62
     4
 10
793.6307827804019
 20
-691.5498687307972
 30
0.0
 11
794.3957028234463
 21
-691.8269060854941
 31
0.0
  0
LINE
  5
2BA
  8
ZUWAKU
  6
CONTINUOUS
 62
     4
 10
794.3957028234463
 20
-691.8269060854941
 30
0.0
 11
795.1824076239025
 21
-692.057230011324
 31
0.0
  0
LINE
  5
2BB
  8
ZUWAKU
  6
CONTINUOUS
 62
     4
 10
795.1824076239025
 20
-692.057230011324
 30
0.0
 11
795.9849098832235
 21
-692.2390876041236
 31
0.0
  0
LINE
  5
2BC
  8
ZUWAKU
  6
CONTINUOUS
 62
     4
 10
795.9849098832235
 20
-692.2390876041236
 30
0.0
 11
796.7971020746456
 21
-692.3710948178204
 31
0.0
  0
LINE
  5
2BD
  8
ZUWAKU
  6
CONTINUOUS
 62
     4
 10
796.7971020746456
 20
-692.3710948178204
 30
0.0
 11
797.6128029251761
 21
-692.4522469978006
 31
0.0
  0
LINE
  5
2BE
  8
ZUWAKU
  6
CONTINUOUS
 62
     4
 10
797.6128029251761
 20
-692.4522469978006
 30
0.0
 11
798.4258044588132
 21
-692.4819265269666
 31
0.0
  0
LINE
  5
2BF
  8
ZUWAKU
  6
CONTINUOUS
 62
     4
 10
798.4258044588132
 20
-692.4819265269666
 30
0.0
 11
799.2299192429773
 21
-692.4599075261999
 31
0.0
  0
LINE
  5
2C0
  8
ZUWAKU
  6
CONTINUOUS
 62
     4
 10
799.2299192429773
 20
-692.4599075261999
 30
0.0
 11
800.0190274786264
 21
-692.3863575733735
 31
0.0
  0
LINE
  5
2C1
  8
ZUWAKU
  6
CONTINUOUS
 62
     4
 10
800.0190274786264
 20
-692.3863575733735
 30
0.0
 11
800.7871235756131
 21
-692.2618364280452
 31
0.0
  0
LINE
  5
2C2
  8
ZUWAKU
  6
CONTINUOUS
 62
     4
 10
800.7871235756131
 20
-692.2618364280452
 30
0.0
 11
801.5283618588451
 21
-692.087291771325
 31
0.0
  0
LINE
  5
2C3
  8
ZUWAKU
  6
CONTINUOUS
 62
     4
 10
801.5283618588451
 20
-692.087291771325
 30
0.0
 11
802.2371010574154
 21
-691.8640519934279
 31
0.0
  0
LINE
  5
2C4
  8
ZUWAKU
  6
CONTINUOUS
 62
     4
 10
802.2371010574154
 20
-691.8640519934279
 30
0.0
 11
802.9079472380779
 21
-691.5938160838828
 31
0.0
  0
LINE
  5
2C5
  8
ZUWAKU
  6
CONTINUOUS
 62
     4
 10
802.9079472380779
 20
-691.5938160838828
 30
0.0
 11
803.5357948563269
 21
-691.2786407011099
 31
0.0
  0
LINE
  5
2C6
  8
ZUWAKU
  6
CONTINUOUS
 62
     4
 10
803.5357948563269
 20
-691.2786407011099
 30
0.0
 11
804.1158656126852
 21
-690.9209245200968
 31
0.0
  0
LINE
  5
2C7
  8
ZUWAKU
  6
CONTINUOUS
 62
     4
 10
804.1158656126852
 20
-690.9209245200968
 30
0.0
 11
804.6437448184379
 21
-690.5233899769705
 31
0.0
  0
LINE
  5
2C8
  8
ZUWAKU
  6
CONTINUOUS
 62
     4
 10
804.6437448184379
 20
-690.5233899769705
 30
0.0
 11
805.1154149940903
 21
-690.0890625496395
 31
0.0
  0
LINE
  5
2C9
  8
ZUWAKU
  6
CONTINUOUS
 62
     4
 10
805.1154149940903
 20
-690.0890625496395
 30
0.0
 11
805.1931590373915
 21
-690.0007587466694
 31
0.0
  0
LINE
  5
2CA
  8
ZUWAKU
  6
CONTINUOUS
 62
     4
 10
805.6318730003791
 20
-689.4720605242064
 30
0.0
 11
805.8762245801342
 21
-689.1235058775401
 31
0.0
  0
LINE
  5
2CB
  8
ZUWAKU
  6
CONTINUOUS
 62
     4
 10
805.8762245801342
 20
-689.1235058775401
 30
0.0
 11
806.159573770188
 21
-688.5996251020633
 31
0.0
  0
LINE
  5
2CC
  8
ZUWAKU
  6
CONTINUOUS
 62
     4
 10
806.159573770188
 20
-688.5996251020633
 30
0.0
 11
806.1879430729819
 21
-688.527777729751
 31
0.0
  0
LINE
  5
2CD
  8
ZUWAKU
  6
CONTINUOUS
 62
     4
 10
806.4284883180455
 20
-687.8479480715082
 30
0.0
 11
806.5213950641721
 21
-687.489563573552
 31
0.0
  0
LINE
  5
2CE
  8
ZUWAKU
  6
CONTINUOUS
 62
     4
 10
787.045559885408
 20
-685.3613052679661
 30
0.0
 11
786.964619499624
 21
-685.9788814041899
 31
0.0
  0
LINE
  5
2CF
  8
ZUWAKU
  6
CONTINUOUS
 62
     4
 10
786.964619499624
 20
-685.9788814041899
 30
0.0
 11
786.9596562069462
 21
-686.606406124677
 31
0.0
  0
LINE
  5
2D0
  8
ZUWAKU
  6
CONTINUOUS
 62
     4
 10
786.9596562069462
 20
-686.606406124677
 30
0.0
 11
787.0307077810339
 21
-687.2391035873902
 31
0.0
  0
LINE
  5
2D1
  8
ZUWAKU
  6
CONTINUOUS
 62
     4
 10
787.0307077810339
 20
-687.2391035873902
 30
0.0
 11
787.1772334765008
 21
-687.8721585826115
 31
0.0
  0
LINE
  5
2D2
  8
ZUWAKU
  6
CONTINUOUS
 62
     4
 10
787.1772334765008
 20
-687.8721585826115
 30
0.0
 11
787.3981181443351
 21
-688.5007531795809
 31
0.0
  0
LINE
  5
2D3
  8
ZUWAKU
  6
CONTINUOUS
 62
     4
 10
787.3981181443351
 20
-688.5007531795809
 30
0.0
 11
787.6916807188361
 21
-689.1201033938505
 31
0.0
  0
LINE
  5
2D4
  8
ZUWAKU
  6
CONTINUOUS
 62
     4
 10
787.6916807188361
 20
-689.1201033938505
 30
0.0
 11
788.0556870115545
 21
-689.7254955963267
 31
0.0
  0
LINE
  5
2D5
  8
ZUWAKU
  6
CONTINUOUS
 62
     4
 10
788.0556870115545
 20
-689.7254955963267
 30
0.0
 11
788.4873667148129
 21
-690.3123223867924
 31
0.0
  0
LINE
  5
2D6
  8
ZUWAKU
  6
CONTINUOUS
 62
     4
 10
788.4873667148129
 20
-690.3123223867924
 30
0.0
 11
788.9834344854121
 21
-690.8761176590342
 31
0.0
  0
LINE
  5
2D7
  8
ZUWAKU
  6
CONTINUOUS
 62
     4
 10
788.9834344854121
 20
-690.8761176590342
 30
0.0
 11
789.5401149480842
 21
-691.4125905906194
 31
0.0
  0
LINE
  5
2D8
  8
ZUWAKU
  6
CONTINUOUS
 62
     4
 10
789.5401149480842
 20
-691.4125905906194
 30
0.0
 11
790.1531714283744
 21
-691.9176582985874
 31
0.0
  0
LINE
  5
2D9
  8
ZUWAKU
  6
CONTINUOUS
 62
     4
 10
790.1531714283744
 20
-691.9176582985874
 30
0.0
 11
790.8179381962937
 21
-692.3874769127297
 31
0.0
  0
LINE
  5
2DA
  8
ZUWAKU
  6
CONTINUOUS
 62
     4
 10
790.8179381962937
 20
-692.3874769127297
 30
0.0
 11
791.5293559753429
 21
-692.8184708296935
 31
0.0
  0
LINE
  5
2DB
  8
ZUWAKU
  6
CONTINUOUS
 62
     4
 10
791.5293559753429
 20
-692.8184708296935
 30
0.0
 11
792.2820104466593
 21
-693.2073599255391
 31
0.0
  0
LINE
  5
2DC
  8
ZUWAKU
  6
CONTINUOUS
 62
     4
 10
792.2820104466593
 20
-693.2073599255391
 30
0.0
 11
793.0701734552447
 21
-693.5511845194246
 31
0.0
  0
LINE
  5
2DD
  8
ZUWAKU
  6
CONTINUOUS
 62
     4
 10
793.0701734552447
 20
-693.5511845194246
 30
0.0
 11
793.8878466047056
 21
-693.8473278985798
 31
0.0
  0
LINE
  5
2DE
  8
ZUWAKU
  6
CONTINUOUS
 62
     4
 10
793.8878466047056
 20
-693.8473278985798
 30
0.0
 11
794.7288069086433
 21
-694.0935362330883
 31
0.0
  0
LINE
  5
2DF
  8
ZUWAKU
  6
CONTINUOUS
 62
     4
 10
794.7288069086433
 20
-694.0935362330883
 30
0.0
 11
795.5866541513633
 21
-694.2879357288443
 31
0.0
  0
LINE
  5
2E0
  8
ZUWAKU
  6
CONTINUOUS
 62
     4
 10
795.5866541513633
 20
-694.2879357288443
 30
0.0
 11
796.4548595973674
 21
-694.4290468883087
 31
0.0
  0
LINE
  5
2E1
  8
ZUWAKU
  6
CONTINUOUS
 62
     4
 10
796.4548595973674
 20
-694.4290468883087
 30
0.0
 11
797.3268156789693
 21
-694.5157957703491
 31
0.0
  0
LINE
  5
2E2
  8
ZUWAKU
  6
CONTINUOUS
 62
     4
 10
797.3268156789693
 20
-694.5157957703491
 30
0.0
 11
798.1958862838901
 21
-694.5475221636052
 31
0.0
  0
LINE
  5
2E3
  8
ZUWAKU
  6
CONTINUOUS
 62
     4
 10
798.1958862838901
 20
-694.5475221636052
 30
0.0
 11
799.055457260069
 21
-694.5239846110535
 31
0.0
  0
LINE
  5
2E4
  8
ZUWAKU
  6
CONTINUOUS
 62
     4
 10
799.055457260069
 20
-694.5239846110535
 30
0.0
 11
799.8989867533505
 21
-694.445362247689
 31
0.0
  0
LINE
  5
2E5
  8
ZUWAKU
  6
CONTINUOUS
 62
     4
 10
799.8989867533505
 20
-694.445362247689
 30
0.0
 11
800.7200549949523
 21
-694.31225343717
 31
0.0
  0
LINE
  5
2E6
  8
ZUWAKU
  6
CONTINUOUS
 62
     4
 10
800.7200549949523
 20
-694.31225343717
 30
0.0
 11
801.5124131597856
 21
-694.1256712179102
 31
0.0
  0
LINE
  5
2E7
  8
ZUWAKU
  6
CONTINUOUS
 62
     4
 10
801.5124131597856
 20
-694.1256712179102
 30
0.0
 11
802.2700309237764
 21
-693.8870355932686
 31
0.0
  0
LINE
  5
2E8
  8
ZUWAKU
  6
CONTINUOUS
 62
     4
 10
802.2700309237764
 20
-693.8870355932686
 30
0.0
 11
802.9871423582774
 21
-693.598162724441
 31
0.0
  0
LINE
  5
2E9
  8
ZUWAKU
  6
CONTINUOUS
 62
     4
 10
802.9871423582774
 20
-693.598162724441
 30
0.0
 11
803.6582898122681
 21
-693.2612511083748
 31
0.0
  0
LINE
  5
2EA
  8
ZUWAKU
  6
CONTINUOUS
 62
     4
 10
803.6582898122681
 20
-693.2612511083748
 30
0.0
 11
804.2783654483749
 21
-692.878864845914
 31
0.0
  0
LINE
  5
2EB
  8
ZUWAKU
  6
CONTINUOUS
 62
     4
 10
804.2783654483749
 20
-692.878864845914
 30
0.0
 11
804.8426501165939
 21
-692.4539141274004
 31
0.0
  0
LINE
  5
2EC
  8
ZUWAKU
  6
CONTINUOUS
 62
     4
 10
804.8426501165939
 20
-692.4539141274004
 30
0.0
 11
805.3417338400147
 21
-691.9943435189457
 31
0.0
  0
LINE
  5
2ED
  8
ZUWAKU
  6
CONTINUOUS
 62
     4
 10
804.1648996009503
 20
-685.5843593544096
 30
0.0
 11
806.4284883180455
 21
-687.8479480715082
 31
0.0
  0
LINE
  5
2EE
  8
ZUWAKU
  6
CONTINUOUS
 62
     4
 10
806.945418929268
 20
-688.3648786827307
 30
0.0
 11
810.259170135036
 21
-691.6786298884954
 31
0.0
  0
LINE
  5
2EF
  8
ZUWAKU
  6
CONTINUOUS
 62
     4
 10
803.7047121492919
 20
-686.044546806068
 30
0.0
 11
806.1879430729819
 21
-688.527777729751
 31
0.0
  0
LINE
  5
2F0
  8
ZUWAKU
  6
CONTINUOUS
 62
     4
 10
806.6636199861348
 20
-689.0034546429074
 30
0.0
 11
807.6339709423105
 21
-689.9738055990797
 31
0.0
  0
LINE
  5
2F1
  8
ZUWAKU
  6
CONTINUOUS
 62
     4
 10
807.477287867667
 20
-688.4365601694712
 30
0.0
 11
811.1998093910114
 21
-692.1590816928124
 31
0.0
  0
LINE
  5
2F2
  8
ZUWAKU
  6
CONTINUOUS
 62
     4
 10
782.4386195202289
 20
-681.3906038217106
 30
0.0
 11
782.1980008639191
 21
-682.6284794963594
 31
0.0
  0
LINE
  5
2F3
  8
ZUWAKU
  6
CONTINUOUS
 62
     4
 10
788.2448693430849
 20
-681.1904734089426
 30
0.0
 11
788.6259861103697
 21
-680.7575905989124
 31
0.0
  0
LINE
  5
2F4
  8
ZUWAKU
  6
CONTINUOUS
 62
     4
 10
788.6259861103697
 20
-680.7575905989124
 30
0.0
 11
789.1545553466387
 21
-680.27086888445
 31
0.0
  0
LINE
  5
2F5
  8
ZUWAKU
  6
CONTINUOUS
 62
     4
 10
789.1545553466387
 20
-680.27086888445
 30
0.0
 11
789.7437626982385
 21
-679.8271494259602
 31
0.0
  0
LINE
  5
2F6
  8
ZUWAKU
  6
CONTINUOUS
 62
     4
 10
789.7437626982385
 20
-679.8271494259602
 30
0.0
 11
790.3888141863451
 21
-679.4293611348694
 31
0.0
  0
LINE
  5
2F7
  8
ZUWAKU
  6
CONTINUOUS
 62
     4
 10
790.3888141863451
 20
-679.4293611348694
 30
0.0
 11
791.0846448485445
 21
-679.0800587103199
 31
0.0
  0
LINE
  5
2F8
  8
ZUWAKU
  6
CONTINUOUS
 62
     4
 10
791.0846448485445
 20
-679.0800587103199
 30
0.0
 11
791.8259304748024
 21
-678.7814477899274
 31
0.0
  0
LINE
  5
2F9
  8
ZUWAKU
  6
CONTINUOUS
 62
     4
 10
791.8259304748024
 20
-678.7814477899274
 30
0.0
 11
792.607097683453
 21
-678.5353945244883
 31
0.0
  0
LINE
  5
2FA
  8
ZUWAKU
  6
CONTINUOUS
 62
     4
 10
792.607097683453
 20
-678.5353945244883
 30
0.0
 11
793.4223384058141
 21
-678.3434239864691
 31
0.0
  0
LINE
  5
2FB
  8
ZUWAKU
  6
CONTINUOUS
 62
     4
 10
793.4223384058141
 20
-678.3434239864691
 30
0.0
 11
794.2656312572667
 21
-678.2067121972527
 31
0.0
  0
LINE
  5
2FC
  8
ZUWAKU
  6
CONTINUOUS
 62
     4
 10
794.2656312572667
 20
-678.2067121972527
 30
0.0
 11
795.13077003898
 21
-678.1260757094997
 31
0.0
  0
LINE
  5
2FD
  8
ZUWAKU
  6
CONTINUOUS
 62
     4
 10
795.13077003898
 20
-678.1260757094997
 30
0.0
 11
796.0113984923869
 21
-678.1019615419955
 31
0.0
  0
LINE
  5
2FE
  8
ZUWAKU
  6
CONTINUOUS
 62
     4
 10
796.0113984923869
 20
-678.1019615419955
 30
0.0
 11
796.9010500069221
 21
-678.1344392643455
 31
0.0
  0
LINE
  5
2FF
  8
ZUWAKU
  6
CONTINUOUS
 62
     4
 10
796.9010500069221
 20
-678.1344392643455
 30
0.0
 11
797.793190926089
 21
-678.2231962889209
 31
0.0
  0
LINE
  5
300
  8
ZUWAKU
  6
CONTINUOUS
 62
     4
 10
797.793190926089
 20
-678.2231962889209
 30
0.0
 11
798.6812661915401
 21
-678.3675369296957
 31
0.0
  0
LINE
  5
301
  8
ZUWAKU
  6
CONTINUOUS
 62
     4
 10
798.6812661915401
 20
-678.3675369296957
 30
0.0
 11
799.558746195034
 21
-678.566385467896
 31
0.0
  0
LINE
  5
302
  8
ZUWAKU
  6
CONTINUOUS
 62
     4
 10
799.558746195034
 20
-678.566385467896
 30
0.0
 11
800.4191738179004
 21
-678.81829325831
 31
0.0
  0
LINE
  5
303
  8
ZUWAKU
  6
CONTINUOUS
 62
     4
 10
800.4191738179004
 20
-678.81829325831
 30
0.0
 11
801.2562107073036
 21
-679.1214497617016
 31
0.0
  0
LINE
  5
304
  8
ZUWAKU
  6
CONTINUOUS
 62
     4
 10
801.2562107073036
 20
-679.1214497617016
 30
0.0
 11
802.063681865031
 21
-679.4736972534683
 31
0.0
  0
LINE
  5
305
  8
ZUWAKU
  6
CONTINUOUS
 62
     4
 10
802.063681865031
 20
-679.4736972534683
 30
0.0
 11
802.8356176154155
 21
-679.8725487948564
 31
0.0
  0
LINE
  5
306
  8
ZUWAKU
  6
CONTINUOUS
 62
     4
 10
802.8356176154155
 20
-679.8725487948564
 30
0.0
 11
803.5662919943156
 21
-680.3152088208803
 31
0.0
  0
LINE
  5
307
  8
ZUWAKU
  6
CONTINUOUS
 62
     4
 10
803.5662919943156
 20
-680.3152088208803
 30
0.0
 11
804.2502566003914
 21
-680.7985953540997
 31
0.0
  0
LINE
  5
308
  8
ZUWAKU
  6
CONTINUOUS
 62
     4
 10
804.2502566003914
 20
-680.7985953540997
 30
0.0
 11
804.8823690484012
 21
-681.319362356101
 31
0.0
  0
LINE
  5
309
  8
ZUWAKU
  6
CONTINUOUS
 62
     4
 10
804.8823690484012
 20
-681.319362356101
 30
0.0
 11
805.3744634683978
 21
-681.7935937218708
 31
0.0
  0
LINE
  5
30A
  8
ZUWAKU
  6
CONTINUOUS
 62
     4
 10
787.045559885408
 20
-685.3613052679661
 30
0.0
 11
787.0990957133934
 21
-685.085887309097
 31
0.0
  0
LINE
  5
30B
  8
ZUWAKU
  6
CONTINUOUS
 62
     4
 10
807.5022315028793
 20
-685.7331928397166
 30
0.0
 11
807.5716907451028
 21
-686.351710963816
 31
0.0
  0
LINE
  5
30C
  8
ZUWAKU
  6
CONTINUOUS
 62
     4
 10
807.5716907451028
 20
-686.351710963816
 30
0.0
 11
807.566415470073
 21
-687.0186805959524
 31
0.0
  0
LINE
  5
30D
  8
ZUWAKU
  6
CONTINUOUS
 62
     4
 10
807.566415470073
 20
-687.0186805959524
 30
0.0
 11
807.4828837466766
 21
-687.6560286699332
 31
0.0
  0
LINE
  5
30E
  8
ZUWAKU
  6
CONTINUOUS
 62
     4
 10
807.4828837466766
 20
-687.6560286699332
 30
0.0
 11
807.3879584709591
 21
-688.1443768783406
 31
0.0
  0
ARC
  5
30F
  8
ZUWAKU
  6
CONTINUOUS
 62
     4
 10
807.7073815934962
 20
-688.2064664436421
 30
0.0
 40
0.3254016676835468
 50
168.9999999999997
 51
224.9999999999998
  0
LINE
  5
310
  8
ZUWAKU
  6
CONTINUOUS
 62
     4
 10
811.067881075017
 20
-693.5895372383884
 30
0.0
 11
811.2891387877193
 21
-692.451264983943
 31
0.0
  0
ARC
  5
311
  8
ZUWAKU
  6
CONTINUOUS
 62
     4
 10
810.9697156651822
 20
-692.3891754186416
 30
0.0
 40
0.3254016676835468
 50
349.0000000000001
 51
45.00000000000005
  0
ARC
  5
312
  8
ZUWAKU
  6
CONTINUOUS
 62
     4
 10
804.1648996009503
 20
-685.5843593544096
 30
0.0
 40
0.6508033353670937
 50
114.9999999999996
 51
225.0
  0
ARC
  5
313
  8
ZUWAKU
  6
CONTINUOUS
 62
     4
 10
804.1648996009503
 20
-685.5843593544096
 30
0.0
 40
0.9762050030506318
 50
138.0853946908566
 51
168.9999999999998
  0
ARC
  5
314
  8
ZUWAKU
  6
CONTINUOUS
 62
     4
 10
803.1963203412529
 20
-684.7148571157759
 30
0.0
 40
0.3254016676835468
 50
318.0853946908566
 51
88.10000000000012
  0
LINE
  5
315
  8
ZUWAKU
  6
CONTINUOUS
 62
     4
 10
788.3564197031269
 20
-685.8241240425268
 30
0.0
 11
788.4309962064033
 21
-686.1463271057805
 31
0.0
  0
LINE
  5
316
  8
ZUWAKU
  6
CONTINUOUS
 62
     4
 10
788.4309962064033
 20
-686.1463271057805
 30
0.0
 11
788.62601314433
 21
-686.7013071987849
 31
0.0
  0
LINE
  5
317
  8
ZUWAKU
  6
CONTINUOUS
 62
     4
 10
788.62601314433
 20
-686.7013071987849
 30
0.0
 11
788.8864470739038
 21
-687.250763512689
 31
0.0
  0
LINE
  5
318
  8
ZUWAKU
  6
CONTINUOUS
 62
     4
 10
788.8864470739038
 20
-687.250763512689
 30
0.0
 11
789.2108920737719
 21
-687.7903598795097
 31
0.0
  0
LINE
  5
319
  8
ZUWAKU
  6
CONTINUOUS
 62
     4
 10
789.2108920737719
 20
-687.7903598795097
 30
0.0
 11
789.5973339683424
 21
-688.3156902459386
 31
0.0
  0
LINE
  5
31A
  8
ZUWAKU
  6
CONTINUOUS
 62
     4
 10
789.5973339683424
 20
-688.3156902459386
 30
0.0
 11
790.0431531730744
 21
-688.8223765795447
 31
0.0
  0
LINE
  5
31B
  8
ZUWAKU
  6
CONTINUOUS
 62
     4
 10
790.0431531730744
 20
-688.8223765795447
 30
0.0
 11
790.5451527852115
 21
-689.3061535784436
 31
0.0
  0
LINE
  5
31C
  8
ZUWAKU
  6
CONTINUOUS
 62
     4
 10
790.5451527852115
 20
-689.3061535784436
 30
0.0
 11
791.0996012667949
 21
-689.7629369789665
 31
0.0
  0
LINE
  5
31D
  8
ZUWAKU
  6
CONTINUOUS
 62
     4
 10
791.0996012667949
 20
-689.7629369789665
 30
0.0
 11
791.7022820179836
 21
-690.1888767956898
 31
0.0
  0
LINE
  5
31E
  8
ZUWAKU
  6
CONTINUOUS
 62
     4
 10
791.7022820179836
 20
-690.1888767956898
 30
0.0
 11
792.3485452759526
 21
-690.5803985444372
 31
0.0
  0
LINE
  5
31F
  8
ZUWAKU
  6
CONTINUOUS
 62
     4
 10
792.3485452759526
 20
-690.5803985444372
 30
0.0
 11
793.033360115216
 21
-690.9342355756557
 31
0.0
  0
LINE
  5
320
  8
ZUWAKU
  6
CONTINUOUS
 62
     4
 10
793.033360115216
 20
-690.9342355756557
 30
0.0
 11
793.7513657482993
 21
-691.2474550397887
 31
0.0
  0
LINE
  5
321
  8
ZUWAKU
  6
CONTINUOUS
 62
     4
 10
793.7513657482993
 20
-691.2474550397887
 30
0.0
 11
794.4969220513981
 21
-691.517479270256
 31
0.0
  0
LINE
  5
322
  8
ZUWAKU
  6
CONTINUOUS
 62
     4
 10
794.4969220513981
 20
-691.517479270256
 30
0.0
 11
795.2641595329289
 21
-691.7421037401737
 31
0.0
  0
LINE
  5
323
  8
ZUWAKU
  6
CONTINUOUS
 62
     4
 10
795.2641595329289
 20
-691.7421037401737
 30
0.0
 11
796.0470290314727
 21
-691.9195122905357
 31
0.0
  0
LINE
  5
324
  8
ZUWAKU
  6
CONTINUOUS
 62
     4
 10
796.0470290314727
 20
-691.9195122905357
 30
0.0
 11
796.8393514034478
 21
-692.0482900229154
 31
0.0
  0
LINE
  5
325
  8
ZUWAKU
  6
CONTINUOUS
 62
     4
 10
796.8393514034478
 20
-692.0482900229154
 30
0.0
 11
797.6348674164167
 21
-692.1274340603672
 31
0.0
  0
LINE
  5
326
  8
ZUWAKU
  6
CONTINUOUS
 62
     4
 10
797.6348674164167
 20
-692.1274340603672
 30
0.0
 11
798.427288040436
 21
-692.1563622604394
 31
0.0
  0
LINE
  5
327
  8
ZUWAKU
  6
CONTINUOUS
 62
     4
 10
798.427288040436
 20
-692.1563622604394
 30
0.0
 11
799.2103453473756
 21
-692.1349198746184
 31
0.0
  0
LINE
  5
328
  8
ZUWAKU
  6
CONTINUOUS
 62
     4
 10
799.2103453473756
 20
-692.1349198746184
 30
0.0
 11
799.977844294586
 21
-692.0633840461874
 31
0.0
  0
LINE
  5
329
  8
ZUWAKU
  6
CONTINUOUS
 62
     4
 10
799.977844294586
 20
-692.0633840461874
 30
0.0
 11
800.7237157817253
 21
-691.9424658795497
 31
0.0
  0
LINE
  5
32A
  8
ZUWAKU
  6
CONTINUOUS
 62
     4
 10
800.7237157817253
 20
-691.9424658795497
 30
0.0
 11
801.4420715074261
 21
-691.7733095415888
 31
0.0
  0
LINE
  5
32B
  8
ZUWAKU
  6
CONTINUOUS
 62
     4
 10
801.4420715074261
 20
-691.7733095415888
 30
0.0
 11
802.12726126134
 21
-691.557487404496
 31
0.0
  0
LINE
  5
32C
  8
ZUWAKU
  6
CONTINUOUS
 62
     4
 10
802.6193754733818
 20
-691.359249812147
 30
0.0
 11
802.12726126134
 21
-691.557487404496
 31
0.0
  0
LINE
  5
32D
  8
ZUWAKU
  6
CONTINUOUS
 62
     4
 10
803.239064145027
 20
-687.4864622410091
 30
0.0
 11
803.9722535053143
 21
-688.2196516012964
 31
0.0
  0
LINE
  5
32E
  8
ZUWAKU
  6
CONTINUOUS
 62
     4
 10
803.2066302333358
 20
-685.3980906584916
 30
0.0
 11
802.9710759549
 21
-686.6099123676104
 31
0.0
  0
ARC
  5
32F
  8
ZUWAKU
  6
CONTINUOUS
 62
     4
 10
803.9293453225112
 20
-686.7961810635215
 30
0.0
 40
0.9762050030506403
 50
168.9999999999998
 51
224.9999999999996
  0
LINE
  5
330
  8
ZUWAKU
  6
CONTINUOUS
 62
     4
 10
783.713687155268
 20
-681.4843953805535
 30
0.0
 11
788.3124951362636
 21
-681.6369535535914
 31
0.0
  0
LINE
  5
331
  8
ZUWAKU
  6
CONTINUOUS
 62
     4
 10
789.0721877962342
 20
-681.6621551546909
 30
0.0
 11
804.5476905439643
 21
-682.175530454495
 31
0.0
  0
LINE
  5
332
  8
ZUWAKU
  6
CONTINUOUS
 62
     4
 10
805.3120762107023
 20
-682.2008877386684
 30
0.0
 11
810.4982487585465
 21
-682.3729308011757
 31
0.0
  0
LINE
  5
333
  8
ZUWAKU
  6
CONTINUOUS
 62
     4
 10
810.5487355607414
 20
-682.6210813619587
 30
0.0
 11
806.7623541365306
 21
-684.378661101794
 31
0.0
  0
LINE
  5
334
  8
ZUWAKU
  6
CONTINUOUS
 62
     4
 10
806.2190580538295
 20
-684.6308507469216
 30
0.0
 11
804.1648996009503
 21
-685.5843593544096
 31
0.0
  0
ARC
  5
335
  8
ZUWAKU
  6
CONTINUOUS
 62
     4
 10
810.493933258411
 20
-682.5030199079883
 30
0.0
 40
0.1301606670734187
 50
294.9000000000007
 51
88.09999999999967
  0
LINE
  5
336
  8
ZUWAKU
  6
CONTINUOUS
 62
     4
 10
810.1204872333329
 20
-691.8921828299067
 30
0.0
 11
805.7978472323914
 21
-690.2328767971408
 31
0.0
  0
LINE
  5
337
  8
ZUWAKU
  6
CONTINUOUS
 62
     4
 10
805.1931590373949
 20
-690.0007587466694
 30
0.0
 11
788.1102472330958
 21
-683.4432432913154
 31
0.0
  0
LINE
  5
338
  8
ZUWAKU
  6
CONTINUOUS
 62
     4
 10
787.4999417998749
 20
-683.2089689851141
 30
0.0
 11
783.6627262437623
 21
-681.7359999384444
 31
0.0
  0
ARC
  5
339
  8
ZUWAKU
  6
CONTINUOUS
 62
     4
 10
783.7093716551324
 20
-681.6144844873661
 30
0.0
 40
0.1301606670734187
 50
90.00000000000001
 51
249.0000000000023
  0
ARC
  5
33A
  8
ZUWAKU
  6
CONTINUOUS
 62
     4
 10
810.167132644703
 20
-691.7706673788284
 30
0.0
 40
0.1301606670734187
 50
249.0000000000006
 51
45.0
  0
LINE
  5
33B
  8
ZUWAKU
  6
CONTINUOUS
 62
     4
 10
805.5894764604018
 20
-681.8845093859709
 30
0.0
 11
811.3844626829967
 21
-682.0767488781512
 31
0.0
  0
ARC
  5
33C
  8
ZUWAKU
  6
CONTINUOUS
 62
     4
 10
805.6002652107425
 20
-681.5592866189359
 30
0.0
 40
0.3254016676835468
 50
226.0590228224399
 51
268.1000000000001
  0
LINE
  5
33D
  8
ZUWAKU
  6
CONTINUOUS
 62
     4
 10
782.7688313931067
 20
-681.127470619977
 30
0.0
 11
787.98984750559
 21
-681.3006695625727
 31
0.0
  0
ARC
  5
33E
  8
ZUWAKU
  6
CONTINUOUS
 62
     4
 10
782.758042642766
 20
-681.452693387012
 30
0.0
 40
0.3254016676835468
 50
88.10000000000028
 51
168.9999999999999
  0
ARC
  5
33F
  8
ZUWAKU
  6
CONTINUOUS
 62
     4
 10
788.0006362559307
 20
-680.9754467955445
 30
0.0
 40
0.3254016676835468
 50
268.1000000000004
 51
318.638806595188
  0
LINE
  5
340
  8
ZUWAKU
  6
CONTINUOUS
 62
     4
 10
811.6930970551965
 20
-682.4640612104877
 30
0.0
 11
811.4942992851428
 21
-683.4867870767657
 31
0.0
  0
ARC
  5
341
  8
ZUWAKU
  6
CONTINUOUS
 62
     4
 10
811.3736739326561
 20
-682.4019716451862
 30
0.0
 40
0.3254016676835468
 50
349.0000000000001
 51
88.10000000000001
  0
LINE
  5
342
  8
ZUWAKU
  6
CONTINUOUS
 62
     4
 10
811.3118819184302
 20
-683.719851146373
 30
0.0
 11
807.6885947730154
 21
-685.4017250425663
 31
0.0
  0
ARC
  5
343
  8
ZUWAKU
  6
CONTINUOUS
 62
     4
 10
811.1748761626058
 20
-683.4246975114643
 30
0.0
 40
0.3254016676835468
 50
294.9000000000004
 51
349.0000000000001
  0
ARC
  5
344
  8
ZUWAKU
  6
CONTINUOUS
 62
     4
 10
807.8256005288399
 20
-685.6968786774819
 30
0.0
 40
0.3254016676835468
 50
114.9
 51
186.40743915255
  0
LINE
  5
345
  8
ZUWAKU
  6
CONTINUOUS
 62
     4
 10
807.4952880406074
 20
-690.187358540491
 30
0.0
 11
806.2310385719725
 21
-689.702058638175
 31
0.0
  0
ARC
  5
346
  8
ZUWAKU
  6
CONTINUOUS
 62
     4
 10
807.5419334519775
 20
-690.0658430894127
 30
0.0
 40
0.1301606670734187
 50
248.999999999998
 51
45.00000000000102
  0
LINE
  5
347
  8
ZUWAKU
  6
CONTINUOUS
 62
     4
 10
805.6318730003791
 20
-689.4720605242064
 30
0.0
 11
788.3352703242754
 21
-682.8325168285533
 31
0.0
  0
LINE
  5
348
  8
ZUWAKU
  6
CONTINUOUS
 62
     4
 10
787.7333495339003
 20
-682.6014610851898
 30
0.0
 11
786.7850537456054
 21
-682.2374444374855
 31
0.0
  0
LINE
  5
349
  8
ZUWAKU
  6
CONTINUOUS
 62
     4
 10
803.8335706036146
 20
-688.4332045427077
 30
0.0
 11
794.168212069646
 21
-684.7230210157959
 31
0.0
  0
ARC
  5
34A
  8
ZUWAKU
  6
CONTINUOUS
 62
     4
 10
803.8802160149846
 20
-688.3116890916294
 30
0.0
 40
0.1301606670734187
 50
249.0000000000001
 51
44.99999999999837
  0
LINE
  5
34B
  8
ZUWAKU
  6
CONTINUOUS
 62
     4
 10
782.4008104580294
 20
-682.9943576893634
 30
0.0
 11
786.8962861192831
 21
-684.720009116093
 31
0.0
  0
ARC
  5
34C
  8
ZUWAKU
  6
CONTINUOUS
 62
     4
 10
786.7796725908563
 20
-685.0237977437955
 30
0.0
 40
0.3254016676835468
 50
349.0000000000001
 51
69.00000000000003
  0
LINE
  5
34D
  8
ZUWAKU
  6
CONTINUOUS
 62
     4
 10
788.7900538364529
 20
-685.4469584334292
 30
0.0
 11
802.6144022576132
 21
-690.7536286001077
 31
0.0
  0
ARC
  5
34E
  8
ZUWAKU
  6
CONTINUOUS
 62
     4
 10
802.4977887291864
 20
-691.0574172278102
 30
0.0
 40
0.3254016676835468
 50
291.9409771775847
 51
69.00000000000003
  0
LINE
  5
34F
  8
ZUWAKU
  6
CONTINUOUS
 62
     4
 10
805.6787701043158
 20
-691.9299292065789
 30
0.0
 11
810.6318444240532
 21
-693.8312363007826
 31
0.0
  0
ARC
  5
350
  8
ZUWAKU
  6
CONTINUOUS
 62
     4
 10
810.74845795248
 20
-693.5274476730801
 30
0.0
 40
0.3254016676835468
 50
249.0000000000001
 51
349.0000000000001
  0
ARC
  5
351
  8
ZUWAKU
  6
CONTINUOUS
 62
     4
 10
805.562156575889
 20
-692.2337178342746
 30
0.0
 40
0.3254016676835468
 50
69.00000000000004
 51
132.6397603242119
  0
ARC
  5
352
  8
ZUWAKU
  6
CONTINUOUS
 62
     4
 10
788.6734403080261
 20
-685.7507470611249
 30
0.0
 40
0.3254016676835468
 50
69.00000000000004
 51
193.0320838540856
  0
ARC
  5
353
  8
ZUWAKU
  6
CONTINUOUS
 62
     4
 10
782.5174239864562
 20
-682.6905690616609
 30
0.0
 40
0.3254016676835468
 50
168.9999999999999
 51
249.0000000000001
  0
LINE
  5
354
  8
ZUWAKU
  6
CONTINUOUS
 62
     4
 10
788.6163516306324
 20
-682.2981948451484
 30
0.0
 11
805.1646573133241
 21
-682.8471586836536
 31
0.0
  0
LINE
  5
355
  8
ZUWAKU
  6
CONTINUOUS
 62
     4
 10
786.7850537456054
 20
-682.2374444374855
 30
0.0
 11
787.9066220585146
 21
-682.2746506903813
 31
0.0
  0
LINE
  5
356
  8
ZUWAKU
  6
CONTINUOUS
 62
     4
 10
805.9450465421805
 20
-684.0405434770973
 30
0.0
 11
803.8908880893014
 21
-684.9940520845853
 31
0.0
  0
LINE
  5
357
  8
ZUWAKU
  6
CONTINUOUS
 62
     4
 10
794.29561434841
 20
-684.0940096210652
 30
0.0
 11
803.2071090915936
 21
-684.3896343487409
 31
0.0
  0
ARC
  5
358
  8
ZUWAKU
  6
CONTINUOUS
 62
     4
 10
794.2848255980728
 20
-684.4192323880934
 30
0.0
 40
0.3254016676835468
 50
88.10000000000008
 51
249.0000000000001
  0
LINE
  5
359
  8
ZUWAKU
  6
CONTINUOUS
 62
     4
 10
799.4392901577494
 20
-681.0395801956365
 30
0.0
 11
799.0233935707518
 21
-680.9178179608107
 31
0.0
  0
LINE
  5
35A
  8
ZUWAKU
  6
CONTINUOUS
 62
     4
 10
799.0233935707518
 20
-680.9178179608107
 30
0.0
 11
798.2208913114307
 21
-680.7359603680043
 31
0.0
  0
LINE
  5
35B
  8
ZUWAKU
  6
CONTINUOUS
 62
     4
 10
798.2208913114307
 20
-680.7359603680043
 30
0.0
 11
797.4086991200086
 21
-680.6039531543142
 31
0.0
  0
LINE
  5
35C
  8
ZUWAKU
  6
CONTINUOUS
 62
     4
 10
797.4086991200086
 20
-680.6039531543142
 30
0.0
 11
796.5929982694781
 21
-680.5228009743341
 31
0.0
  0
LINE
  5
35D
  8
ZUWAKU
  6
CONTINUOUS
 62
     4
 10
796.5929982694781
 20
-680.5228009743341
 30
0.0
 11
795.779996735841
 21
-680.4931214451613
 31
0.0
  0
LINE
  5
35E
  8
ZUWAKU
  6
CONTINUOUS
 62
     4
 10
795.779996735841
 20
-680.4931214451613
 30
0.0
 11
794.9758819516769
 21
-680.5151404459348
 31
0.0
  0
LINE
  5
35F
  8
ZUWAKU
  6
CONTINUOUS
 62
     4
 10
794.9758819516769
 20
-680.5151404459348
 30
0.0
 11
794.1867737160278
 21
-680.5886903987612
 31
0.0
  0
LINE
  5
360
  8
ZUWAKU
  6
CONTINUOUS
 62
     4
 10
794.1867737160278
 20
-680.5886903987612
 30
0.0
 11
793.4186776190411
 21
-680.7132115440827
 31
0.0
  0
LINE
  5
361
  8
ZUWAKU
  6
CONTINUOUS
 62
     4
 10
793.4186776190411
 20
-680.7132115440827
 30
0.0
 11
792.943317385404
 21
-680.8251480032236
 31
0.0
  0
LINE
  5
362
  8
ZUWAKU
  6
CONTINUOUS
 62
     4
 10
793.0071133385156
 20
-681.4671094122632
 30
0.0
 11
799.3370713060649
 21
-681.6770957450085
 31
0.0
  0
ARC
  5
363
  8
ZUWAKU
  6
CONTINUOUS
 62
     4
 10
793.0179020888563
 20
-681.1418866452282
 30
0.0
 40
0.3254016676835468
 50
103.2504547662732
 51
268.1000000000001
  0
ARC
  5
364
  8
ZUWAKU
  6
CONTINUOUS
 62
     4
 10
799.3478600564056
 20
-681.3518729779735
 30
0.0
 40
0.3254016676835468
 50
268.1000000000001
 51
73.68152816059933
  0
LINE
  5
365
  8
ZUWAKU
  6
CONTINUOUS
 62
     4
 10
515.8333333333273
 20
-513.7500000000109
 30
0.0
 11
1010.833333333327
 21
-513.7500000000125
 31
0.0
  0
LINE
  5
366
  8
ZUWAKU
  6
CONTINUOUS
 62
     4
 10
515.8333333333273
 20
-488.7500000000109
 30
0.0
 11
1010.833333333327
 21
-488.7500000000125
 31
0.0
  0
LINE
  5
367
  8
ZUWAKU
  6
CONTINUOUS
 62
     4
 10
515.8333333333273
 20
-538.7500000000109
 30
0.0
 11
515.8333333333273
 21
-438.7500000000111
 31
0.0
  0
LINE
  5
368
  8
ZUWAKU
  6
CONTINUOUS
 62
     4
 10
515.8333333333273
 20
-463.750000000011
 30
0.0
 11
1010.833333333327
 21
-463.7500000000126
 31
0.0
  0
LINE
  5
369
  8
ZUWAKU
  6
CONTINUOUS
 62
     4
 10
515.8333333333273
 20
-438.7500000000111
 30
0.0
 11
1010.833333333327
 21
-438.7500000000127
 31
0.0
  0
TEXT
  5
36A
  8
ZUWAKU
 62
     4
 10
522.9583333333273
 20
-583.7500000000108
 30
0.0
 40
15.0
  1
図
 41
1.12
  7
DCSTYLE0
 72
     5
 11
534.9583333333273
 21
-583.7500000000108
 31
0.0
  0
TEXT
  5
36B
  8
ZUWAKU
 62
     4
 10
522.9583333333278
 20
-606.2500000000109
 30
0.0
 40
15.0
  1
名
 41
1.12
  7
DCSTYLE0
 72
     5
 11
534.9583333333278
 21
-606.2500000000109
 31
0.0
  0
TEXT
  5
36C
  8
ZUWAKU
 62
     4
 10
522.9583333333276
 20
-636.2500000000111
 30
0.0
 40
15.0
  1
尺
 41
1.12
  7
DCSTYLE0
 72
     5
 11
534.9583333333276
 21
-636.2500000000111
 31
0.0
  0
TEXT
  5
36D
  8
ZUWAKU
 62
     4
 10
522.9583333333276
 20
-651.2500000000111
 30
0.0
 40
15.0
  1
度
 41
1.12
  7
DCSTYLE0
 72
     5
 11
534.9583333333276
 21
-651.2500000000111
 31
0.0
  0
TEXT
  5
36E
  8
ZUWAKU
 62
     4
 10
883.8958333333273
 20
-583.7500000000109
 30
0.0
 40
15.0
  1
図
 41
1.12
  7
DCSTYLE0
 72
     5
 11
895.8958333333273
 21
-583.7500000000109
 31
0.0
  0
TEXT
  5
36F
  8
ZUWAKU
 62
     4
 10
883.8958333333273
 20
-606.2500000000111
 30
0.0
 40
15.0
  1
番
 41
1.12
  7
DCSTYLE0
 72
     5
 11
895.8958333333273
 21
-606.2500000000111
 31
0.0
  0
TEXT
  5
370
  8
ZUWAKU
 62
     4
 10
883.8958333333278
 20
-636.2500000000108
 30
0.0
 40
15.0
  1
日
 41
1.12
  7
DCSTYLE0
 72
     5
 11
895.8958333333278
 21
-636.2500000000108
 31
0.0
  0
TEXT
  5
371
  8
ZUWAKU
 62
     4
 10
883.8958333333278
 20
-651.2500000000108
 30
0.0
 40
15.0
  1
付
 41
1.12
  7
DCSTYLE0
 72
     5
 11
895.8958333333278
 21
-651.2500000000108
 31
0.0
  0
TEXT
  5
372
  8
ZUWAKU
 62
     4
 10
911.362022490362
 20
-643.1250000000107
 30
0.0
 40
13.75
  1
2020.4.24
 41
0.8373417721518988
  7
DCSTYLE0
 72
     5
 11
997.987022490362
 21
-643.1250000000107
 31
0.0
  0
TEXT
  5
373
  8
ZUWAKU
 62
     4
 10
554.8333333333276
 20
-643.7500000000105
 30
0.0
 40
15.0
  1
 
 41
0.8
  7
DCSTYLE0
 72
     5
 11
566.8333333333276
 21
-643.7500000000105
 31
0.0
  0
TEXT
  5
374
  8
ZUWAKU
 62
     4
 10
522.9583333333273
 20
-555.6250000000124
 30
0.0
 40
15.0
  1
番
 41
1.12
  7
DCSTYLE0
 72
     5
 11
534.9583333333273
 21
-555.6250000000124
 31
0.0
  0
TEXT
  5
375
  8
ZUWAKU
 62
     4
 10
546.7083333333273
 20
-555.6250000000124
 30
0.0
 40
15.0
  1
号
 41
1.12
  7
DCSTYLE0
 72
     5
 11
558.7083333333273
 21
-555.6250000000124
 31
0.0
  0
TEXT
  5
376
  8
ZUWAKU
 62
     4
 10
586.0833333333275
 20
-555.6250000000124
 30
0.0
 40
15.0
  1
品
 41
1.12
  7
DCSTYLE0
 72
     5
 11
598.0833333333275
 21
-555.6250000000124
 31
0.0
  0
TEXT
  5
377
  8
ZUWAKU
 62
     4
 10
683.5833333333275
 20
-555.6250000000124
 30
0.0
 40
15.0
  1
名
 41
1.12
  7
DCSTYLE0
 72
     5
 11
695.5833333333275
 21
-555.6250000000124
 31
0.0
  0
TEXT
  5
378
  8
ZUWAKU
 62
     4
 10
728.5833333333275
 20
-555.6250000000124
 30
0.0
 40
15.0
  1
材
 41
1.12
  7
DCSTYLE0
 72
     5
 11
740.5833333333275
 21
-555.6250000000124
 31
0.0
  0
TEXT
  5
379
  8
ZUWAKU
 62
     4
 10
766.0833333333263
 20
-555.6250000000124
 30
0.0
 40
15.0
  1
質
 41
1.12
  7
DCSTYLE0
 72
     5
 11
778.0833333333263
 21
-555.6250000000124
 31
0.0
  0
TEXT
  5
37A
  8
ZUWAKU
 62
     4
 10
797.9583333333263
 20
-555.6250000000124
 30
0.0
 40
15.0
  1
個
 41
1.12
  7
DCSTYLE0
 72
     5
 11
809.9583333333263
 21
-555.6250000000124
 31
0.0
  0
TEXT
  5
37B
  8
ZUWAKU
 62
     4
 10
821.7083333333273
 20
-555.6250000000124
 30
0.0
 40
15.0
  1
数
 41
1.12
  7
DCSTYLE0
 72
     5
 11
833.7083333333273
 21
-555.6250000000124
 31
0.0
  0
TEXT
  5
37C
  8
ZUWAKU
 62
     4
 10
861.0833333333273
 20
-555.6250000000123
 30
0.0
 40
15.0
  1
記
 41
1.12
  7
DCSTYLE0
 72
     5
 11
873.0833333333273
 21
-555.6250000000123
 31
0.0
  0
TEXT
  5
37D
  8
ZUWAKU
 62
     4
 10
978.5833333333273
 20
-555.6250000000124
 30
0.0
 40
15.0
  1
事
 41
1.12
  7
DCSTYLE0
 72
     5
 11
990.5833333333273
 21
-555.6250000000124
 31
0.0
  0
TEXT
  5
37E
  8
ZUWAKU
 62
     4
 10
672.9583333333283
 20
-636.2500000000111
 30
0.0
 40
15.0
  1
製
 41
1.12
  7
DCSTYLE0
 72
     5
 11
684.9583333333283
 21
-636.2500000000111
 31
0.0
  0
TEXT
  5
37F
  8
ZUWAKU
 62
     4
 10
672.9583333333283
 20
-651.2500000000113
 30
0.0
 40
15.0
  1
図
 41
1.12
  7
DCSTYLE0
 72
     5
 11
684.9583333333283
 21
-651.2500000000113
 31
0.0
  0
TEXT
  5
380
  8
ZUWAKU
 62
     4
 10
744.2083333333279
 20
-636.2500000000108
 30
0.0
 40
15.0
  1
検
 41
1.12
  7
DCSTYLE0
 72
     5
 11
756.2083333333279
 21
-636.2500000000108
 31
0.0
  0
TEXT
  5
381
  8
ZUWAKU
 62
     4
 10
744.2083333333279
 20
-651.2500000000113
 30
0.0
 40
15.0
  1
図
 41
1.12
  7
DCSTYLE0
 72
     5
 11
756.2083333333279
 21
-651.2500000000113
 31
0.0
  0
TEXT
  5
382
  8
ZUWAKU
 62
     4
 10
522.9583333333276
 20
-675.6250000000111
 30
0.0
 40
15.0
  1
表
 41
1.12
  7
DCSTYLE0
 72
     5
 11
534.9583333333276
 21
-675.6250000000111
 31
0.0
  0
TEXT
  5
383
  8
ZUWAKU
 62
     4
 10
537.9583333333276
 20
-675.6250000000111
 30
0.0
 40
15.0
  1
面
 41
1.12
  7
DCSTYLE0
 72
     5
 11
549.9583333333276
 21
-675.6250000000111
 31
0.0
  0
TEXT
  5
384
  8
ZUWAKU
 62
     4
 10
522.9583333333276
 20
-701.8750000000107
 30
0.0
 40
15.0
  1
処
 41
1.12
  7
DCSTYLE0
 72
     5
 11
534.9583333333276
 21
-701.8750000000107
 31
0.0
  0
TEXT
  5
385
  8
ZUWAKU
 62
     4
 10
537.9583333333276
 20
-701.8750000000111
 30
0.0
 40
15.0
  1
理
 41
1.12
  7
DCSTYLE0
 72
     5
 11
549.9583333333276
 21
-701.8750000000111
 31
0.0
  0
TEXT
  5
386
  8
ZUWAKU
 62
     4
 10
843.5833333333276
 20
-643.7500000000108
 30
0.0
 40
15.0
  1
ｍｍ
 41
1.018181818181818
  7
DCSTYLE0
 72
     5
 11
867.5833333333276
 21
-643.7500000000108
 31
0.0
  0
TEXT
  5
387
  8
ZUWAKU
 62
     4
 10
815.4583333333276
 20
-636.2500000000111
 30
0.0
 40
15.0
  1
単
 41
1.12
  7
DCSTYLE0
 72
     5
 11
827.4583333333276
 21
-636.2500000000111
 31
0.0
  0
TEXT
  5
388
  8
ZUWAKU
 62
     4
 10
815.4583333333276
 20
-651.2500000000113
 30
0.0
 40
15.0
  1
位
 41
1.12
  7
DCSTYLE0
 72
     5
 11
827.4583333333276
 21
-651.2500000000113
 31
0.0
  0
TEXT
  5
389
  8
ZUWAKU
 62
     4
 10
534.3870466594109
 20
-535.433284766352
 30
0.0
 40
17.5
  1
1
 41
1.527272727272727
  7
DCSTYLE0
 72
     5
 11
548.3870466594109
 21
-535.433284766352
 31
0.0
  0
TEXT
  5
38A
  8
ZUWAKU
 62
     4
 10
584.3870466594125
 20
-535.4332847663521
 30
0.0
 40
17.5
  1
ガードパイプ
 41
0.96
  7
DCSTYLE0
 72
     5
 11
668.3870466594125
 21
-535.4332847663521
 31
0.0
  0
TEXT
  5
38B
  8
ZUWAKU
 62
     4
 10
718.5755099533025
 20
-535.4332847663526
 30
0.0
 40
17.5
  1
STK-PZ
 41
0.624793388429752
  7
DCSTYLE0
 72
     5
 11
781.5755099533025
 21
-535.4332847663526
 31
0.0
  0
TEXT
  5
38C
  8
ZUWAKU
 62
     4
 10
809.3870466594112
 20
-535.4332847663528
 30
0.0
 40
17.5
  1
1
 41
1.527272727272727
  7
DCSTYLE0
 72
     5
 11
823.3870466594112
 21
-535.4332847663528
 31
0.0
  0
TEXT
  5
38D
  8
ZUWAKU
 62
     4
 10
859.3870466594104
 20
-535.4332847663532
 30
0.0
 40
17.5
  1
φ48.6ｘｔ1.9
 41
0.9882352941176469
  7
DCSTYLE0
 72
     5
 11
999.3870466594104
 21
-535.4332847663532
 31
0.0
  0
TEXT
  5
38E
  8
ZUWAKU
 62
     4
 10
718.5755099533025
 20
-510.4332847663528
 30
0.0
 40
17.5
  1
SS400
 41
0.8659793814432989
  7
DCSTYLE0
 72
     5
 11
788.5755099533025
 21
-510.4332847663528
 31
0.0
  0
TEXT
  5
38F
  8
ZUWAKU
 62
     4
 10
534.3870466594109
 20
-510.4332847663521
 30
0.0
 40
17.5
  1
2
 41
0.988235294117647
  7
DCSTYLE0
 72
     5
 11
548.3870466594109
 21
-510.4332847663521
 31
0.0
  0
TEXT
  5
390
  8
ZUWAKU
 62
     4
 10
584.3870466594125
 20
-510.4332847663522
 30
0.0
 40
17.5
  1
フランジ
 41
0.9739130434782609
  7
DCSTYLE0
 72
     5
 11
640.3870466594125
 21
-510.4332847663522
 31
0.0
  0
TEXT
  5
391
  8
ZUWAKU
 62
     4
 10
809.3870466594112
 20
-510.4332847663529
 30
0.0
 40
17.5
  1
2
 41
0.988235294117647
  7
DCSTYLE0
 72
     5
 11
823.3870466594112
 21
-510.4332847663529
 31
0.0
  0
TEXT
  5
392
  8
ZUWAKU
 62
     4
 10
847.8184447284401
 20
-509.9796141023934
 30
0.0
 40
17.5
  1
ｔ6　クロメートメッキ
 41
0.9380710659898476
  7
DCSTYLE0
 72
     5
 11
1001.81844472844
 21
-509.9796141023934
 31
0.0
  0
TEXT
  5
393
  8
ZUWAKU
 62
     4
 10
534.3870466594109
 20
-485.4332847663522
 30
0.0
 40
17.5
  1
3
 41
0.988235294117647
  7
DCSTYLE0
 72
     5
 11
548.3870466594109
 21
-485.4332847663522
 31
0.0
  0
TEXT
  5
394
  8
ZUWAKU
 62
     4
 10
584.3870466594121
 20
-485.4332847663522
 30
0.0
 40
17.5
  1
アンカーボルト
 41
0.9560975609756097
  7
DCSTYLE0
 72
     5
 11
682.3870466594121
 21
-485.4332847663522
 31
0.0
  0
TEXT
  5
395
  8
ZUWAKU
 62
     4
 10
809.3870466594113
 20
-485.4332847663529
 30
0.0
 40
17.5
  1
4
 41
0.9333333333333333
  7
DCSTYLE0
 72
     5
 11
823.3870466594113
 21
-485.4332847663529
 31
0.0
  0
TEXT
  5
396
  8
ZUWAKU
 62
     4
 10
844.9566515900852
 20
-481.6832847663534
 30
0.0
 40
13.75
  1
M12-φ16-100溶融亜鉛メッキ
 41
0.6882352941176471
  7
DCSTYLE0
 72
     5
 11
1005.831651590085
 21
-481.6832847663534
 31
0.0
  0
TEXT
  5
397
  8
ZUWAKU
 62
     4
 10
718.5755099533021
 20
-485.4332847663525
 30
0.0
 40
17.5
  1
SWCH
 41
0.8096385542168674
  7
DCSTYLE0
 72
     5
 11
774.5755099533021
 21
-485.4332847663525
 31
0.0
  0
TEXT
  5
398
  8
ZUWAKU
 62
     4
 10
1016.009056850775
 20
-695.094992500592
 30
0.0
 40
17.5
  1
E
 41
0.988235294117647
  7
DCSTYLE0
 72
     5
 11
1030.009056850775
 21
-695.094992500592
 31
0.0
  0
TEXT
  5
399
  8
ZUWAKU
 62
     4
 10
568.7000485278388
 20
-689.4773579850039
 30
0.0
 40
17.5
  1
粉体塗装　塗装色：イエロー
 41
0.9454545454545454
  7
DCSTYLE0
 72
     5
 11
750.7000485278388
 21
-689.4773579850039
 31
0.0
  0
TEXT
  5
39A
  8
ZUWAKU
 62
     2
 10
557.333333392932
 20
-583.1492528197508
 30
0.0
 40
20.0
  1
バルクガード　（アンカー固定式・標準）
 41
0.9384955752212388
  7
DCSTYLE0
 72
     5
 11
860.333333392932
 21
-583.1492528197508
 31
0.0
  0
TEXT
  5
39B
  8
ZUWAKU
 62
     2
 10
831.8698676297921
 20
-680.1785453801226
 30
0.0
 40
15.0
  1
株
 41
1.12
  7
DCSTYLE0
 72
     5
 11
843.8698676297921
 21
-680.1785453801226
 31
0.0
  0
TEXT
  5
39C
  8
ZUWAKU
 62
     2
 10
849.8698676297928
 20
-680.1785453801226
 30
0.0
 40
15.0
  1
式
 41
1.12
  7
DCSTYLE0
 72
     5
 11
861.8698676297928
 21
-680.1785453801226
 31
0.0
  0
TEXT
  5
39D
  8
ZUWAKU
 62
     2
 10
831.8698676297921
 20
-698.1785453801267
 30
0.0
 40
15.0
  1
会
 41
1.12
  7
DCSTYLE0
 72
     5
 11
843.8698676297921
 21
-698.1785453801267
 31
0.0
  0
TEXT
  5
39E
  8
ZUWAKU
 62
     2
 10
849.8698676297928
 20
-698.1785453801267
 30
0.0
 40
15.0
  1
社
 41
1.12
  7
DCSTYLE0
 72
     5
 11
861.8698676297928
 21
-698.1785453801267
 31
0.0
  0
TEXT
  5
39F
  8
ZUWAKU
 62
     2
 10
557.333333392932
 20
-611.8507471802706
 30
0.0
 40
20.0
  1
BG-SA700
 41
0.8180981595092024
  7
DCSTYLE0
 72
     5
 11
684.333333392932
 21
-611.8507471802706
 31
0.0
  0
LINE
  5
3A0
  8
ZUWAKU
  6
CONTINUOUS
 62
     6
 10
787.1753247972795
 20
-685.6232232590655
 30
0.0
 11
787.1272363871419
 21
-685.9901384181971
 31
0.0
  0
LINE
  5
3A1
  8
ZUWAKU
  6
CONTINUOUS
 62
     6
 10
787.1272363871419
 20
-685.9901384181971
 30
0.0
 11
787.1224290856453
 21
-686.5979406828528
 31
0.0
  0
LINE
  5
3A2
  8
ZUWAKU
  6
CONTINUOUS
 62
     6
 10
787.1224290856453
 20
-686.5979406828528
 30
0.0
 11
787.19134144531
 21
-687.2115889470961
 31
0.0
  0
LINE
  5
3A3
  8
ZUWAKU
  6
CONTINUOUS
 62
     6
 10
787.19134144531
 20
-687.2115889470961
 30
0.0
 11
787.3337153408506
 21
-687.826706353449
 31
0.0
  0
LINE
  5
3A4
  8
ZUWAKU
  6
CONTINUOUS
 62
     6
 10
787.3337153408506
 20
-687.826706353449
 30
0.0
 11
787.5487914555943
 21
-688.4387709434991
 31
0.0
  0
LINE
  5
3A5
  8
ZUWAKU
  6
CONTINUOUS
 62
     6
 10
787.5487914555943
 20
-688.4387709434991
 30
0.0
 11
787.8352594681014
 21
-689.0431532467578
 31
0.0
  0
LINE
  5
3A6
  8
ZUWAKU
  6
CONTINUOUS
 62
     6
 10
787.8352594681014
 20
-689.0431532467578
 30
0.0
 11
788.1912272528707
 21
-689.635176312127
 31
0.0
  0
LINE
  5
3A7
  8
ZUWAKU
  6
CONTINUOUS
 62
     6
 10
788.1912272528707
 20
-689.635176312127
 30
0.0
 11
788.6142132035031
 21
-690.2101847870454
 31
0.0
  0
LINE
  5
3A8
  8
ZUWAKU
  6
CONTINUOUS
 62
     6
 10
788.6142132035031
 20
-690.2101847870454
 30
0.0
 11
789.101158877316
 21
-690.763612534236
 31
0.0
  0
LINE
  5
3A9
  8
ZUWAKU
  6
CONTINUOUS
 62
     6
 10
789.101158877316
 20
-690.763612534236
 30
0.0
 11
789.6484563489998
 21
-691.2910430779157
 31
0.0
  0
LINE
  5
3AA
  8
ZUWAKU
  6
CONTINUOUS
 62
     6
 10
789.6484563489998
 20
-691.2910430779157
 30
0.0
 11
790.2519848454285
 21
-691.7882611388704
 31
0.0
  0
LINE
  5
3AB
  8
ZUWAKU
  6
CONTINUOUS
 62
     6
 10
790.2519848454285
 20
-691.7882611388704
 30
0.0
 11
790.9071526942712
 21
-692.2512957934673
 31
0.0
  0
LINE
  5
3AC
  8
ZUWAKU
  6
CONTINUOUS
 62
     6
 10
790.9071526942712
 20
-692.2512957934673
 30
0.0
 11
791.6089421733984
 21
-692.6764566559045
 31
0.0
  0
LINE
  5
3AD
  8
ZUWAKU
  6
CONTINUOUS
 62
     6
 10
791.6089421733984
 20
-692.6764566559045
 30
0.0
 11
792.3519560051757
 21
-693.0603645289721
 31
0.0
  0
LINE
  5
3AE
  8
ZUWAKU
  6
CONTINUOUS
 62
     6
 10
792.3519560051757
 20
-693.0603645289721
 30
0.0
 11
793.1304649391934
 21
-693.399977673917
 31
0.0
  0
LINE
  5
3AF
  8
ZUWAKU
  6
CONTINUOUS
 62
     6
 10
793.1304649391934
 20
-693.399977673917
 30
0.0
 11
793.9384562186815
 21
-693.6926144909608
 31
0.0
  0
LINE
  5
3B0
  8
ZUWAKU
  6
CONTINUOUS
 62
     6
 10
793.9384562186815
 20
-693.6926144909608
 30
0.0
 11
794.7696828631565
 21
-693.9359730975098
 31
0.0
  0
LINE
  5
3B1
  8
ZUWAKU
  6
CONTINUOUS
 62
     6
 10
794.7696828631565
 20
-693.9359730975098
 30
0.0
 11
795.6177137254879
 21
-694.1281480720436
 31
0.0
  0
LINE
  5
3B2
  8
ZUWAKU
  6
CONTINUOUS
 62
     6
 10
795.6177137254879
 20
-694.1281480720436
 30
0.0
 11
796.4759842617702
 21
-694.2676444908561
 31
0.0
  0
LINE
  5
3B3
  8
ZUWAKU
  6
CONTINUOUS
 62
     6
 10
796.4759842617702
 20
-694.2676444908561
 30
0.0
 11
797.3378479245896
 21
-694.3533893016324
 31
0.0
  0
LINE
  5
3B4
  8
ZUWAKU
  6
CONTINUOUS
 62
     6
 10
797.3378479245896
 20
-694.3533893016324
 30
0.0
 11
798.1966280747015
 21
-694.3847400303416
 31
0.0
  0
LINE
  5
3B5
  8
ZUWAKU
  6
CONTINUOUS
 62
     6
 10
798.1966280747015
 20
-694.3847400303416
 30
0.0
 11
799.0456703122647
 21
-694.3614907852661
 31
0.0
  0
LINE
  5
3B6
  8
ZUWAKU
  6
CONTINUOUS
 62
     6
 10
799.0456703122647
 20
-694.3614907852661
 30
0.0
 11
799.8783951613286
 21
-694.2838754840959
 31
0.0
  0
LINE
  5
3B7
  8
ZUWAKU
  6
CONTINUOUS
 62
     6
 10
799.8783951613286
 20
-694.2838754840959
 30
0.0
 11
800.6883510980101
 21
-694.1525681629223
 31
0.0
  0
LINE
  5
3B8
  8
ZUWAKU
  6
CONTINUOUS
 62
     6
 10
800.6883510980101
 20
-694.1525681629223
 30
0.0
 11
801.4692679840796
 21
-693.9686801030489
 31
0.0
  0
LINE
  5
3B9
  8
ZUWAKU
  6
CONTINUOUS
 62
     6
 10
801.4692679840796
 20
-693.9686801030489
 30
0.0
 11
802.2151110257387
 21
-693.7337532988026
 31
0.0
  0
LINE
  5
3BA
  8
ZUWAKU
  6
CONTINUOUS
 62
     6
 10
802.2151110257387
 20
-693.7337532988026
 30
0.0
 11
802.9201353643596
 21
-693.449749455754
 31
0.0
  0
LINE
  5
3BB
  8
ZUWAKU
  6
CONTINUOUS
 62
     6
 10
802.9201353643596
 20
-693.449749455754
 30
0.0
 11
803.578941214251
 21
-693.1190332439364
 31
0.0
  0
LINE
  5
3BC
  8
ZUWAKU
  6
CONTINUOUS
 62
     6
 10
803.578941214251
 20
-693.1190332439364
 30
0.0
 11
804.1865289243544
 21
-692.7443479957838
 31
0.0
  0
LINE
  5
3BD
  8
ZUWAKU
  6
CONTINUOUS
 62
     6
 10
804.1865289243544
 20
-692.7443479957838
 30
0.0
 11
804.738352250883
 21
-692.3287816472548
 31
0.0
  0
LINE
  5
3BE
  8
ZUWAKU
  6
CONTINUOUS
 62
     6
 10
804.738352250883
 20
-692.3287816472548
 30
0.0
 11
805.2315224720776
 21
-691.8746563612744
 31
0.0
  0
ARC
  5
3BF
  8
ZUWAKU
  6
CONTINUOUS
 62
     6
 10
810.9697156651822
 20
-692.3891754186416
 30
0.0
 40
0.1627008338417734
 50
348.9999999999993
 51
45.00000000000031
  0
LINE
  5
3C0
  8
ZUWAKU
  6
CONTINUOUS
 62
     6
 10
811.0847625280968
 20
-692.2741285557236
 30
0.0
 11
807.1359610773864
 21
-688.325327105013
 31
0.0
  0
ARC
  5
3C1
  8
ZUWAKU
  6
CONTINUOUS
 62
     6
 10
807.7073815934962
 20
-688.2064664436421
 30
0.0
 40
0.4881025015253201
 50
168.9999999999942
 51
225.0
  0
LINE
  5
3C2
  8
ZUWAKU
  6
CONTINUOUS
 62
     6
 10
807.2282469096906
 20
-688.1133320956865
 30
0.0
 11
807.3222146532153
 21
-687.6299099633688
 31
0.0
  0
LINE
  5
3C3
  8
ZUWAKU
  6
CONTINUOUS
 62
     6
 10
807.4037985825516
 20
-687.0074235819452
 30
0.0
 11
807.4089178664071
 21
-686.3601764056334
 31
0.0
  0
LINE
  5
3C4
  8
ZUWAKU
  6
CONTINUOUS
 62
     6
 10
805.3966199211147
 20
-682.0409020090237
 30
0.0
 11
804.7740276474856
 21
-681.4409098688047
 31
0.0
  0
LINE
  5
3C5
  8
ZUWAKU
  6
CONTINUOUS
 62
     6
 10
804.7740276474856
 20
-681.4409098688047
 30
0.0
 11
804.1514431833339
 21
-680.9279925138235
 31
0.0
  0
LINE
  5
3C6
  8
ZUWAKU
  6
CONTINUOUS
 62
     6
 10
804.1514431833339
 20
-680.9279925138235
 30
0.0
 11
803.4770774963381
 21
-680.4513899401427
 31
0.0
  0
LINE
  5
3C7
  8
ZUWAKU
  6
CONTINUOUS
 62
     6
 10
803.4770774963381
 20
-680.4513899401427
 30
0.0
 11
802.7560314173634
 21
-680.0145629686454
 31
0.0
  0
LINE
  5
3C8
  8
ZUWAKU
  6
CONTINUOUS
 62
     6
 10
802.7560314173634
 20
-680.0145629686454
 30
0.0
 11
801.9937363065146
 21
-679.6206926500354
 31
0.0
  0
LINE
  5
3C9
  8
ZUWAKU
  6
CONTINUOUS
 62
     6
 10
801.9937363065146
 20
-679.6206926500354
 30
0.0
 11
801.1959192233548
 21
-679.2726566072024
 31
0.0
  0
LINE
  5
3CA
  8
ZUWAKU
  6
CONTINUOUS
 62
     6
 10
801.1959192233548
 20
-679.2726566072024
 30
0.0
 11
800.3685642039245
 21
-678.973006665929
 31
0.0
  0
LINE
  5
3CB
  8
ZUWAKU
  6
CONTINUOUS
 62
     6
 10
800.3685642039245
 20
-678.973006665929
 30
0.0
 11
799.5178702405208
 21
-678.7239486034746
 31
0.0
  0
LINE
  5
3CC
  8
ZUWAKU
  6
CONTINUOUS
 62
     6
 10
799.5178702405208
 20
-678.7239486034746
 30
0.0
 11
798.6502066174155
 21
-678.5273245864896
 31
0.0
  0
LINE
  5
3CD
  8
ZUWAKU
  6
CONTINUOUS
 62
     6
 10
798.6502066174155
 20
-678.5273245864896
 30
0.0
 11
797.7720662616862
 21
-678.3845986863735
 31
0.0
  0
LINE
  5
3CE
  8
ZUWAKU
  6
CONTINUOUS
 62
     6
 10
797.7720662616862
 20
-678.3845986863735
 30
0.0
 11
796.8900177613018
 21
-678.2968457330621
 31
0.0
  0
LINE
  5
3CF
  8
ZUWAKU
  6
CONTINUOUS
 62
     6
 10
796.8900177613018
 20
-678.2968457330621
 30
0.0
 11
796.0106567015755
 21
-678.2647436752591
 31
0.0
  0
LINE
  5
3D0
  8
ZUWAKU
  6
CONTINUOUS
 62
     6
 10
796.0106567015755
 20
-678.2647436752591
 30
0.0
 11
795.1405569867809
 21
-678.288569535287
 31
0.0
  0
LINE
  5
3D1
  8
ZUWAKU
  6
CONTINUOUS
 62
     6
 10
795.1405569867809
 20
-678.288569535287
 30
0.0
 11
794.2862228492886
 21
-678.3681989608458
 31
0.0
  0
LINE
  5
3D2
  8
ZUWAKU
  6
CONTINUOUS
 62
     6
 10
794.2862228492886
 20
-678.3681989608458
 30
0.0
 11
793.4540423027563
 21
-678.5031092607169
 31
0.0
  0
LINE
  5
3D3
  8
ZUWAKU
  6
CONTINUOUS
 62
     6
 10
793.4540423027563
 20
-678.5031092607169
 30
0.0
 11
792.6502428591625
 21
-678.6923856393564
 31
0.0
  0
LINE
  5
3D4
  8
ZUWAKU
  6
CONTINUOUS
 62
     6
 10
792.6502428591625
 20
-678.6923856393564
 30
0.0
 11
791.8808503728401
 21
-678.9347300843933
 31
0.0
  0
LINE
  5
3D5
  8
ZUWAKU
  6
CONTINUOUS
 62
     6
 10
791.8808503728401
 20
-678.9347300843933
 30
0.0
 11
791.1516518424623
 21
-679.2284719790068
 31
0.0
  0
LINE
  5
3D6
  8
ZUWAKU
  6
CONTINUOUS
 62
     6
 10
791.1516518424623
 20
-679.2284719790068
 30
0.0
 11
790.4681627843656
 21
-679.5715789993078
 31
0.0
  0
LINE
  5
3D7
  8
ZUWAKU
  6
CONTINUOUS
 62
     6
 10
790.4681627843656
 20
-679.5715789993078
 30
0.0
 11
789.8355992222589
 21
-679.9616662760905
 31
0.0
  0
LINE
  5
3D8
  8
ZUWAKU
  6
CONTINUOUS
 62
     6
 10
789.8355992222589
 20
-679.9616662760905
 30
0.0
 11
789.2588532123495
 21
-680.3960013645888
 31
0.0
  0
LINE
  5
3D9
  8
ZUWAKU
  6
CONTINUOUS
 62
     6
 10
789.2588532123495
 20
-680.3960013645888
 30
0.0
 11
788.7424690175721
 21
-680.8715027433259
 31
0.0
  0
LINE
  5
3DA
  8
ZUWAKU
  6
CONTINUOUS
 62
     6
 10
788.7424690175721
 20
-680.8715027433259
 30
0.0
 11
788.2147326383138
 21
-681.470920104146
 31
0.0
  0
LINE
  5
3DB
  8
ZUWAKU
  6
CONTINUOUS
 62
     6
 10
787.3059848691009
 20
-683.3087920786766
 30
0.0
 11
787.1959919856711
 21
-683.733085748941
 31
0.0
  0
LINE
  5
3DC
  8
ZUWAKU
  6
CONTINUOUS
 62
     6
 10
787.1959919856711
 20
-683.733085748941
 30
0.0
 11
787.1124504386269
 21
-684.3705087774974
 31
0.0
  0
LINE
  5
3DD
  8
ZUWAKU
  6
CONTINUOUS
 62
     6
 10
787.1124504386269
 20
-684.3705087774974
 30
0.0
 11
787.1073311547714
 21
-685.0177559538092
 31
0.0
  0
LINE
  5
3DE
  8
ZUWAKU
  6
CONTINUOUS
 62
     6
 10
787.1073311547714
 20
-685.0177559538092
 30
0.0
 11
787.1805219432788
 21
-685.6695026149991
 31
0.0
  0
LINE
  5
3DF
  8
ZUWAKU
  6
CONTINUOUS
 62
     6
 10
787.1805219432788
 20
-685.6695026149991
 30
0.0
 11
787.3311994386752
 21
-686.3204951990888
 31
0.0
  0
LINE
  5
3E0
  8
ZUWAKU
  6
CONTINUOUS
 62
     6
 10
787.3311994386752
 20
-686.3204951990888
 30
0.0
 11
787.5578926595967
 21
-686.9656198029707
 31
0.0
  0
LINE
  5
3E1
  8
ZUWAKU
  6
CONTINUOUS
 62
     6
 10
787.5578926595967
 20
-686.9656198029707
 30
0.0
 11
787.8585497960951
 21
-687.599937928258
 31
0.0
  0
LINE
  5
3E2
  8
ZUWAKU
  6
CONTINUOUS
 62
     6
 10
787.8585497960951
 20
-687.599937928258
 30
0.0
 11
788.2305945967626
 21
-688.2186992678276
 31
0.0
  0
LINE
  5
3E3
  8
ZUWAKU
  6
CONTINUOUS
 62
     6
 10
788.2305945967626
 20
-688.2186992678276
 30
0.0
 11
788.6709680526503
 21
-688.8173443738474
 31
0.0
  0
LINE
  5
3E4
  8
ZUWAKU
  6
CONTINUOUS
 62
     6
 10
788.6709680526503
 20
-688.8173443738474
 30
0.0
 11
789.1761579200324
 21
-689.391507171154
 31
0.0
  0
LINE
  5
3E5
  8
ZUWAKU
  6
CONTINUOUS
 62
     6
 10
789.1761579200324
 20
-689.391507171154
 30
0.0
 11
789.7422213736895
 21
-689.9370224906379
 31
0.0
  0
LINE
  5
3E6
  8
ZUWAKU
  6
CONTINUOUS
 62
     6
 10
789.7422213736895
 20
-689.9370224906379
 30
0.0
 11
790.3648058378412
 21
-690.4499398456192
 31
0.0
  0
LINE
  5
3E7
  8
ZUWAKU
  6
CONTINUOUS
 62
     6
 10
790.3648058378412
 20
-690.4499398456192
 30
0.0
 11
791.0391715248404
 21
-690.9265424193
 31
0.0
  0
LINE
  5
3E8
  8
ZUWAKU
  6
CONTINUOUS
 62
     6
 10
791.0391715248404
 20
-690.9265424193
 30
0.0
 11
791.7602176038151
 21
-691.3633693907973
 31
0.0
  0
LINE
  5
3E9
  8
ZUWAKU
  6
CONTINUOUS
 62
     6
 10
791.7602176038151
 20
-691.3633693907973
 30
0.0
 11
792.5225127146639
 21
-691.7572397094141
 31
0.0
  0
LINE
  5
3EA
  8
ZUWAKU
  6
CONTINUOUS
 62
     6
 10
792.5225127146639
 20
-691.7572397094141
 30
0.0
 11
793.3203297978202
 21
-692.1052757522402
 31
0.0
  0
LINE
  5
3EB
  8
ZUWAKU
  6
CONTINUOUS
 62
     6
 10
793.3203297978202
 20
-692.1052757522402
 30
0.0
 11
794.1476848172506
 21
-692.4049256935136
 31
0.0
  0
LINE
  5
3EC
  8
ZUWAKU
  6
CONTINUOUS
 62
     6
 10
794.1476848172506
 20
-692.4049256935136
 30
0.0
 11
794.9983787806543
 21
-692.6539837559749
 31
0.0
  0
LINE
  5
3ED
  8
ZUWAKU
  6
CONTINUOUS
 62
     6
 10
794.9983787806543
 20
-692.6539837559749
 30
0.0
 11
795.866042403763
 21
-692.850607772953
 31
0.0
  0
LINE
  5
3EE
  8
ZUWAKU
  6
CONTINUOUS
 62
     6
 10
795.866042403763
 20
-692.850607772953
 30
0.0
 11
796.7441827594889
 21
-692.9933336730692
 31
0.0
  0
LINE
  5
3EF
  8
ZUWAKU
  6
CONTINUOUS
 62
     6
 10
796.7441827594889
 20
-692.9933336730692
 30
0.0
 11
797.6262312598733
 21
-693.0810866263805
 31
0.0
  0
LINE
  5
3F0
  8
ZUWAKU
  6
CONTINUOUS
 62
     6
 10
797.6262312598733
 20
-693.0810866263805
 30
0.0
 11
798.505592319603
 21
-693.1131886841836
 31
0.0
  0
LINE
  5
3F1
  8
ZUWAKU
  6
CONTINUOUS
 62
     6
 10
798.505592319603
 20
-693.1131886841836
 30
0.0
 11
799.3756920343942
 21
-693.0893628241556
 31
0.0
  0
LINE
  5
3F2
  8
ZUWAKU
  6
CONTINUOUS
 62
     6
 10
799.3756920343942
 20
-693.0893628241556
 30
0.0
 11
800.2300261718933
 21
-693.0097333985968
 31
0.0
  0
LINE
  5
3F3
  8
ZUWAKU
  6
CONTINUOUS
 62
     6
 10
800.2300261718933
 20
-693.0097333985968
 30
0.0
 11
801.0622067184188
 21
-692.8748230987258
 31
0.0
  0
LINE
  5
3F4
  8
ZUWAKU
  6
CONTINUOUS
 62
     6
 10
801.0622067184188
 20
-692.8748230987258
 30
0.0
 11
801.8660061620194
 21
-692.685546720093
 31
0.0
  0
LINE
  5
3F5
  8
ZUWAKU
  6
CONTINUOUS
 62
     6
 10
801.8660061620194
 20
-692.685546720093
 30
0.0
 11
802.6353986483384
 21
-692.4432022750493
 31
0.0
  0
LINE
  5
3F6
  8
ZUWAKU
  6
CONTINUOUS
 62
     6
 10
802.6353986483384
 20
-692.4432022750493
 30
0.0
 11
803.3645971787196
 21
-692.1494603804358
 31
0.0
  0
LINE
  5
3F7
  8
ZUWAKU
  6
CONTINUOUS
 62
     6
 10
803.3645971787196
 20
-692.1494603804358
 30
0.0
 11
804.0480862368095
 21
-691.8063533601348
 31
0.0
  0
LINE
  5
3F8
  8
ZUWAKU
  6
CONTINUOUS
 62
     6
 10
804.0480862368095
 20
-691.8063533601348
 30
0.0
 11
804.6806497989162
 21
-691.416266083359
 31
0.0
  0
LINE
  5
3F9
  8
ZUWAKU
  6
CONTINUOUS
 62
     6
 10
804.6806497989162
 20
-691.416266083359
 30
0.0
 11
805.257395808829
 21
-690.9819309948539
 31
0.0
  0
LINE
  5
3FA
  8
ZUWAKU
  6
CONTINUOUS
 62
     6
 10
805.257395808829
 20
-690.9819309948539
 30
0.0
 11
805.773780003603
 21
-690.5064296161167
 31
0.0
  0
LINE
  5
3FB
  8
ZUWAKU
  6
CONTINUOUS
 62
     6
 10
805.773780003603
 20
-690.5064296161167
 30
0.0
 11
805.8451860713462
 21
-690.4253246585022
 31
0.0
  0
ARC
  5
3FC
  8
ZUWAKU
  6
CONTINUOUS
 62
     6
 10
810.166223546193
 20
-691.7697582803116
 30
0.0
 40
0.2928615009151919
 50
248.9511701848124
 51
45.0000000000002
  0
LINE
  5
3FD
  8
ZUWAKU
  6
CONTINUOUS
 62
     6
 10
807.1359610773864
 20
-688.325327105013
 30
0.0
 11
807.1589325398197
 21
-688.2671501654481
 31
0.0
  0
LINE
  5
3FE
  8
ZUWAKU
  6
CONTINUOUS
 62
     6
 10
807.1589325398197
 20
-688.2671501654481
 30
0.0
 11
807.320257035504
 21
-687.6448466105016
 31
0.0
  0
LINE
  5
3FF
  8
ZUWAKU
  6
CONTINUOUS
 62
     6
 10
807.320257035504
 20
-687.6448466105016
 30
0.0
 11
807.4037985825516
 21
-687.0074235819452
 31
0.0
  0
LINE
  5
400
  8
ZUWAKU
  6
CONTINUOUS
 62
     6
 10
807.4089178664071
 20
-686.3601764056402
 30
0.0
 11
807.3357270778963
 21
-685.7084297444435
 31
0.0
  0
LINE
  5
401
  8
ZUWAKU
  6
CONTINUOUS
 62
     6
 10
807.3357270778963
 20
-685.7084297444435
 30
0.0
 11
807.1850495824999
 21
-685.0574371603539
 31
0.0
  0
LINE
  5
402
  8
ZUWAKU
  6
CONTINUOUS
 62
     6
 10
807.1850495824999
 20
-685.0574371603539
 30
0.0
 11
806.9748948257275
 21
-684.4593777933101
 31
0.0
  0
LINE
  5
403
  8
ZUWAKU
  6
CONTINUOUS
 62
     6
 10
787.5044854477512
 20
-682.3860992315786
 30
0.0
 11
787.6955824127135
 21
-682.4596414032867
 31
0.0
  0
LINE
  5
404
  8
ZUWAKU
  6
CONTINUOUS
 62
     6
 10
787.6955824127135
 20
-682.4596414032867
 30
0.0
 11
787.7311773365552
 21
-682.393830393542
 31
0.0
  0
LINE
  5
405
  8
ZUWAKU
  6
CONTINUOUS
 62
     6
 10
787.7311773365552
 20
-682.393830393542
 30
0.0
 11
787.5044854477512
 21
-682.3860992315786
 31
0.0
  0
LINE
  5
406
  8
ZUWAKU
  6
CONTINUOUS
 62
     6
 10
788.2220241714272
 20
-683.6604266215163
 30
0.0
 11
788.1548696832642
 21
-683.9194726922306
 31
0.0
  0
LINE
  5
407
  8
ZUWAKU
  6
CONTINUOUS
 62
     6
 10
788.1548696832642
 20
-683.9194726922306
 30
0.0
 11
788.0817524191157
 21
-684.4773583144256
 31
0.0
  0
LINE
  5
408
  8
ZUWAKU
  6
CONTINUOUS
 62
     6
 10
788.0817524191157
 20
-684.4773583144256
 30
0.0
 11
788.0772653300478
 21
-685.0446751132522
 31
0.0
  0
LINE
  5
409
  8
ZUWAKU
  6
CONTINUOUS
 62
     6
 10
788.0772653300478
 20
-685.0446751132522
 30
0.0
 11
788.141593717191
 21
-685.6175041863485
 31
0.0
  0
LINE
  5
40A
  8
ZUWAKU
  6
CONTINUOUS
 62
     6
 10
788.141593717191
 20
-685.6175041863485
 30
0.0
 11
788.2745143420534
 21
-686.191779334943
 31
0.0
  0
LINE
  5
40B
  8
ZUWAKU
  6
CONTINUOUS
 62
     6
 10
788.2745143420534
 20
-686.191779334943
 30
0.0
 11
788.4753398330674
 21
-686.7632894348667
 31
0.0
  0
LINE
  5
40C
  8
ZUWAKU
  6
CONTINUOUS
 62
     6
 10
788.4753398330674
 20
-686.7632894348667
 30
0.0
 11
788.7428683246385
 21
-687.3277136597817
 31
0.0
  0
LINE
  5
40D
  8
ZUWAKU
  6
CONTINUOUS
 62
     6
 10
788.7428683246385
 20
-687.3277136597817
 30
0.0
 11
789.0753518324591
 21
-687.8806791637094
 31
0.0
  0
LINE
  5
40E
  8
ZUWAKU
  6
CONTINUOUS
 62
     6
 10
789.0753518324591
 20
-687.8806791637094
 30
0.0
 11
789.4704874796521
 21
-688.4178278456857
 31
0.0
  0
LINE
  5
40F
  8
ZUWAKU
  6
CONTINUOUS
 62
     6
 10
789.4704874796521
 20
-688.4178278456857
 30
0.0
 11
789.9254287811705
 21
-688.9348817043497
 31
0.0
  0
LINE
  5
410
  8
ZUWAKU
  6
CONTINUOUS
 62
     6
 10
789.9254287811705
 20
-688.9348817043497
 30
0.0
 11
790.4368113842959
 21
-689.4277010911474
 31
0.0
  0
LINE
  5
411
  8
ZUWAKU
  6
CONTINUOUS
 62
     6
 10
790.4368113842959
 20
-689.4277010911474
 30
0.0
 11
791.0007878497374
 21
-689.8923341386903
 31
0.0
  0
LINE
  5
412
  8
ZUWAKU
  6
CONTINUOUS
 62
     6
 10
791.0007878497374
 20
-689.8923341386903
 30
0.0
 11
791.6130675200061
 21
-690.3250579149521
 31
0.0
  0
LINE
  5
413
  8
ZUWAKU
  6
CONTINUOUS
 62
     6
 10
791.6130675200061
 20
-690.3250579149521
 30
0.0
 11
792.2689590779005
 21
-690.7224127182262
 31
0.0
  0
LINE
  5
414
  8
ZUWAKU
  6
CONTINUOUS
 62
     6
 10
792.2689590779005
 20
-690.7224127182262
 30
0.0
 11
792.9634145566929
 21
-691.081230972216
 31
0.0
  0
LINE
  5
415
  8
ZUWAKU
  6
CONTINUOUS
 62
     6
 10
792.9634145566929
 20
-691.081230972216
 30
0.0
 11
793.6910742643506
 21
-691.3986618852964
 31
0.0
  0
LINE
  5
416
  8
ZUWAKU
  6
CONTINUOUS
 62
     6
 10
793.6910742643506
 20
-691.3986618852964
 30
0.0
 11
794.4463124374222
 21
-691.672192677875
 31
0.0
  0
LINE
  5
417
  8
ZUWAKU
  6
CONTINUOUS
 62
     6
 10
794.4463124374222
 20
-691.672192677875
 30
0.0
 11
795.2232835784157
 21
-691.8996668757454
 31
0.0
  0
LINE
  5
418
  8
ZUWAKU
  6
CONTINUOUS
 62
     6
 10
795.2232835784157
 20
-691.8996668757454
 30
0.0
 11
796.0159694573481
 21
-692.0792999473297
 31
0.0
  0
LINE
  5
419
  8
ZUWAKU
  6
CONTINUOUS
 62
     6
 10
796.0159694573481
 20
-692.0792999473297
 30
0.0
 11
796.818226739045
 21
-692.2096924203679
 31
0.0
  0
LINE
  5
41A
  8
ZUWAKU
  6
CONTINUOUS
 62
     6
 10
796.818226739045
 20
-692.2096924203679
 30
0.0
 11
797.6238351707964
 21
-692.2898405290839
 31
0.0
  0
LINE
  5
41B
  8
ZUWAKU
  6
CONTINUOUS
 62
     6
 10
797.6238351707964
 20
-692.2898405290839
 30
0.0
 11
798.4265462496212
 21
-692.319144393703
 31
0.0
  0
LINE
  5
41C
  8
ZUWAKU
  6
CONTINUOUS
 62
     6
 10
798.4265462496212
 20
-692.319144393703
 30
0.0
 11
799.2201322951764
 21
-692.2974137004057
 31
0.0
  0
LINE
  5
41D
  8
ZUWAKU
  6
CONTINUOUS
 62
     6
 10
799.2201322951764
 20
-692.2974137004057
 30
0.0
 11
799.9984358866079
 21
-692.2248708097804
 31
0.0
  0
LINE
  5
41E
  8
ZUWAKU
  6
CONTINUOUS
 62
     6
 10
799.9984358866079
 20
-692.2248708097804
 30
0.0
 11
800.7554196786675
 21
-692.1021511537974
 31
0.0
  0
LINE
  5
41F
  8
ZUWAKU
  6
CONTINUOUS
 62
     6
 10
800.7554196786675
 20
-692.1021511537974
 30
0.0
 11
801.4852166831356
 21
-691.9303006564569
 31
0.0
  0
LINE
  5
420
  8
ZUWAKU
  6
CONTINUOUS
 62
     6
 10
801.4852166831356
 20
-691.9303006564569
 30
0.0
 11
802.1821811593777
 21
-691.7107696989619
 31
0.0
  0
LINE
  5
421
  8
ZUWAKU
  6
CONTINUOUS
 62
     6
 10
802.1821811593777
 20
-691.7107696989619
 30
0.0
 11
802.84094024416
 21
-691.4454028151958
 31
0.0
  0
LINE
  5
422
  8
ZUWAKU
  6
CONTINUOUS
 62
     6
 10
802.84094024416
 20
-691.4454028151958
 30
0.0
 11
803.4564462583064
 21
-691.1364228366647
 31
0.0
  0
LINE
  5
423
  8
ZUWAKU
  6
CONTINUOUS
 62
     6
 10
803.4564462583064
 20
-691.1364228366647
 30
0.0
 11
804.0240290886647
 21
-690.7864076699666
 31
0.0
  0
LINE
  5
424
  8
ZUWAKU
  6
CONTINUOUS
 62
     6
 10
804.0240290886647
 20
-690.7864076699666
 30
0.0
 11
804.5394469527271
 21
-690.3982574968318
 31
0.0
  0
LINE
  5
425
  8
ZUWAKU
  6
CONTINUOUS
 62
     6
 10
804.5394469527271
 20
-690.3982574968318
 30
0.0
 11
804.9028728521973
 21
-690.0636045039328
 31
0.0
  0
LINE
  5
426
  8
ZUWAKU
  6
CONTINUOUS
 62
     6
 10
806.4838734320433
 20
-689.6248366641275
 30
0.0
 11
806.6092060834144
 21
-689.4460562442969
 31
0.0
  0
LINE
  5
427
  8
ZUWAKU
  6
CONTINUOUS
 62
     6
 10
806.6092060834144
 20
-689.4460562442969
 30
0.0
 11
806.7028994210177
 21
-689.2728278036161
 31
0.0
  0
LINE
  5
428
  8
ZUWAKU
  6
CONTINUOUS
 62
     6
 10
806.7028994210177
 20
-689.2728278036161
 30
0.0
 11
807.4106734923425
 21
-689.9806018749409
 31
0.0
  0
LINE
  5
429
  8
ZUWAKU
  6
CONTINUOUS
 62
     6
 10
806.12498093507
 20
-684.8538946862145
 30
0.0
 11
806.2417346791217
 21
-685.1861530244996
 31
0.0
  0
LINE
  5
42A
  8
ZUWAKU
  6
CONTINUOUS
 62
     6
 10
806.2417346791217
 20
-685.1861530244996
 30
0.0
 11
806.3746553039875
 21
-685.7604281730942
 31
0.0
  0
LINE
  5
42B
  8
ZUWAKU
  6
CONTINUOUS
 62
     6
 10
806.3746553039875
 20
-685.7604281730942
 30
0.0
 11
806.4389836911307
 21
-686.3332572461973
 31
0.0
  0
LINE
  5
42C
  8
ZUWAKU
  6
CONTINUOUS
 62
     6
 10
806.4389836911307
 20
-686.3332572461973
 30
0.0
 11
806.4344966020628
 21
-686.900574045017
 31
0.0
  0
LINE
  5
42D
  8
ZUWAKU
  6
CONTINUOUS
 62
     6
 10
806.4344966020628
 20
-686.900574045017
 30
0.0
 11
806.3613793379143
 21
-687.4584596672189
 31
0.0
  0
LINE
  5
42E
  8
ZUWAKU
  6
CONTINUOUS
 62
     6
 10
806.3613793379143
 20
-687.4584596672189
 30
0.0
 11
806.342380600275
 21
-687.5317466279016
 31
0.0
  0
LINE
  5
42F
  8
ZUWAKU
  6
CONTINUOUS
 62
     6
 10
806.342380600275
 20
-687.5317466279016
 30
0.0
 11
804.444555961091
 21
-685.6339219887245
 31
0.0
  0
LINE
  5
430
  8
ZUWAKU
  6
CONTINUOUS
 62
     6
 10
789.422065216698
 20
-681.5109714507462
 30
0.0
 11
789.5173169342941
 21
-681.4027819542166
 31
0.0
  0
LINE
  5
431
  8
ZUWAKU
  6
CONTINUOUS
 62
     6
 10
789.5173169342941
 20
-681.4027819542166
 30
0.0
 11
789.9768020684514
 21
-680.9796748626177
 31
0.0
  0
LINE
  5
432
  8
ZUWAKU
  6
CONTINUOUS
 62
     6
 10
789.9768020684514
 20
-680.9796748626177
 30
0.0
 11
790.4922199325104
 21
-680.591524689476
 31
0.0
  0
LINE
  5
433
  8
ZUWAKU
  6
CONTINUOUS
 62
     6
 10
790.4922199325104
 20
-680.591524689476
 30
0.0
 11
791.0598027628687
 21
-680.241509522778
 31
0.0
  0
LINE
  5
434
  8
ZUWAKU
  6
CONTINUOUS
 62
     6
 10
791.0598027628687
 20
-680.241509522778
 30
0.0
 11
791.6753087770185
 21
-679.9325295442468
 31
0.0
  0
LINE
  5
435
  8
ZUWAKU
  6
CONTINUOUS
 62
     6
 10
791.6753087770185
 20
-679.9325295442468
 30
0.0
 11
792.3340678618008
 21
-679.6671626604807
 31
0.0
  0
LINE
  5
436
  8
ZUWAKU
  6
CONTINUOUS
 62
     6
 10
792.3340678618008
 20
-679.6671626604807
 30
0.0
 11
793.0310323380429
 21
-679.4476317029857
 31
0.0
  0
LINE
  5
437
  8
ZUWAKU
  6
CONTINUOUS
 62
     6
 10
793.0310323380429
 20
-679.4476317029857
 30
0.0
 11
793.7608293425076
 21
-679.2757812056452
 31
0.0
  0
LINE
  5
438
  8
ZUWAKU
  6
CONTINUOUS
 62
     6
 10
793.7608293425076
 20
-679.2757812056452
 30
0.0
 11
794.5178131345706
 21
-679.153061549669
 31
0.0
  0
LINE
  5
439
  8
ZUWAKU
  6
CONTINUOUS
 62
     6
 10
794.5178131345706
 20
-679.153061549669
 30
0.0
 11
795.2961167260021
 21
-679.0805186590369
 31
0.0
  0
LINE
  5
43A
  8
ZUWAKU
  6
CONTINUOUS
 62
     6
 10
795.2961167260021
 20
-679.0805186590369
 30
0.0
 11
796.0897027715539
 21
-679.0587879657396
 31
0.0
  0
LINE
  5
43B
  8
ZUWAKU
  6
CONTINUOUS
 62
     6
 10
796.0897027715539
 20
-679.0587879657396
 30
0.0
 11
796.8924138503821
 21
-679.0880918303656
 31
0.0
  0
LINE
  5
43C
  8
ZUWAKU
  6
CONTINUOUS
 62
     6
 10
796.8924138503821
 20
-679.0880918303656
 30
0.0
 11
797.6980222821301
 21
-679.1682399390747
 31
0.0
  0
LINE
  5
43D
  8
ZUWAKU
  6
CONTINUOUS
 62
     6
 10
797.6980222821301
 20
-679.1682399390747
 30
0.0
 11
798.5002795638304
 21
-679.298632412113
 31
0.0
  0
LINE
  5
43E
  8
ZUWAKU
  6
CONTINUOUS
 62
     6
 10
798.5002795638304
 20
-679.298632412113
 30
0.0
 11
799.2929654427594
 21
-679.4782654836972
 31
0.0
  0
LINE
  5
43F
  8
ZUWAKU
  6
CONTINUOUS
 62
     6
 10
799.2929654427594
 20
-679.4782654836972
 30
0.0
 11
800.0699365837563
 21
-679.7057396815676
 31
0.0
  0
LINE
  5
440
  8
ZUWAKU
  6
CONTINUOUS
 62
     6
 10
800.0699365837563
 20
-679.7057396815676
 30
0.0
 11
800.8251747568279
 21
-679.979270474153
 31
0.0
  0
LINE
  5
441
  8
ZUWAKU
  6
CONTINUOUS
 62
     6
 10
800.8251747568279
 20
-679.979270474153
 30
0.0
 11
801.5528344644822
 21
-680.2967013872335
 31
0.0
  0
LINE
  5
442
  8
ZUWAKU
  6
CONTINUOUS
 62
     6
 10
801.5528344644822
 20
-680.2967013872335
 30
0.0
 11
802.2472899432746
 21
-680.6555196412164
 31
0.0
  0
LINE
  5
443
  8
ZUWAKU
  6
CONTINUOUS
 62
     6
 10
802.2472899432746
 20
-680.6555196412164
 30
0.0
 11
802.9031815011724
 21
-681.0528744444905
 31
0.0
  0
LINE
  5
444
  8
ZUWAKU
  6
CONTINUOUS
 62
     6
 10
802.9031815011724
 20
-681.0528744444905
 30
0.0
 11
803.5154611714377
 21
-681.4855982207591
 31
0.0
  0
LINE
  5
445
  8
ZUWAKU
  6
CONTINUOUS
 62
     6
 10
803.5154611714377
 20
-681.4855982207591
 30
0.0
 11
804.0794376368826
 21
-681.9502312682953
 31
0.0
  0
LINE
  5
446
  8
ZUWAKU
  6
CONTINUOUS
 62
     6
 10
804.0794376368826
 20
-681.9502312682953
 30
0.0
 11
804.1299201353406
 21
-681.9988812493152
 31
0.0
  0
LINE
  5
447
  8
ZUWAKU
  6
CONTINUOUS
 62
     6
 10
792.9060250336813
 20
-680.6667786822145
 30
0.0
 11
793.3869737220989
 21
-680.5535262698418
 31
0.0
  0
LINE
  5
448
  8
ZUWAKU
  6
CONTINUOUS
 62
     6
 10
793.3869737220989
 20
-680.5535262698418
 30
0.0
 11
794.1661821240059
 21
-680.4272036351681
 31
0.0
  0
LINE
  5
449
  8
ZUWAKU
  6
CONTINUOUS
 62
     6
 10
794.1661821240059
 20
-680.4272036351681
 30
0.0
 11
794.9660950038726
 21
-680.3526466201474
 31
0.0
  0
LINE
  5
44A
  8
ZUWAKU
  6
CONTINUOUS
 62
     6
 10
794.9660950038726
 20
-680.3526466201474
 30
0.0
 11
795.7807385266524
 21
-680.3303393118977
 31
0.0
  0
LINE
  5
44B
  8
ZUWAKU
  6
CONTINUOUS
 62
     6
 10
795.7807385266524
 20
-680.3303393118977
 30
0.0
 11
796.6040305150984
 21
-680.3603945056175
 31
0.0
  0
LINE
  5
44C
  8
ZUWAKU
  6
CONTINUOUS
 62
     6
 10
796.6040305150984
 20
-680.3603945056175
 30
0.0
 11
797.4298237844114
 21
-680.4425507568617
 31
0.0
  0
LINE
  5
44D
  8
ZUWAKU
  6
CONTINUOUS
 62
     6
 10
797.4298237844114
 20
-680.4425507568617
 30
0.0
 11
798.2519508855553
 21
-680.5761727112103
 31
0.0
  0
LINE
  5
44E
  8
ZUWAKU
  6
CONTINUOUS
 62
     6
 10
798.2519508855553
 20
-680.5761727112103
 30
0.0
 11
799.0642695252616
 21
-680.7602548252321
 31
0.0
  0
LINE
  5
44F
  8
ZUWAKU
  6
CONTINUOUS
 62
     6
 10
799.0642695252616
 20
-680.7602548252321
 30
0.0
 11
799.485005208423
 21
-680.883433804468
 31
0.0
  0
LINE
  5
450
  8
ZUWAKU
  6
CONTINUOUS
 62
     6
 10
805.0803711719443
 20
-683.007152957744
 30
0.0
 11
805.4408971887194
 21
-683.4972531957401
 31
0.0
  0
LINE
  5
451
  8
ZUWAKU
  6
CONTINUOUS
 62
     6
 10
805.4408971887194
 20
-683.4972531957401
 30
0.0
 11
805.7219707893155
 21
-683.9647169993218
 31
0.0
  0
ARC
  5
452
  8
ZUWAKU
  6
CONTINUOUS
 62
     6
 10
804.1648996009503
 20
-685.5843593544096
 30
0.0
 40
0.8135041692088667
 50
114.8999999999998
 51
225.0
  0
LINE
  5
453
  8
ZUWAKU
  6
CONTINUOUS
 62
     6
 10
803.5896652863773
 20
-686.1595936689791
 30
0.0
 11
806.0118245954159
 21
-688.5308002874995
 31
0.0
  0
LINE
  5
454
  8
ZUWAKU
  6
CONTINUOUS
 62
     6
 10
806.0118245954159
 20
-688.5308002874995
 30
0.0
 11
805.7375948057854
 21
-689.0378203175355
 31
0.0
  0
LINE
  5
455
  8
ZUWAKU
  6
CONTINUOUS
 62
     6
 10
805.7375948057854
 20
-689.0378203175355
 30
0.0
 11
805.5715753929276
 21
-689.2746382576756
 31
0.0
  0
LINE
  5
456
  8
ZUWAKU
  6
CONTINUOUS
 62
     6
 10
788.5599430310158
 20
-682.7444844166967
 30
0.0
 11
788.7115696344445
 21
-682.4641438850294
 31
0.0
  0
LINE
  5
457
  8
ZUWAKU
  6
CONTINUOUS
 62
     6
 10
803.3663417946077
 20
-685.4291354411457
 30
0.0
 11
803.1307875161685
 21
-686.6409571502645
 31
0.0
  0
ARC
  5
458
  8
ZUWAKU
  6
CONTINUOUS
 62
     6
 10
803.9293453225112
 20
-686.7961810635215
 30
0.0
 40
0.8135041692088667
 50
169.0
 51
224.9999999999982
  0
LINE
  5
459
  8
ZUWAKU
  6
CONTINUOUS
 62
     6
 10
803.3541110079416
 20
-687.3714153780979
 30
0.0
 11
804.075837988815
 21
-688.0931423589714
 31
0.0
  0
ARC
  5
45A
  8
ZUWAKU
  6
CONTINUOUS
 62
     6
 10
803.8687536355708
 20
-688.3002267122156
 30
0.0
 40
0.2928615009151919
 50
248.9511701848126
 51
44.99999999999822
  0
LINE
  5
45B
  8
ZUWAKU
  6
CONTINUOUS
 62
     6
 10
788.2147326383138
 20
-681.470920104146
 30
0.0
 11
782.763437017938
 21
-681.2900820034979
 31
0.0
  0
ARC
  5
45C
  8
ZUWAKU
  6
CONTINUOUS
 62
     6
 10
782.758042642766
 20
-681.452693387012
 30
0.0
 40
0.1627008338417734
 50
88.10000000000004
 51
168.999999999998
  0
LINE
  5
45D
  8
ZUWAKU
  6
CONTINUOUS
 62
     6
 10
782.5983310814975
 20
-681.4216486043647
 30
0.0
 11
782.3577124251876
 21
-682.6595242790067
 31
0.0
  0
ARC
  5
45E
  8
ZUWAKU
  6
CONTINUOUS
 62
     6
 10
782.5174239864562
 20
-682.6905690616609
 30
0.0
 40
0.1627008338417734
 50
168.999999999998
 51
249.0000000000001
  0
LINE
  5
45F
  8
ZUWAKU
  6
CONTINUOUS
 62
     6
 10
782.459117222241
 20
-682.8424633755121
 30
0.0
 11
786.9545928834982
 21
-684.5681148022418
 31
0.0
  0
ARC
  5
460
  8
ZUWAKU
  6
CONTINUOUS
 62
     6
 10
786.7796725908563
 20
-685.0237977437955
 30
0.0
 40
0.4881025015253201
 50
47.38928590658141
 51
69.00000000000026
  0
ARC
  5
461
  8
ZUWAKU
  6
CONTINUOUS
 62
     6
 10
783.7093716551324
 20
-681.6144844873661
 30
0.0
 40
0.2928615009151916
 50
88.10000000000034
 51
249.0000000000006
  0
LINE
  5
462
  8
ZUWAKU
  6
CONTINUOUS
 62
     6
 10
787.3059848691009
 20
-683.3087920786766
 30
0.0
 11
783.6044194795472
 21
-681.8878942522956
 31
0.0
  0
LINE
  5
463
  8
ZUWAKU
  6
CONTINUOUS
 62
     6
 10
789.422065216698
 20
-681.5109714507462
 30
0.0
 11
804.1299201353406
 21
-681.9988812493152
 31
0.0
  0
ARC
  5
464
  8
ZUWAKU
  6
CONTINUOUS
 62
     6
 10
793.0179020888563
 20
-681.1418866452282
 30
0.0
 40
0.4881025015253201
 50
103.2504547662727
 51
268.1000000000001
  0
ARC
  5
465
  8
ZUWAKU
  6
CONTINUOUS
 62
     6
 10
799.3478600564056
 20
-681.3518729779735
 30
0.0
 40
0.4881025015253201
 50
268.1000000000001
 51
73.68152816059866
  0
ARC
  5
466
  8
ZUWAKU
  6
CONTINUOUS
 62
     6
 10
805.6002652107425
 20
-681.5592866189359
 30
0.0
 40
0.4881025015253201
 50
226.0590228224415
 51
268.1000000000001
  0
LINE
  5
467
  8
ZUWAKU
  6
CONTINUOUS
 62
     6
 10
805.3966199211147
 20
-682.0409020090237
 30
0.0
 11
811.3790683078281
 21
-682.2393602616653
 31
0.0
  0
ARC
  5
468
  8
ZUWAKU
  6
CONTINUOUS
 62
     6
 10
811.3736739326561
 20
-682.4019716451862
 30
0.0
 40
0.1627008338417734
 50
348.9999999999998
 51
88.10000000000012
  0
LINE
  5
469
  8
ZUWAKU
  6
CONTINUOUS
 62
     6
 10
811.5333854939246
 20
-682.4330164278335
 30
0.0
 11
811.3345877238743
 21
-683.4557422941184
 31
0.0
  0
ARC
  5
46A
  8
ZUWAKU
  6
CONTINUOUS
 62
     6
 10
811.1748761626058
 20
-683.4246975114643
 30
0.0
 40
0.1627008338417734
 50
294.9000000000004
 51
348.9999999999997
  0
LINE
  5
46B
  8
ZUWAKU
  6
CONTINUOUS
 62
     6
 10
811.2433790405197
 20
-683.572274328922
 30
0.0
 11
807.6200918951049
 21
-685.2541482251086
 31
0.0
  0
ARC
  5
46C
  8
ZUWAKU
  6
CONTINUOUS
 62
     6
 10
807.8256005288399
 20
-685.6968786774819
 30
0.0
 40
0.4881025015253201
 50
114.9000000000003
 51
186.4074391525501
  0
LINE
  5
46D
  8
ZUWAKU
  6
CONTINUOUS
 62
     6
 10
806.9748948257275
 20
-684.4593777933101
 30
0.0
 11
810.6172384386554
 21
-682.7686581794096
 31
0.0
  0
ARC
  5
46E
  8
ZUWAKU
  6
CONTINUOUS
 62
     6
 10
810.493933258411
 20
-682.5030199079883
 30
0.0
 40
0.2928615009151919
 50
294.9000000000001
 51
88.09999999999762
  0
LINE
  5
46F
  8
ZUWAKU
  6
CONTINUOUS
 62
     6
 10
806.12498093507
 20
-684.8538946862145
 30
0.0
 11
804.444555961091
 21
-685.6339219887245
 31
0.0
  0
LINE
  5
470
  8
ZUWAKU
  6
CONTINUOUS
 62
     6
 10
805.7219707893155
 20
-683.9647169993218
 30
0.0
 11
803.8223852113874
 21
-684.8464752671275
 31
0.0
  0
LINE
  5
471
  8
ZUWAKU
  6
CONTINUOUS
 62
     6
 10
788.7115696344445
 20
-682.4641438850294
 30
0.0
 11
805.0803711719443
 21
-683.007152957744
 31
0.0
  0
LINE
  5
472
  8
ZUWAKU
  6
CONTINUOUS
 62
     6
 10
794.3010087235821
 20
-683.9313982375443
 30
0.0
 11
803.2125034667622
 21
-684.2270229652268
 31
0.0
  0
LINE
  5
473
  8
ZUWAKU
  6
CONTINUOUS
 62
     6
 10
805.5715753929276
 20
-689.2746382576756
 30
0.0
 11
788.5599430310158
 21
-682.7444844166967
 31
0.0
  0
LINE
  5
474
  8
ZUWAKU
  6
CONTINUOUS
 62
     6
 10
804.9028728521973
 20
-690.0636045039328
 30
0.0
 11
788.2220241714272
 21
-683.6604266215163
 31
0.0
  0
LINE
  5
475
  8
ZUWAKU
  6
CONTINUOUS
 62
     6
 10
788.848360600668
 20
-685.295064119578
 30
0.0
 11
802.6727090218283
 21
-690.6017342862565
 31
0.0
  0
LINE
  5
476
  8
ZUWAKU
  6
CONTINUOUS
 62
     6
 10
810.0621804691212
 20
-692.0440771437579
 30
0.0
 11
805.8451860713462
 21
-690.4253246585022
 31
0.0
  0
LINE
  5
477
  8
ZUWAKU
  6
CONTINUOUS
 62
     6
 10
805.7370768685275
 20
-691.7780348927276
 30
0.0
 11
810.6901511882683
 21
-693.6793419869314
 31
0.0
  0
ARC
  5
478
  8
ZUWAKU
  6
CONTINUOUS
 62
     6
 10
788.6734403080261
 20
-685.7507470611249
 30
0.0
 40
0.4881025015253201
 50
69.00000000000045
 51
193.0320838540864
  0
ARC
  5
479
  8
ZUWAKU
  6
CONTINUOUS
 62
     6
 10
794.2848255980728
 20
-684.4192323880934
 30
0.0
 40
0.4881025015253201
 50
88.10000000000004
 51
249.0000000000013
  0
ARC
  5
47A
  8
ZUWAKU
  6
CONTINUOUS
 62
     6
 10
802.4977887291864
 20
-691.0574172278102
 30
0.0
 40
0.4881025015253201
 50
291.9409771775832
 51
69.00000000000135
  0
ARC
  5
47B
  8
ZUWAKU
  6
CONTINUOUS
 62
     6
 10
803.1963203412529
 20
-684.7148571157759
 30
0.0
 40
0.4881025015253201
 50
318.0853946908567
 51
88.10000000000007
  0
ARC
  5
47C
  8
ZUWAKU
  6
CONTINUOUS
 62
     6
 10
805.562156575889
 20
-692.2337178342746
 30
0.0
 40
0.4881025015253201
 50
68.99999999999984
 51
132.639760324211
  0
LINE
  5
47D
  8
ZUWAKU
  6
CONTINUOUS
 62
     6
 10
811.1353508502413
 20
-692.389745798735
 30
0.0
 11
810.9081695137485
 21
-693.5584924557343
 31
0.0
  0
ARC
  5
47E
  8
ZUWAKU
  6
CONTINUOUS
 62
     6
 10
810.74845795248
 20
-693.5274476730801
 30
0.0
 40
0.1627008338417734
 50
249.0000000000002
 51
348.9999999999995
  0
LINE
  5
47F
  8
ZUWAKU
  6
CONTINUOUS
 62
     6
 10
806.4838734320433
 20
-689.6248366641275
 30
0.0
 11
807.4106734923425
 21
-689.9806018749409
 31
0.0
  0
LINE
  5
480
  8
ZUWAKU
  6
CONTINUOUS
 62
     7
 10
785.7673793865156
 20
-667.9007861926339
 30
0.0
 11
786.0271717474036
 21
-666.564270359102
 31
0.0
  0
LINE
  5
481
  8
ZUWAKU
  6
CONTINUOUS
 62
     7
 10
787.146693626665
 20
-666.564270359102
 30
0.0
 11
786.0271717474036
 21
-666.564270359102
 31
0.0
  0
LINE
  5
482
  8
ZUWAKU
  6
CONTINUOUS
 62
     7
 10
787.146693626665
 20
-666.564270359102
 30
0.0
 11
786.9064813167433
 21
-667.8000555627823
 31
0.0
  0
ARC
  5
483
  8
ZUWAKU
  6
CONTINUOUS
 62
     7
 10
787.165588399916
 20
-667.8504208777081
 30
0.0
 40
0.2639567114093959
 50
169.0000000000074
 51
270.0000000000001
  0
LINE
  5
484
  8
ZUWAKU
  6
CONTINUOUS
 62
     7
 10
787.165588399916
 20
-668.114377589116
 30
0.0
 11
789.7389168001309
 21
-668.114377589116
 31
0.0
  0
LINE
  5
485
  8
ZUWAKU
  6
CONTINUOUS
 62
     7
 10
789.7389168001309
 20
-668.114377589116
 30
0.0
 11
789.5201350970519
 21
-669.2399118783196
 31
0.0
  0
LINE
  5
486
  8
ZUWAKU
  6
CONTINUOUS
 62
     7
 10
786.8441907225106
 20
-669.2399118783196
 30
0.0
 11
789.5201350970519
 21
-669.2399118783196
 31
0.0
  0
ARC
  5
487
  8
ZUWAKU
  6
CONTINUOUS
 62
     7
 10
786.8441907225106
 20
-669.5038685897275
 30
0.0
 40
0.2639567114093959
 50
89.99999999999814
 51
168.9999999999999
  0
LINE
  5
488
  8
ZUWAKU
  6
CONTINUOUS
 62
     7
 10
786.5850836393379
 20
-669.4535032748017
 30
0.0
 11
785.7226706333138
 21
-673.8902335683752
 31
0.0
  0
LINE
  5
489
  8
ZUWAKU
  6
CONTINUOUS
 62
     7
 10
784.6031487540558
 20
-673.8902335683752
 30
0.0
 11
785.7226706333138
 21
-673.8902335683752
 31
0.0
  0
LINE
  5
48A
  8
ZUWAKU
  6
CONTINUOUS
 62
     7
 10
784.6031487540558
 20
-673.8902335683752
 30
0.0
 11
785.4459817091101
 21
-669.5542339046533
 31
0.0
  0
ARC
  5
48B
  8
ZUWAKU
  6
CONTINUOUS
 62
     7
 10
785.1868746259374
 20
-669.5038685897275
 30
0.0
 40
0.2639567114093959
 50
349.0000000000003
 51
90.0000000000005
  0
LINE
  5
48C
  8
ZUWAKU
  6
CONTINUOUS
 62
     7
 10
785.1868746259374
 20
-669.2399118783196
 30
0.0
 11
782.6135462257225
 21
-669.2399118783196
 31
0.0
  0
LINE
  5
48D
  8
ZUWAKU
  6
CONTINUOUS
 62
     7
 10
782.6135462257225
 20
-669.2399118783196
 30
0.0
 11
782.8323279288015
 21
-668.114377589116
 31
0.0
  0
LINE
  5
48E
  8
ZUWAKU
  6
CONTINUOUS
 62
     7
 10
782.8323279288015
 20
-668.114377589116
 30
0.0
 11
785.5082723033429
 21
-668.114377589116
 31
0.0
  0
ARC
  5
48F
  8
ZUWAKU
  6
CONTINUOUS
 62
     7
 10
785.5082723033429
 20
-667.8504208777081
 30
0.0
 40
0.2639567114093959
 50
270.0000000000001
 51
349.0000000000099
  0
LINE
  5
490
  8
ZUWAKU
  6
CONTINUOUS
 62
     7
 10
783.32047046038
 20
-670.3878681931478
 30
0.0
 11
783.1998778475026
 21
-671.0082634040195
 31
0.0
  0
ARC
  5
491
  8
ZUWAKU
  6
CONTINUOUS
 62
     7
 10
781.6220270226513
 20
-670.7015602729102
 30
0.0
 40
1.607382977425259
 50
285.6048457891953
 51
348.9999999999995
  0
ARC
  5
492
  8
ZUWAKU
  6
CONTINUOUS
 62
     7
 10
782.0668065721197
 20
-672.2940616037595
 30
0.0
 40
0.0460647345942648
 50
105.6048457891947
 51
168.9999999999997
  0
LINE
  5
493
  8
ZUWAKU
  6
CONTINUOUS
 62
     7
 10
781.7126682105613
 20
-673.8745274891066
 30
0.0
 11
782.0215881764427
 21
-672.2852720380301
 31
0.0
  0
ARC
  5
494
  8
ZUWAKU
  6
CONTINUOUS
 62
     7
 10
781.051672694294
 20
-670.7984654451893
 30
0.0
 40
3.146279194630872
 50
282.127509556616
 51
348.9999999999987
  0
LINE
  5
495
  8
ZUWAKU
  6
CONTINUOUS
 62
     7
 10
784.1401458784612
 20
-671.3988038174903
 30
0.0
 11
784.3366518576393
 21
-670.3878681931478
 31
0.0
  0
LINE
  5
496
  8
ZUWAKU
  6
CONTINUOUS
 62
     7
 10
784.3366518576393
 20
-670.3878681931478
 30
0.0
 11
783.32047046038
 21
-670.3878681931478
 31
0.0
  0
LINE
  5
497
  8
ZUWAKU
  6
CONTINUOUS
 62
     7
 10
787.5574302224306
 20
-670.3878681931478
 30
0.0
 11
787.2183519456185
 21
-672.1322747038521
 31
0.0
  0
ARC
  5
498
  8
ZUWAKU
  6
CONTINUOUS
 62
     7
 10
788.5823140829741
 20
-672.397402085765
 30
0.0
 40
1.389491000610128
 50
168.9999999999999
 51
269.9999999999885
  0
LINE
  5
499
  8
ZUWAKU
  6
CONTINUOUS
 62
     7
 10
788.5823140829741
 20
-673.7868930863697
 30
0.0
 11
788.6362914841852
 21
-673.7868930863697
 31
0.0
  0
LINE
  5
49A
  8
ZUWAKU
  6
CONTINUOUS
 62
     7
 10
788.6362914841852
 20
-673.7868930863697
 30
0.0
 11
788.9354226066173
 21
-672.2479968691646
 31
0.0
  0
LINE
  5
49B
  8
ZUWAKU
  6
CONTINUOUS
 62
     7
 10
788.9354226066173
 20
-672.2479968691646
 30
0.0
 11
788.8049899337791
 21
-672.2479968691646
 31
0.0
  0
ARC
  5
49C
  8
ZUWAKU
  6
CONTINUOUS
 62
     7
 10
788.8049899337791
 20
-671.6740187117539
 30
0.0
 40
0.5739781574130566
 50
168.9999999999997
 51
269.9999999999974
  0
LINE
  5
49D
  8
ZUWAKU
  6
CONTINUOUS
 62
     7
 10
788.2415573717567
 20
-671.564498516173
 30
0.0
 11
788.4702711376879
 21
-670.3878681931478
 31
0.0
  0
LINE
  5
49E
  8
ZUWAKU
  6
CONTINUOUS
 62
     7
 10
788.4702711376879
 20
-670.3878681931478
 30
0.0
 11
787.5574302224306
 21
-670.3878681931478
 31
0.0
  0
LINE
  5
49F
  8
ZUWAKU
  6
CONTINUOUS
 62
     7
 10
793.1174902958135
 20
-666.7709513230993
 30
0.0
 11
793.0182563850515
 21
-667.2814655372263
 31
0.0
  0
ARC
  5
4A0
  8
ZUWAKU
  6
CONTINUOUS
 62
     7
 10
790.6288709499377
 20
-666.8170160576942
 30
0.0
 40
2.43410683343502
 50
271.0152301125743
 51
349.000000000001
  0
LINE
  5
4A1
  8
ZUWAKU
  6
CONTINUOUS
 62
     7
 10
790.3744529153103
 20
-670.7814821527841
 30
0.0
 11
790.6719988952461
 21
-669.2507407867724
 31
0.0
  0
ARC
  5
4A2
  8
ZUWAKU
  6
CONTINUOUS
 62
     7
 10
790.1141419064966
 20
-666.8170160576942
 30
0.0
 40
3.973003050640633
 50
273.7567084122492
 51
341.5139853209125
  0
ARC
  5
4A3
  8
ZUWAKU
  6
CONTINUOUS
 62
     7
 10
794.1324791114864
 20
-668.1604423237109
 30
0.0
 40
0.2639567114093959
 50
89.9999999999993
 51
161.5139853209126
  0
LINE
  5
4A4
  8
ZUWAKU
  6
CONTINUOUS
 62
     7
 10
794.1324791114864
 20
-667.896485612303
 30
0.0
 11
795.9887394029529
 21
-667.896485612303
 31
0.0
  0
ARC
  5
4A5
  8
ZUWAKU
  6
CONTINUOUS
 62
     7
 10
795.9887394029529
 20
-668.1604423237109
 30
0.0
 40
0.2639567114093959
 50
346.2586933201409
 51
90.00000000000375
  0
ARC
  5
4A6
  8
ZUWAKU
  6
CONTINUOUS
 62
     7
 10
791.0699879195688
 20
-666.9576224583493
 30
0.0
 40
5.327640329469187
 50
277.267166461819
 51
346.258693320142
  0
LINE
  5
4A7
  8
ZUWAKU
  6
CONTINUOUS
 62
     7
 10
791.4440205287981
 20
-673.7852848585344
 30
0.0
 11
791.7439140661413
 21
-672.2424663566226
 31
0.0
  0
ARC
  5
4A8
  8
ZUWAKU
  6
CONTINUOUS
 62
     7
 10
791.3046497878379
 20
-667.7470803957094
 30
0.0
 40
6.039812690665038
 50
271.3222370437007
 51
349.0000000000002
  0
LINE
  5
4A9
  8
ZUWAKU
  6
CONTINUOUS
 62
     7
 10
797.2334941079289
 20
-668.8995309874763
 30
0.0
 11
797.6472480811124
 21
-666.7709513230993
 31
0.0
  0
LINE
  5
4AA
  8
ZUWAKU
  6
CONTINUOUS
 62
     7
 10
793.1174902958135
 20
-666.7709513230993
 30
0.0
 11
797.6472480811124
 21
-666.7709513230993
 31
0.0
  0
LINE
  5
4AB
  8
ZUWAKU
  6
CONTINUOUS
 62
     7
 10
805.1911032672019
 20
-666.7709513230993
 30
0.0
 11
798.8012168058794
 21
-666.7709513230993
 31
0.0
  0
LINE
  5
4AC
  8
ZUWAKU
  6
CONTINUOUS
 62
     7
 10
798.5824351028004
 20
-667.896485612303
 30
0.0
 11
800.8457420570091
 21
-667.896485612303
 31
0.0
  0
LINE
  5
4AD
  8
ZUWAKU
  6
CONTINUOUS
 62
     7
 10
802.5030581535857
 20
-667.896485612303
 30
0.0
 11
804.9723215641229
 21
-667.896485612303
 31
0.0
  0
LINE
  5
4AE
  8
ZUWAKU
  6
CONTINUOUS
 62
     7
 10
800.0221605086581
 20
-672.6613587971729
 30
0.0
 11
797.5528970981209
 21
-672.6613587971729
 31
0.0
  0
LINE
  5
4AF
  8
ZUWAKU
  6
CONTINUOUS
 62
     7
 10
804.0461240414454
 20
-672.6613587971729
 30
0.0
 11
801.6794766052346
 21
-672.6613587971729
 31
0.0
  0
LINE
  5
4B0
  8
ZUWAKU
  6
CONTINUOUS
 62
     7
 10
797.3341153950419
 20
-673.7868930863697
 30
0.0
 11
803.8273423383664
 21
-673.7868930863697
 31
0.0
  0
LINE
  5
4B1
  8
ZUWAKU
  6
CONTINUOUS
 62
     7
 10
798.8012168058794
 20
-666.7709513230993
 30
0.0
 11
798.5824351028004
 21
-667.896485612303
 31
0.0
  0
ARC
  5
4B2
  8
ZUWAKU
  6
CONTINUOUS
 62
     7
 10
800.8457420570091
 20
-668.1604423237109
 30
0.0
 40
0.2639567114093959
 50
348.9999999999997
 51
90.0000000000051
  0
LINE
  5
4B3
  8
ZUWAKU
  6
CONTINUOUS
 62
     7
 10
801.1048491401818
 20
-668.2108076386367
 30
0.0
 11
800.2812675918308
 21
-672.4477674006907
 31
0.0
  0
ARC
  5
4B4
  8
ZUWAKU
  6
CONTINUOUS
 62
     7
 10
800.0221605086581
 20
-672.397402085765
 30
0.0
 40
0.2639567114093959
 50
269.9999999999994
 51
348.9999999999999
  0
LINE
  5
4B5
  8
ZUWAKU
  6
CONTINUOUS
 62
     7
 10
797.5528970981209
 20
-672.6613587971729
 30
0.0
 11
797.3341153950419
 21
-673.7868930863697
 31
0.0
  0
LINE
  5
4B6
  8
ZUWAKU
  6
CONTINUOUS
 62
     7
 10
803.8273423383664
 20
-673.7868930863697
 30
0.0
 11
804.0461240414454
 21
-672.6613587971729
 31
0.0
  0
ARC
  5
4B7
  8
ZUWAKU
  6
CONTINUOUS
 62
     7
 10
801.6794766052346
 20
-672.397402085765
 30
0.0
 40
0.2639567114093959
 50
169.0000000000001
 51
270.0000000000013
  0
LINE
  5
4B8
  8
ZUWAKU
  6
CONTINUOUS
 62
     7
 10
801.420369522062
 20
-672.3470367708323
 30
0.0
 11
802.243951070413
 21
-668.1100770087851
 31
0.0
  0
ARC
  5
4B9
  8
ZUWAKU
  6
CONTINUOUS
 62
     7
 10
802.5030581535857
 20
-668.1604423237109
 30
0.0
 40
0.2639567114093959
 50
90.00000000000001
 51
168.9999999999998
  0
LINE
  5
4BA
  8
ZUWAKU
  6
CONTINUOUS
 62
     7
 10
804.9723215641229
 20
-667.896485612303
 30
0.0
 11
805.1911032672019
 21
-666.7709513230993
 31
0.0
  0
LINE
  5
4BB
  8
ZUWAKU
  6
CONTINUOUS
 62
     7
 10
811.7197164031035
 20
-666.564270359102
 30
0.0
 11
810.866860264527
 21
-666.564270359102
 31
0.0
  0
ARC
  5
4BC
  8
ZUWAKU
  6
CONTINUOUS
 62
     7
 10
810.866860264527
 20
-666.6103350936969
 30
0.0
 40
0.0460647345942648
 50
90.00000000000001
 51
151.0614722598196
  0
ARC
  5
4BD
  8
ZUWAKU
  6
CONTINUOUS
 62
     7
 10
805.2597462681463
 20
-663.5101206336553
 30
0.0
 40
6.36104514948139
 50
269.999999999989
 51
331.0614722598194
  0
LINE
  5
4BE
  8
ZUWAKU
  6
CONTINUOUS
 62
     7
 10
805.2597462681463
 20
-669.8711657831409
 30
0.0
 11
804.9537003276516
 21
-669.8711657831409
 31
0.0
  0
LINE
  5
4BF
  8
ZUWAKU
  6
CONTINUOUS
 62
     7
 10
804.5780457219707
 20
-671.608387883221
 30
0.0
 11
804.908481931978
 21
-669.9084409519996
 31
0.0
  0
ARC
  5
4C0
  8
ZUWAKU
  6
CONTINUOUS
 62
     7
 10
804.9537003276516
 20
-669.9172305177358
 30
0.0
 40
0.0460647345942648
 50
89.99999999998872
 51
168.9999999999997
  0
ARC
  5
4C1
  8
ZUWAKU
  6
CONTINUOUS
 62
     7
 10
803.518198550558
 20
-662.5300168680592
 30
0.0
 40
9.140027150701645
 50
276.6588077484425
 51
292.9187661784221
  0
ARC
  5
4C2
  8
ZUWAKU
  6
CONTINUOUS
 62
     7
 10
807.1803510466198
 20
-671.1916305499612
 30
0.0
 40
0.2639567114093959
 50
349.0000000000001
 51
112.9187661783919
  0
LINE
  5
4C3
  8
ZUWAKU
  6
CONTINUOUS
 62
     7
 10
807.4394581297925
 20
-671.241995864887
 30
0.0
 11
806.9246928663183
 21
-673.8902335683752
 31
0.0
  0
LINE
  5
4C4
  8
ZUWAKU
  6
CONTINUOUS
 62
     7
 10
806.9246928663183
 20
-673.8902335683752
 30
0.0
 11
808.0442147455763
 21
-673.8902335683752
 31
0.0
  0
LINE
  5
4C5
  8
ZUWAKU
  6
CONTINUOUS
 62
     7
 10
808.0442147455763
 20
-673.8902335683752
 30
0.0
 11
808.7750827484826
 21
-670.1302436488872
 31
0.0
  0
ARC
  5
4C6
  8
ZUWAKU
  6
CONTINUOUS
 62
     7
 10
809.1356316579386
 20
-670.2003272573625
 30
0.0
 40
0.3672971934106161
 50
126.2175779738571
 51
169.0
  0
ARC
  5
4C7
  8
ZUWAKU
  6
CONTINUOUS
 62
     7
 10
803.518198550558
 20
-662.5300168680592
 30
0.0
 40
9.140027150701645
 50
306.2175779738571
 51
333.8078384872959
  0
LINE
  5
4C8
  8
ZUWAKU
  6
CONTINUOUS
 62
     2
 10
887.2622693306658
 20
-670.5245600385642
 30
0.0
 11
888.4241830237949
 21
-664.5470322823671
 31
0.0
  0
LINE
  5
4C9
  8
ZUWAKU
  6
CONTINUOUS
 62
     2
 10
893.4312117016685
 20
-664.5470322823671
 30
0.0
 11
888.4241830237949
 21
-664.5470322823671
 31
0.0
  0
LINE
  5
4CA
  8
ZUWAKU
  6
CONTINUOUS
 62
     2
 10
893.4312117016685
 20
-664.5470322823671
 30
0.0
 11
892.3568692106215
 21
-670.0740452592099
 31
0.0
  0
ARC
  5
4CB
  8
ZUWAKU
  6
CONTINUOUS
 62
     2
 10
893.5157180193147
 20
-670.2993026488871
 30
0.0
 40
1.180538628345835
 50
169.0000000000074
 51
270.0000000000001
  0
LINE
  5
4CC
  8
ZUWAKU
  6
CONTINUOUS
 62
     2
 10
893.5157180193147
 20
-671.4798412772307
 30
0.0
 11
905.0248536031376
 21
-671.4798412772307
 31
0.0
  0
LINE
  5
4CD
  8
ZUWAKU
  6
CONTINUOUS
 62
     2
 10
905.0248536031376
 20
-671.4798412772307
 30
0.0
 11
904.0463588708695
 21
-676.5137602817349
 31
0.0
  0
LINE
  5
4CE
  8
ZUWAKU
  6
CONTINUOUS
 62
     2
 10
892.0782763599908
 20
-676.5137602817349
 30
0.0
 11
904.0463588708695
 21
-676.5137602817349
 31
0.0
  0
ARC
  5
4CF
  8
ZUWAKU
  6
CONTINUOUS
 62
     2
 10
892.0782763599908
 20
-677.6942989100785
 30
0.0
 40
1.180538628345835
 50
89.99999999999814
 51
168.9999999999999
  0
LINE
  5
4D0
  8
ZUWAKU
  6
CONTINUOUS
 62
     2
 10
890.9194275512976
 20
-677.4690415204013
 30
0.0
 11
887.0623107469368
 21
-697.3121872663392
 31
0.0
  0
LINE
  5
4D1
  8
ZUWAKU
  6
CONTINUOUS
 62
     2
 10
882.0552820690631
 20
-697.3121872663392
 30
0.0
 11
887.0623107469368
 21
-697.3121872663392
 31
0.0
  0
LINE
  5
4D2
  8
ZUWAKU
  6
CONTINUOUS
 62
     2
 10
882.0552820690631
 20
-697.3121872663392
 30
0.0
 11
885.824827671342
 21
-677.9195562997556
 31
0.0
  0
ARC
  5
4D3
  8
ZUWAKU
  6
CONTINUOUS
 62
     2
 10
884.6659788626488
 20
-677.6942989100785
 30
0.0
 40
1.180538628345835
 50
349.0000000000003
 51
90.0000000000005
  0
LINE
  5
4D4
  8
ZUWAKU
  6
CONTINUOUS
 62
     2
 10
884.6659788626488
 20
-676.5137602817349
 30
0.0
 11
873.1568432788225
 21
-676.5137602817349
 31
0.0
  0
LINE
  5
4D5
  8
ZUWAKU
  6
CONTINUOUS
 62
     2
 10
873.1568432788225
 20
-676.5137602817349
 30
0.0
 11
874.135338011094
 21
-671.4798412772307
 31
0.0
  0
LINE
  5
4D6
  8
ZUWAKU
  6
CONTINUOUS
 62
     2
 10
874.135338011094
 20
-671.4798412772307
 30
0.0
 11
886.1034205219693
 21
-671.4798412772307
 31
0.0
  0
ARC
  5
4D7
  8
ZUWAKU
  6
CONTINUOUS
 62
     2
 10
886.1034205219693
 20
-670.2993026488871
 30
0.0
 40
1.180538628345835
 50
270.0000000000001
 51
349.0000000000099
  0
LINE
  5
4D8
  8
ZUWAKU
  6
CONTINUOUS
 62
     2
 10
876.3185411264459
 20
-681.6479611363688
 30
0.0
 11
875.7791942121918
 21
-684.4226604700866
 31
0.0
  0
ARC
  5
4D9
  8
ZUWAKU
  6
CONTINUOUS
 62
     2
 10
868.7223028054194
 20
-683.0509397368864
 30
0.0
 40
7.188973090564547
 50
285.6048457891953
 51
348.9999999999995
  0
ARC
  5
4DA
  8
ZUWAKU
  6
CONTINUOUS
 62
     2
 10
870.7115662586551
 20
-690.1733551008424
 30
0.0
 40
0.2060231706277141
 50
105.6048457891947
 51
168.9999999999997
  0
LINE
  5
4DB
  8
ZUWAKU
  6
CONTINUOUS
 62
     2
 10
869.1276928524343
 20
-697.2419422887656
 30
0.0
 11
870.5093283139462
 21
-690.1340440266317
 31
0.0
  0
ARC
  5
4DC
  8
ZUWAKU
  6
CONTINUOUS
 62
     2
 10
866.1714098469696
 20
-683.4843452697514
 30
0.0
 40
14.0716411603632
 50
282.127509556616
 51
348.9999999999987
  0
LINE
  5
4DD
  8
ZUWAKU
  6
CONTINUOUS
 62
     2
 10
879.984515325703
 20
-686.1693409828608
 30
0.0
 11
880.8633825379917
 21
-681.6479611363688
 31
0.0
  0
LINE
  5
4DE
  8
ZUWAKU
  6
CONTINUOUS
 62
     2
 10
880.8633825379917
 20
-681.6479611363688
 30
0.0
 11
876.3185411264459
 21
-681.6479611363688
 31
0.0
  0
LINE
  5
4DF
  8
ZUWAKU
  6
CONTINUOUS
 62
     2
 10
895.2682190457489
 20
-681.6479611363688
 30
0.0
 11
893.7517014255928
 21
-689.4497679494298
 31
0.0
  0
ARC
  5
4E0
  8
ZUWAKU
  6
CONTINUOUS
 62
     2
 10
899.851981968381
 20
-690.6355423671635
 30
0.0
 40
6.214457632846425
 50
168.9999999999999
 51
269.9999999999885
  0
LINE
  5
4E1
  8
ZUWAKU
  6
CONTINUOUS
 62
     2
 10
899.8519819683776
 20
-696.8500000000113
 30
0.0
 11
900.0933943077331
 21
-696.8500000000113
 31
0.0
  0
LINE
  5
4E2
  8
ZUWAKU
  6
CONTINUOUS
 62
     2
 10
900.0933943077331
 20
-696.8500000000113
 30
0.0
 11
901.4312494548329
 21
-689.967331930216
 31
0.0
  0
LINE
  5
4E3
  8
ZUWAKU
  6
CONTINUOUS
 62
     2
 10
901.4312494548329
 20
-689.967331930216
 30
0.0
 11
900.8478931618225
 21
-689.967331930216
 31
0.0
  0
ARC
  5
4E4
  8
ZUWAKU
  6
CONTINUOUS
 62
     2
 10
900.8478931618225
 20
-687.4002315028956
 30
0.0
 40
2.567100427319384
 50
168.9999999999997
 51
269.9999999999974
  0
LINE
  5
4E5
  8
ZUWAKU
  6
CONTINUOUS
 62
     2
 10
898.3279575997273
 20
-686.9104056493238
 30
0.0
 11
899.3508731909736
 21
-681.6479611363688
 31
0.0
  0
LINE
  5
4E6
  8
ZUWAKU
  6
CONTINUOUS
 62
     2
 10
899.3508731909736
 20
-681.6479611363688
 30
0.0
 11
895.2682190457489
 21
-681.6479611363688
 31
0.0
  0
LINE
  5
4E7
  8
ZUWAKU
  6
CONTINUOUS
 62
     2
 10
920.1354241927703
 20
-665.471406815016
 30
0.0
 11
919.6916034455393
 21
-667.754666622548
 31
0.0
  0
ARC
  5
4E8
  8
ZUWAKU
  6
CONTINUOUS
 62
     2
 10
909.005147363028
 20
-665.6774299856424
 30
0.0
 40
10.88647122116068
 50
271.0152301125743
 51
349.000000000001
  0
LINE
  5
4E9
  8
ZUWAKU
  6
CONTINUOUS
 62
     2
 10
907.8672701860415
 20
-683.4083879939731
 30
0.0
 11
909.198035829948
 21
-676.5621922562882
 31
0.0
  0
ARC
  5
4EA
  8
ZUWAKU
  6
CONTINUOUS
 62
     2
 10
906.7030368553293
 20
-665.6774299856424
 30
0.0
 40
17.76913929095933
 50
273.7567084122492
 51
341.5139853209125
  0
ARC
  5
4EB
  8
ZUWAKU
  6
CONTINUOUS
 62
     2
 10
924.6749318182577
 20
-671.6858644478639
 30
0.0
 40
1.180538628345835
 50
89.9999999999993
 51
161.5139853209126
  0
LINE
  5
4EC
  8
ZUWAKU
  6
CONTINUOUS
 62
     2
 10
924.6749318182577
 20
-670.5053258195135
 30
0.0
 11
932.9770013759475
 21
-670.5053258195135
 31
0.0
  0
ARC
  5
4ED
  8
ZUWAKU
  6
CONTINUOUS
 62
     2
 10
932.9770013759475
 20
-671.6858644478639
 30
0.0
 40
1.180538628345835
 50
346.2586933201409
 51
90.00000000000375
  0
ARC
  5
4EE
  8
ZUWAKU
  6
CONTINUOUS
 62
     2
 10
910.9780300356755
 20
-666.3062879770705
 30
0.0
 40
23.82771467824713
 50
277.267166461819
 51
346.258693320142
  0
LINE
  5
4EF
  8
ZUWAKU
  6
CONTINUOUS
 62
     2
 10
912.6508798794924
 20
-696.842807248302
 30
0.0
 11
913.992144904866
 21
-689.9425968755263
 31
0.0
  0
ARC
  5
4F0
  8
ZUWAKU
  6
CONTINUOUS
 62
     2
 10
912.0275483396944
 20
-669.8371153825592
 30
0.0
 40
27.01288461744965
 50
271.3222370437007
 51
349.0000000000002
  0
LINE
  5
4F1
  8
ZUWAKU
  6
CONTINUOUS
 62
     2
 10
938.5441301835175
 20
-674.9914167586376
 30
0.0
 11
940.3946326593513
 21
-665.471406815016
 31
0.0
  0
LINE
  5
4F2
  8
ZUWAKU
  6
CONTINUOUS
 62
     2
 10
920.1354241927703
 20
-665.471406815016
 30
0.0
 11
940.3946326593513
 21
-665.471406815016
 31
0.0
  0
LINE
  5
4F3
  8
ZUWAKU
  6
CONTINUOUS
 62
     2
 10
974.1343031010439
 20
-665.471406815016
 30
0.0
 11
945.5557238406192
 21
-665.471406815016
 31
0.0
  0
LINE
  5
4F4
  8
ZUWAKU
  6
CONTINUOUS
 62
     2
 10
944.5772291083512
 20
-670.5053258195135
 30
0.0
 11
954.6998028932006
 21
-670.5053258195135
 31
0.0
  0
LINE
  5
4F5
  8
ZUWAKU
  6
CONTINUOUS
 62
     2
 10
962.1121003905461
 20
-670.5053258195135
 30
0.0
 11
973.1558083687725
 21
-670.5053258195135
 31
0.0
  0
LINE
  5
4F6
  8
ZUWAKU
  6
CONTINUOUS
 62
     2
 10
951.0163586411846
 20
-691.8160809955139
 30
0.0
 11
939.9726506629582
 21
-691.8160809955139
 31
0.0
  0
LINE
  5
4F7
  8
ZUWAKU
  6
CONTINUOUS
 62
     2
 10
969.013417189704
 20
-691.8160809955139
 30
0.0
 11
958.4286561385301
 21
-691.8160809955139
 31
0.0
  0
LINE
  5
4F8
  8
ZUWAKU
  6
CONTINUOUS
 62
     2
 10
938.9941559306868
 20
-696.8500000000113
 30
0.0
 11
968.034922457436
 21
-696.8500000000113
 31
0.0
  0
LINE
  5
4F9
  8
ZUWAKU
  6
CONTINUOUS
 62
     2
 10
945.5557238406192
 20
-665.471406815016
 30
0.0
 11
944.5772291083512
 21
-670.5053258195135
 31
0.0
  0
ARC
  5
4FA
  8
ZUWAKU
  6
CONTINUOUS
 62
     2
 10
954.6998028932006
 20
-671.685864447857
 30
0.0
 40
1.180538628345835
 50
348.9999999999997
 51
90.0000000000051
  0
LINE
  5
4FB
  8
ZUWAKU
  6
CONTINUOUS
 62
     2
 10
955.8586517018938
 20
-671.911121837541
 30
0.0
 11
952.1752074498812
 21
-690.8607997568406
 31
0.0
  0
ARC
  5
4FC
  8
ZUWAKU
  6
CONTINUOUS
 62
     2
 10
951.0163586411846
 20
-690.6355423671635
 30
0.0
 40
1.180538628345835
 50
269.9999999999994
 51
348.9999999999999
  0
LINE
  5
4FD
  8
ZUWAKU
  6
CONTINUOUS
 62
     2
 10
939.9726506629582
 20
-691.8160809955139
 30
0.0
 11
938.9941559306868
 21
-696.8500000000113
 31
0.0
  0
LINE
  5
4FE
  8
ZUWAKU
  6
CONTINUOUS
 62
     2
 10
968.034922457436
 20
-696.8500000000113
 30
0.0
 11
969.013417189704
 21
-691.8160809955139
 31
0.0
  0
ARC
  5
4FF
  8
ZUWAKU
  6
CONTINUOUS
 62
     2
 10
958.4286561385301
 20
-690.6355423671635
 30
0.0
 40
1.180538628345835
 50
169.0000000000001
 51
270.0000000000013
  0
LINE
  5
500
  8
ZUWAKU
  6
CONTINUOUS
 62
     2
 10
957.2698073298369
 20
-690.4102849774863
 30
0.0
 11
960.9532515818495
 21
-671.4606070581799
 31
0.0
  0
ARC
  5
501
  8
ZUWAKU
  6
CONTINUOUS
 62
     2
 10
962.1121003905461
 20
-671.6858644478639
 30
0.0
 40
1.180538628345835
 50
90.00000000000001
 51
168.9999999999998
  0
LINE
  5
502
  8
ZUWAKU
  6
CONTINUOUS
 62
     2
 10
973.1558083687725
 20
-670.5053258195135
 30
0.0
 11
974.1343031010439
 21
-665.471406815016
 31
0.0
  0
LINE
  5
503
  8
ZUWAKU
  6
CONTINUOUS
 62
     2
 10
1003.333333333326
 20
-664.5470322823671
 30
0.0
 11
999.5189593375488
 21
-664.5470322823671
 31
0.0
  0
ARC
  5
504
  8
ZUWAKU
  6
CONTINUOUS
 62
     2
 10
999.5189593375488
 20
-664.7530554529935
 30
0.0
 40
0.2060231706277141
 50
90.00000000000001
 51
151.0614722598196
  0
ARC
  5
505
  8
ZUWAKU
  6
CONTINUOUS
 62
     2
 10
974.4413069038575
 20
-650.8874374632596
 30
0.0
 40
28.4495873414923
 50
269.999999999989
 51
331.0614722598194
  0
LINE
  5
506
  8
ZUWAKU
  6
CONTINUOUS
 62
     2
 10
974.4413069038507
 20
-679.33702480475
 30
0.0
 11
973.0725254363534
 21
-679.33702480475
 31
0.0
  0
LINE
  5
507
  8
ZUWAKU
  6
CONTINUOUS
 62
     2
 10
971.3924212610999
 20
-687.106699552583
 30
0.0
 11
972.8702874916445
 21
-679.5037369011657
 31
0.0
  0
ARC
  5
508
  8
ZUWAKU
  6
CONTINUOUS
 62
     2
 10
973.0725254363534
 20
-679.5430479753763
 30
0.0
 40
0.2060231706277141
 50
89.99999999998872
 51
168.9999999999997
  0
ARC
  5
509
  8
ZUWAKU
  6
CONTINUOUS
 62
     2
 10
966.6522859589287
 20
-646.5039521982162
 30
0.0
 40
40.87850260718514
 50
276.6588077484425
 51
292.9187661784221
  0
ARC
  5
50A
  8
ZUWAKU
  6
CONTINUOUS
 62
     2
 10
983.0311552871973
 20
-685.2427646371602
 30
0.0
 40
1.180538628345835
 50
349.0000000000001
 51
112.9187661783919
  0
LINE
  5
50B
  8
ZUWAKU
  6
CONTINUOUS
 62
     2
 10
984.1900040958939
 20
-685.4680220268374
 30
0.0
 11
981.8877315951607
 21
-697.3121872663392
 31
0.0
  0
LINE
  5
50C
  8
ZUWAKU
  6
CONTINUOUS
 62
     2
 10
981.8877315951607
 20
-697.3121872663392
 30
0.0
 11
986.8947602730344
 21
-697.3121872663392
 31
0.0
  0
LINE
  5
50D
  8
ZUWAKU
  6
CONTINUOUS
 62
     2
 10
986.8947602730344
 20
-697.3121872663392
 30
0.0
 11
990.1635459199059
 21
-680.495742939368
 31
0.0
  0
ARC
  5
50E
  8
ZUWAKU
  6
CONTINUOUS
 62
     2
 10
991.7760903130699
 20
-680.8091898170101
 30
0.0
 40
1.642725894670351
 50
126.2175779738571
 51
169.0
  0
ARC
  5
50F
  8
ZUWAKU
  6
CONTINUOUS
 62
     2
 10
966.6522859589287
 20
-646.5039521982162
 30
0.0
 40
40.87850260718514
 50
306.2175779738571
 51
333.8078384872959
  0
LINE
  5
510
  8
ZUWAKU
  6
CONTINUOUS
 62
     5
 10
-945.0000000000055
 20
-707.5000000000114
 30
0.0
 11
-945.0000000000055
 21
694.5833333333218
 31
0.0
  0
LINE
  5
511
  8
ZUWAKU
  6
CONTINUOUS
 62
     5
 10
-945.0000000000055
 20
694.5833333333218
 30
0.0
 11
1010.833333333327
 21
694.5833333333225
 31
0.0
  0
LINE
  5
512
  8
ZUWAKU
  6
CONTINUOUS
 62
     5
 10
1010.833333333327
 20
694.5833333333225
 30
0.0
 11
1010.833333333327
 21
-707.5000000000107
 31
0.0
  0
LINE
  5
513
  8
ZUWAKU
  6
CONTINUOUS
 62
     5
 10
1010.833333333327
 20
-707.5000000000107
 30
0.0
 11
-945.0000000000055
 21
-707.5000000000114
 31
0.0
  0
LINE
  5
514
  8
0
  6
DIVIDE
 62
     7
 10
12.30352099673405
 20
-472.5280556754219
 30
0.0
 11
-836.5579823144296
 21
-472.5280556754219
 31
0.0
  0
LINE
  5
515
  8
0
  6
DIVIDE
 62
     7
 10
-258.6317830943051
 20
-486.5280556754219
 30
0.0
 11
-342.7063146183179
 21
-486.5280556754219
 31
0.0
  0
LINE
  5
516
  8
0
  6
DIVIDE
 62
     7
 10
-272.6317830943051
 20
-500.5280556754219
 30
0.0
 11
-328.7063146183179
 21
-500.5280556754219
 31
0.0
  0
LINE
  5
517
  8
0
  6
DIVIDE
 62
     7
 10
-286.6317830943051
 20
-514.5280556754219
 30
0.0
 11
-314.7063146183179
 21
-514.5280556754219
 31
0.0
  0
LINE
  5
518
  8
0
  6
DIVIDE
 62
     7
 10
422.1166365585903
 20
-472.5280556754219
 30
0.0
 11
136.7195391692284
 21
-472.5280556754219
 31
0.0
  0
LINE
  5
519
  8
0
  6
CENTER
 62
     7
 10
-669.0903426430712
 20
-453.8701715416123
 30
0.0
 11
-669.0903426430712
 21
-491.2332404677131
 31
0.0
  0
LINE
  5
51A
  8
0
  6
CENTER
 62
     7
 10
-404.3403426430712
 20
-508.0998911119054
 30
0.0
 11
-404.3403426430712
 21
275.3057850149733
 31
0.0
  0
LINE
  5
51B
  8
0
  6
CENTER
 62
     7
 10
-779.0903426430712
 20
-453.8701715416123
 30
0.0
 11
-779.0903426430712
 21
-491.2332404677131
 31
0.0
  0
LINE
  5
51C
  8
0
  6
CENTER
 62
     7
 10
-139.5903426430712
 20
-453.8701715416123
 30
0.0
 11
-139.5903426430712
 21
-491.2332404677131
 31
0.0
  0
LINE
  5
51D
  8
0
  6
CENTER
 62
     7
 10
-29.59034264307115
 20
-453.8701715416123
 30
0.0
 11
-29.59034264307115
 21
-491.2332404677131
 31
0.0
  0
LINE
  5
51E
  8
0
  6
CENTER
 62
     7
 10
-794.9190524443773
 20
521.0320438756066
 30
0.0
 11
-23.04404919457079
 21
521.0320438756066
 31
0.0
  0
LINE
  5
51F
  8
0
  6
CONTINUOUS
 62
     3
 10
-580.0403426430719
 20
227.4719443245783
 30
0.0
 11
-234.5903426430712
 21
227.4719443245783
 31
0.0
  0
LINE
  5
520
  8
0
  6
CONTINUOUS
 62
     3
 10
-748.3903426430704
 20
-466.5280556754219
 30
0.0
 11
-748.3903426430704
 21
53.17194432457836
 31
0.0
  0
LINE
  5
521
  8
0
  6
CONTINUOUS
 62
     3
 10
-748.3903426430704
 20
-466.5280556754219
 30
0.0
 11
-677.8903426430704
 21
-466.5280556754219
 31
0.0
  0
LINE
  5
522
  8
0
  6
CONTINUOUS
 62
     3
 10
-796.5903426430712
 20
-472.5280556754219
 30
0.0
 11
-796.5903426430712
 21
-466.5280556754219
 31
0.0
  0
LINE
  5
523
  8
0
  6
CONTINUOUS
 62
     3
 10
-651.5903426430712
 20
-472.5280556754219
 30
0.0
 11
-651.5903426430712
 21
-466.5280556754219
 31
0.0
  0
LINE
  5
524
  8
0
  6
CONTINUOUS
 62
     3
 10
-790.6403426430704
 20
-472.5280556754219
 30
0.0
 11
-645.6403426430704
 21
-472.5280556754219
 31
0.0
  0
LINE
  5
525
  8
0
  6
CONTINUOUS
 62
     3
 10
-796.5903426430712
 20
-466.5280556754219
 30
0.0
 11
-651.5903426430712
 21
-466.5280556754219
 31
0.0
  0
LINE
  5
526
  8
0
  6
CONTINUOUS
 62
     3
 10
305.4649658448682
 20
-466.5280556754219
 30
0.0
 11
215.4649658448682
 21
-466.5280556754219
 31
0.0
  0
LINE
  5
527
  8
0
  6
CONTINUOUS
 62
     3
 10
305.4649658448682
 20
-466.5280556754219
 30
0.0
 11
305.4649658448682
 21
-472.5280556754219
 31
0.0
  0
LINE
  5
528
  8
0
  6
CONTINUOUS
 62
     3
 10
215.4649658448682
 20
-466.5280556754219
 30
0.0
 11
215.4649658448682
 21
-472.5280556754219
 31
0.0
  0
LINE
  5
529
  8
0
  6
CONTINUOUS
 62
     3
 10
305.4649658448682
 20
-472.5280556754219
 30
0.0
 11
215.4649658448682
 21
-472.5280556754219
 31
0.0
  0
LINE
  5
52A
  8
0
  6
CONTINUOUS
 62
     3
 10
-699.7903426430719
 20
-466.5280556754219
 30
0.0
 11
-699.7903426430719
 21
53.17194432457836
 31
0.0
  0
LINE
  5
52B
  8
0
  6
CONTINUOUS
 62
     3
 10
-580.0403426430719
 20
178.8719443245782
 30
0.0
 11
-234.5903426430712
 21
178.8719443245782
 31
0.0
  0
LINE
  5
52C
  8
0
  6
CONTINUOUS
 62
     3
 10
-60.29034264306824
 20
-466.5280556754219
 30
0.0
 11
-60.29034264306824
 21
53.17194432457836
 31
0.0
  0
LINE
  5
52D
  8
0
  6
CONTINUOUS
 62
     3
 10
-60.29034264306824
 20
-466.5280556754219
 30
0.0
 11
-130.7903426430682
 21
-466.5280556754219
 31
0.0
  0
LINE
  5
52E
  8
0
  6
CONTINUOUS
 62
     3
 10
-12.09034264307115
 20
-472.5280556754219
 30
0.0
 11
-12.09034264307115
 21
-466.5280556754219
 31
0.0
  0
LINE
  5
52F
  8
0
  6
CONTINUOUS
 62
     3
 10
-157.0903426430712
 20
-472.5280556754219
 30
0.0
 11
-157.0903426430712
 21
-466.5280556754219
 31
0.0
  0
LINE
  5
530
  8
0
  6
CONTINUOUS
 62
     3
 10
-18.04034264306824
 20
-472.5280556754219
 30
0.0
 11
-163.0403426430682
 21
-472.5280556754219
 31
0.0
  0
LINE
  5
531
  8
0
  6
CONTINUOUS
 62
     3
 10
-12.09034264307115
 20
-466.5280556754219
 30
0.0
 11
-157.0903426430712
 21
-466.5280556754219
 31
0.0
  0
LINE
  5
532
  8
0
  6
CONTINUOUS
 62
     3
 10
-108.8903426430704
 20
-466.5280556754219
 30
0.0
 11
-108.8903426430704
 21
53.17194432457836
 31
0.0
  0
ARC
  5
533
  8
0
  6
CONTINUOUS
 62
     3
 10
-234.5903426430712
 20
53.17194432457836
 30
0.0
 40
125.7
 50
0.0
 51
90.0
  0
ARC
  5
534
  8
0
  6
CONTINUOUS
 62
     3
 10
-234.5903426430712
 20
53.17194432457836
 30
0.0
 40
174.3
 50
0.0
 51
90.0
  0
ARC
  5
535
  8
0
  6
CONTINUOUS
 62
     3
 10
260.4649658448682
 20
203.1719443245788
 30
0.0
 40
24.3
 50
0.0
 51
180.0
  0
LINE
  5
536
  8
0
  6
CONTINUOUS
 62
     3
 10
284.7649658448711
 20
203.1719443245788
 30
0.0
 11
284.7649658448711
 21
-466.5280556754219
 31
0.0
  0
LINE
  5
537
  8
0
  6
CONTINUOUS
 62
     3
 10
236.1649658448689
 20
203.1719443245788
 30
0.0
 11
236.1649658448689
 21
-466.5280556754219
 31
0.0
  0
LINE
  5
538
  8
0
  6
CONTINUOUS
 62
     3
 10
-796.5903426430712
 20
556.7145022411269
 30
0.0
 11
-796.5903426430712
 21
485.3495855100898
 31
0.0
  0
LINE
  5
539
  8
0
  6
CONTINUOUS
 62
     3
 10
-662.8453446446736
 20
476.032043875608
 30
0.0
 11
-785.3353406414687
 21
476.0320438756082
 31
0.0
  0
ARC
  5
53A
  8
0
  6
CONTINUOUS
 62
     3
 10
-669.0903426430712
 20
495.032043875608
 30
0.0
 40
20.0
 50
288.1948723387666
 51
331.0449756281399
  0
ARC
  5
53B
  8
0
  6
CONTINUOUS
 62
     3
 10
-779.0903426430712
 20
495.0320438756082
 30
0.0
 40
20.0
 50
208.9550243718597
 51
251.805127661233
  0
LINE
  5
53C
  8
0
  6
CONTINUOUS
 62
     3
 10
-651.5903426430712
 20
556.7145022411264
 30
0.0
 11
-651.5903426430712
 21
545.3320438756077
 31
0.0
  0
LINE
  5
53D
  8
0
  6
CONTINUOUS
 62
     3
 10
-651.5903426430712
 20
496.7320438756074
 30
0.0
 11
-651.5903426430712
 21
485.3495855100894
 31
0.0
  0
ARC
  5
53E
  8
0
  6
CONTINUOUS
 62
     3
 10
-669.0903426430712
 20
547.032043875608
 30
0.0
 40
20.0
 50
28.95502437185966
 51
71.80512766123304
  0
ARC
  5
53F
  8
0
  6
CONTINUOUS
 62
     3
 10
-779.0903426430712
 20
547.032043875608
 30
0.0
 40
20.0
 50
108.1948723387666
 51
151.04497562814
  0
LINE
  5
540
  8
0
  6
CONTINUOUS
 62
     3
 10
-662.8453446446736
 20
566.032043875608
 30
0.0
 11
-785.3353406414687
 21
566.032043875608
 31
0.0
  0
LINE
  5
541
  8
0
  6
CONTINUOUS
 62
     3
 10
-724.0903426430712
 20
496.7320438756074
 30
0.0
 11
-84.59034264307115
 21
496.7320438756074
 31
0.0
  0
LINE
  5
542
  8
0
  6
CONTINUOUS
 62
     3
 10
-724.0903426430712
 20
545.3320438756077
 30
0.0
 11
-84.59034264307115
 21
545.3320438756077
 31
0.0
  0
ARC
  5
543
  8
0
  6
CONTINUOUS
 62
     3
 10
-724.0903426430712
 20
521.0320438756075
 30
0.0
 40
24.3
 50
90.0
 51
270.0
  0
LINE
  5
544
  8
0
  6
CONTINUOUS
 62
     3
 10
-12.09034264307115
 20
556.7145022411269
 30
0.0
 11
-12.09034264307115
 21
485.3495855100898
 31
0.0
  0
LINE
  5
545
  8
0
  6
CONTINUOUS
 62
     3
 10
-145.8353406414687
 20
476.032043875608
 30
0.0
 11
-23.34534464466992
 21
476.0320438756082
 31
0.0
  0
ARC
  5
546
  8
0
  6
CONTINUOUS
 62
     3
 10
-139.5903426430712
 20
495.032043875608
 30
0.0
 40
20.0
 50
208.95502437186
 51
251.8051276612334
  0
ARC
  5
547
  8
0
  6
CONTINUOUS
 62
     3
 10
-29.59034264307115
 20
495.0320438756082
 30
0.0
 40
20.0
 50
288.194872338767
 51
331.0449756281403
  0
LINE
  5
548
  8
0
  6
CONTINUOUS
 62
     3
 10
-157.0903426430712
 20
556.7145022411264
 30
0.0
 11
-157.0903426430675
 21
545.3320438756077
 31
0.0
  0
LINE
  5
549
  8
0
  6
CONTINUOUS
 62
     3
 10
-157.0903426430712
 20
496.7320438756074
 30
0.0
 11
-157.0903426430712
 21
485.3495855100894
 31
0.0
  0
ARC
  5
54A
  8
0
  6
CONTINUOUS
 62
     3
 10
-139.5903426430712
 20
547.032043875608
 30
0.0
 40
20.0
 50
108.194872338767
 51
151.0449756281404
  0
ARC
  5
54B
  8
0
  6
CONTINUOUS
 62
     3
 10
-29.59034264307115
 20
547.032043875608
 30
0.0
 40
20.0
 50
28.95502437186005
 51
71.80512766123343
  0
LINE
  5
54C
  8
0
  6
CONTINUOUS
 62
     3
 10
-145.8353406414687
 20
566.032043875608
 30
0.0
 11
-23.34534464467356
 21
566.032043875608
 31
0.0
  0
ARC
  5
54D
  8
0
  6
CONTINUOUS
 62
     3
 10
-84.59034264307115
 20
521.0320438756075
 30
0.0
 40
24.3
 50
270.0
 51
90.0
  0
POLYLINE
  5
54E
  8
0
  6
CONTINUOUS
 62
     3
 66
     1
 10
0.0
 20
0.0
 30
0.0
 70
     1
  0
VERTEX
  5
57F
  8
0
  6
CONTINUOUS
 62
     3
 10
1.0
 20
0.0
 30
0.0
  0
VERTEX
  5
580
  8
0
  6
CONTINUOUS
 62
     3
 10
0.9807852804032304
 20
0.1950903220161282
 30
0.0
  0
VERTEX
  5
581
  8
0
  6
CONTINUOUS
 62
     3
 10
0.9238795325112867
 20
0.3826834323650898
 30
0.0
  0
VERTEX
  5
582
  8
0
  6
CONTINUOUS
 62
     3
 10
0.8314696123025452
 20
0.5555702330196022
 30
0.0
  0
VERTEX
  5
583
  8
0
  6
CONTINUOUS
 62
     3
 10
0.7071067811865476
 20
0.7071067811865475
 30
0.0
  0
VERTEX
  5
584
  8
0
  6
CONTINUOUS
 62
     3
 10
0.5555702330196023
 20
0.8314696123025452
 30
0.0
  0
VERTEX
  5
585
  8
0
  6
CONTINUOUS
 62
     3
 10
0.3826834323650898
 20
0.9238795325112867
 30
0.0
  0
VERTEX
  5
586
  8
0
  6
CONTINUOUS
 62
     3
 10
0.1950903220161283
 20
0.9807852804032304
 30
0.0
  0
VERTEX
  5
587
  8
0
  6
CONTINUOUS
 62
     3
 10
0.0000000000000001
 20
1.0
 30
0.0
  0
VERTEX
  5
588
  8
0
  6
CONTINUOUS
 62
     3
 10
-0.1950903220161282
 20
0.9807852804032304
 30
0.0
  0
VERTEX
  5
589
  8
0
  6
CONTINUOUS
 62
     3
 10
-0.3826834323650897
 20
0.9238795325112867
 30
0.0
  0
VERTEX
  5
58A
  8
0
  6
CONTINUOUS
 62
     3
 10
-0.555570233019602
 20
0.8314696123025455
 30
0.0
  0
VERTEX
  5
58B
  8
0
  6
CONTINUOUS
 62
     3
 10
-0.7071067811865475
 20
0.7071067811865476
 30
0.0
  0
VERTEX
  5
58C
  8
0
  6
CONTINUOUS
 62
     3
 10
-0.8314696123025453
 20
0.5555702330196022
 30
0.0
  0
VERTEX
  5
58D
  8
0
  6
CONTINUOUS
 62
     3
 10
-0.9238795325112868
 20
0.3826834323650894
 30
0.0
  0
VERTEX
  5
58E
  8
0
  6
CONTINUOUS
 62
     3
 10
-0.9807852804032305
 20
0.1950903220161277
 30
0.0
  0
VERTEX
  5
58F
  8
0
  6
CONTINUOUS
 62
     3
 10
-1.0
 20
-0.0000000000000008
 30
0.0
  0
VERTEX
  5
590
  8
0
  6
CONTINUOUS
 62
     3
 10
-0.9807852804032302
 20
-0.1950903220161292
 30
0.0
  0
VERTEX
  5
591
  8
0
  6
CONTINUOUS
 62
     3
 10
-0.9238795325112863
 20
-0.3826834323650909
 30
0.0
  0
VERTEX
  5
592
  8
0
  6
CONTINUOUS
 62
     3
 10
-0.8314696123025445
 20
-0.5555702330196034
 30
0.0
  0
VERTEX
  5
593
  8
0
  6
CONTINUOUS
 62
     3
 10
-0.7071067811865464
 20
-0.7071067811865487
 30
0.0
  0
VERTEX
  5
594
  8
0
  6
CONTINUOUS
 62
     3
 10
-0.5555702330196007
 20
-0.8314696123025462
 30
0.0
  0
VERTEX
  5
595
  8
0
  6
CONTINUOUS
 62
     3
 10
-0.3826834323650879
 20
-0.9238795325112875
 30
0.0
  0
VERTEX
  5
596
  8
0
  6
CONTINUOUS
 62
     3
 10
-0.1950903220161261
 20
-0.9807852804032309
 30
0.0
  0
VERTEX
  5
597
  8
0
  6
CONTINUOUS
 62
     3
 10
0.0000000000000025
 20
-1.0
 30
0.0
  0
VERTEX
  5
598
  8
0
  6
CONTINUOUS
 62
     3
 10
0.1950903220161309
 20
-0.9807852804032299
 30
0.0
  0
VERTEX
  5
599
  8
0
  6
CONTINUOUS
 62
     3
 10
0.3826834323650924
 20
-0.9238795325112856
 30
0.0
  0
VERTEX
  5
59A
  8
0
  6
CONTINUOUS
 62
     3
 10
0.5555702330196048
 20
-0.8314696123025435
 30
0.0
  0
VERTEX
  5
59B
  8
0
  6
CONTINUOUS
 62
     3
 10
0.7071067811865499
 20
-0.7071067811865451
 30
0.0
  0
VERTEX
  5
59C
  8
0
  6
CONTINUOUS
 62
     3
 10
0.8314696123025472
 20
-0.5555702330195993
 30
0.0
  0
VERTEX
  5
59D
  8
0
  6
CONTINUOUS
 62
     3
 10
0.9238795325112882
 20
-0.3826834323650863
 30
0.0
  0
VERTEX
  5
59E
  8
0
  6
CONTINUOUS
 62
     3
 10
0.9807852804032312
 20
-0.1950903220161244
 30
0.0
  0
SEQEND
  5
7A6
  8
0
  6
CONTINUOUS
 62
     3
  0
POLYLINE
  5
54F
  8
0
  6
CONTINUOUS
 62
     3
 66
     1
 10
0.0
 20
0.0
 30
0.0
 70
   128
  0
VERTEX
  5
59F
  8
0
  6
CONTINUOUS
 62
     3
 10
-580.0394689206529
 20
178.8350277168269
 30
0.0
  0
VERTEX
  5
5A0
  8
0
  6
CONTINUOUS
 62
     3
 10
-581.3042605573035
 20
178.7969412958631
 30
0.0
  0
VERTEX
  5
5A1
  8
0
  6
CONTINUOUS
 62
     3
 10
-582.5686015826078
 20
178.7455005117933
 30
0.0
  0
VERTEX
  5
5A2
  8
0
  6
CONTINUOUS
 62
     3
 10
-583.8323575928282
 20
178.6807108329473
 30
0.0
  0
VERTEX
  5
5A3
  8
0
  6
CONTINUOUS
 62
     3
 10
-585.095394246416
 20
178.6025791466877
 30
0.0
  0
VERTEX
  5
5A4
  8
0
  6
CONTINUOUS
 62
     3
 10
-586.3575772782929
 20
178.5111137586776
 30
0.0
  0
VERTEX
  5
5A5
  8
0
  6
CONTINUOUS
 62
     3
 10
-587.6187725141228
 20
178.4063243919979
 30
0.0
  0
VERTEX
  5
5A6
  8
0
  6
CONTINUOUS
 62
     3
 10
-588.8788458845764
 20
178.2882221861134
 30
0.0
  0
VERTEX
  5
5A7
  8
0
  6
CONTINUOUS
 62
     3
 10
-590.1376634395822
 20
178.1568196956893
 30
0.0
  0
VERTEX
  5
5A8
  8
0
  6
CONTINUOUS
 62
     3
 10
-591.395091362566
 20
178.0121308892556
 30
0.0
  0
VERTEX
  5
5A9
  8
0
  6
CONTINUOUS
 62
     3
 10
-592.6509959846761
 20
177.854171147723
 30
0.0
  0
VERTEX
  5
5AA
  8
0
  6
CONTINUOUS
 62
     3
 10
-593.9052437989935
 20
177.6829572627477
 30
0.0
  0
VERTEX
  5
5AB
  8
0
  6
CONTINUOUS
 62
     3
 10
-595.1577014747228
 20
177.4985074349462
 30
0.0
  0
VERTEX
  5
5AC
  8
0
  6
CONTINUOUS
 62
     3
 10
-596.4082358713666
 20
177.3008412719604
 30
0.0
  0
VERTEX
  5
5AD
  8
0
  6
CONTINUOUS
 62
     3
 10
-597.6567140528788
 20
177.0899797863737
 30
0.0
  0
VERTEX
  5
5AE
  8
0
  6
CONTINUOUS
 62
     3
 10
-598.9030033017956
 20
176.865945393477
 30
0.0
  0
VERTEX
  5
5AF
  8
0
  6
CONTINUOUS
 62
     3
 10
-600.1469711333446
 20
176.6287619088857
 30
0.0
  0
VERTEX
  5
5B0
  8
0
  6
CONTINUOUS
 62
     3
 10
-601.3884853095273
 20
176.3784545460085
 30
0.0
  0
VERTEX
  5
5B1
  8
0
  6
CONTINUOUS
 62
     3
 10
-602.6274138531777
 20
176.1150499133666
 30
0.0
  0
VERTEX
  5
5B2
  8
0
  6
CONTINUOUS
 62
     3
 10
-603.863625061991
 20
175.8385760117657
 30
0.0
  0
VERTEX
  5
5B3
  8
0
  6
CONTINUOUS
 62
     3
 10
-605.0969875225245
 20
175.5490622313188
 30
0.0
  0
VERTEX
  5
5B4
  8
0
  6
CONTINUOUS
 62
     3
 10
-606.3273701241667
 20
175.2465393483224
 30
0.0
  0
VERTEX
  5
5B5
  8
0
  6
CONTINUOUS
 62
     3
 10
-607.5546420730757
 20
174.9310395219846
 30
0.0
  0
VERTEX
  5
5B6
  8
0
  6
CONTINUOUS
 62
     3
 10
-608.7786729060822
 20
174.6025962910066
 30
0.0
  0
VERTEX
  5
5B7
  8
0
  6
CONTINUOUS
 62
     3
 10
-609.9993325045585
 20
174.2612445700175
 30
0.0
  0
VERTEX
  5
5B8
  8
0
  6
CONTINUOUS
 62
     3
 10
-611.2164911082509
 20
173.9070206458627
 30
0.0
  0
VERTEX
  5
5B9
  8
0
  6
CONTINUOUS
 62
     3
 10
-612.430019329073
 20
173.5399621737461
 30
0.0
  0
VERTEX
  5
5BA
  8
0
  6
CONTINUOUS
 62
     3
 10
-613.6397881648604
 20
173.1601081732279
 30
0.0
  0
VERTEX
  5
5BB
  8
0
  6
CONTINUOUS
 62
     3
 10
-614.8456690130844
 20
172.7674990240762
 30
0.0
  0
VERTEX
  5
5BC
  8
0
  6
CONTINUOUS
 62
     3
 10
-616.047533684522
 20
172.3621764619747
 30
0.0
  0
VERTEX
  5
5BD
  8
0
  6
CONTINUOUS
 62
     3
 10
-617.245254416884
 20
171.944183574086
 30
0.0
  0
VERTEX
  5
5BE
  8
0
  6
CONTINUOUS
 62
     3
 10
-618.4387038883956
 20
171.5135647944713
 30
0.0
  0
VERTEX
  5
5BF
  8
0
  6
CONTINUOUS
 62
     3
 10
-619.6277552313317
 20
171.0703658993668
 30
0.0
  0
VERTEX
  5
5C0
  8
0
  6
CONTINUOUS
 62
     3
 10
-620.8122820455029
 20
170.6146340023178
 30
0.0
  0
VERTEX
  5
5C1
  8
0
  6
CONTINUOUS
 62
     3
 10
-621.992158411693
 20
170.1464175491701
 30
0.0
  0
VERTEX
  5
5C2
  8
0
  6
CONTINUOUS
 62
     3
 10
-623.1672589050439
 20
169.66576631292
 30
0.0
  0
VERTEX
  5
5C3
  8
0
  6
CONTINUOUS
 62
     3
 10
-624.3374586083888
 20
169.1727313884236
 30
0.0
  0
VERTEX
  5
5C4
  8
0
  6
CONTINUOUS
 62
     3
 10
-625.502633125532
 20
168.6673651869651
 30
0.0
  0
VERTEX
  5
5C5
  8
0
  6
CONTINUOUS
 62
     3
 10
-626.6626585944716
 20
168.149721430685
 30
0.0
  0
VERTEX
  5
5C6
  8
0
  6
CONTINUOUS
 62
     3
 10
-627.8174117005674
 20
167.6198551468698
 30
0.0
  0
VERTEX
  5
5C7
  8
0
  6
CONTINUOUS
 62
     3
 10
-628.966769689649
 20
167.0778226621019
 30
0.0
  0
VERTEX
  5
5C8
  8
0
  6
CONTINUOUS
 62
     3
 10
-630.1106103810652
 20
166.5236815962722
 30
0.0
  0
VERTEX
  5
5C9
  8
0
  6
CONTINUOUS
 62
     3
 10
-631.2488121806724
 20
165.9574908564547
 30
0.0
  0
VERTEX
  5
5CA
  8
0
  6
CONTINUOUS
 62
     3
 10
-632.3812540937604
 20
165.3793106306447
 30
0.0
  0
VERTEX
  5
5CB
  8
0
  6
CONTINUOUS
 62
     3
 10
-633.5078157379141
 20
164.7892023813607
 30
0.0
  0
VERTEX
  5
5CC
  8
0
  6
CONTINUOUS
 62
     3
 10
-634.6283773558113
 20
164.1872288391101
 30
0.0
  0
VERTEX
  5
5CD
  8
0
  6
CONTINUOUS
 62
     3
 10
-635.7428198279528
 20
163.5734539957216
 30
0.0
  0
VERTEX
  5
5CE
  8
0
  6
CONTINUOUS
 62
     3
 10
-636.8510246853251
 20
162.947943097542
 30
0.0
  0
VERTEX
  5
5CF
  8
0
  6
CONTINUOUS
 62
     3
 10
-637.9528741219948
 20
162.3107626385004
 30
0.0
  0
VERTEX
  5
5D0
  8
0
  6
CONTINUOUS
 62
     3
 10
-639.0482510076309
 20
161.6619803530401
 30
0.0
  0
VERTEX
  5
5D1
  8
0
  6
CONTINUOUS
 62
     3
 10
-640.1370388999567
 20
161.0016652089177
 30
0.0
  0
VERTEX
  5
5D2
  8
0
  6
CONTINUOUS
 62
     3
 10
-641.2191220571275
 20
160.3298873998717
 30
0.0
  0
VERTEX
  5
5D3
  8
0
  6
CONTINUOUS
 62
     3
 10
-642.2943854500352
 20
159.646718338161
 30
0.0
  0
VERTEX
  5
5D4
  8
0
  6
CONTINUOUS
 62
     3
 10
-643.3627147745352
 20
158.952230646973
 30
0.0
  0
VERTEX
  5
5D5
  8
0
  6
CONTINUOUS
 62
     3
 10
-644.4239964635984
 20
158.246498152704
 30
0.0
  0
VERTEX
  5
5D6
  8
0
  6
CONTINUOUS
 62
     3
 10
-645.478117699383
 20
157.5295958771109
 30
0.0
  0
VERTEX
  5
5D7
  8
0
  6
CONTINUOUS
 62
     3
 10
-646.5249664252275
 20
156.8016000293361
 30
0.0
  0
VERTEX
  5
5D8
  8
0
  6
CONTINUOUS
 62
     3
 10
-647.5644313575632
 20
156.0625879978066
 30
0.0
  0
VERTEX
  5
5D9
  8
0
  6
CONTINUOUS
 62
     3
 10
-648.5964019977434
 20
155.3126383420069
 30
0.0
  0
VERTEX
  5
5DA
  8
0
  6
CONTINUOUS
 62
     3
 10
-649.6207686437903
 20
154.5518307841282
 30
0.0
  0
VERTEX
  5
5DB
  8
0
  6
CONTINUOUS
 62
     3
 10
-650.6374224020561
 20
153.7802462005932
 30
0.0
  0
VERTEX
  5
5DC
  8
0
  6
CONTINUOUS
 62
     3
 10
-651.6462551987997
 20
152.9979666134593
 30
0.0
  0
VERTEX
  5
5DD
  8
0
  6
CONTINUOUS
 62
     3
 10
-652.6471597916742
 20
152.2050751816989
 30
0.0
  0
VERTEX
  5
5DE
  8
0
  6
CONTINUOUS
 62
     3
 10
-653.6400297811279
 20
151.4016561923594
 30
0.0
  0
VERTEX
  5
5DF
  8
0
  6
CONTINUOUS
 62
     3
 10
-654.6247596217145
 20
150.5877950516034
 30
0.0
  0
VERTEX
  5
5E0
  8
0
  6
CONTINUOUS
 62
     3
 10
-655.6012446333133
 20
149.7635782756296
 30
0.0
  0
VERTEX
  5
5E1
  8
0
  6
CONTINUOUS
 62
     3
 10
-656.5693810122568
 20
148.9290934814756
 30
0.0
  0
VERTEX
  5
5E2
  8
0
  6
CONTINUOUS
 62
     3
 10
-657.5290658423658
 20
148.0844293777044
 30
0.0
  0
VERTEX
  5
5E3
  8
0
  6
CONTINUOUS
 62
     3
 10
-658.4801971058886
 20
147.2296757549741
 30
0.0
  0
VERTEX
  5
5E4
  8
0
  6
CONTINUOUS
 62
     3
 10
-659.4226736943473
 20
146.3649234764927
 30
0.0
  0
VERTEX
  5
5E5
  8
0
  6
CONTINUOUS
 62
     3
 10
-660.3563954192851
 20
145.4902644683594
 30
0.0
  0
VERTEX
  5
5E6
  8
0
  6
CONTINUOUS
 62
     3
 10
-661.2812630229171
 20
144.6057917097923
 30
0.0
  0
VERTEX
  5
5E7
  8
0
  6
CONTINUOUS
 62
     3
 10
-662.1971781886809
 20
143.7115992232443
 30
0.0
  0
VERTEX
  5
5E8
  8
0
  6
CONTINUOUS
 62
     3
 10
-663.1040435516893
 20
142.8077820644086
 30
0.0
  0
VERTEX
  5
5E9
  8
0
  6
CONTINUOUS
 62
     3
 10
-664.0017627090795
 20
141.8944363121134
 30
0.0
  0
VERTEX
  5
5EA
  8
0
  6
CONTINUOUS
 62
     3
 10
-664.8902402302612
 20
140.9716590581089
 30
0.0
  0
VERTEX
  5
5EB
  8
0
  6
CONTINUOUS
 62
     3
 10
-665.7693816670616
 20
140.0395483967458
 30
0.0
  0
VERTEX
  5
5EC
  8
0
  6
CONTINUOUS
 62
     3
 10
-666.6390935637653
 20
139.0982034145479
 30
0.0
  0
VERTEX
  5
5ED
  8
0
  6
CONTINUOUS
 62
     3
 10
-667.499283467049
 20
138.1477241796782
 30
0.0
  0
VERTEX
  5
5EE
  8
0
  6
CONTINUOUS
 62
     3
 10
-668.3498599358095
 20
137.1882117313019
 30
0.0
  0
VERTEX
  5
5EF
  8
0
  6
CONTINUOUS
 62
     3
 10
-669.1907325508841
 20
136.2197680688457
 30
0.0
  0
VERTEX
  5
5F0
  8
0
  6
CONTINUOUS
 62
     3
 10
-670.0218119246632
 20
135.2424961411542
 30
0.0
  0
VERTEX
  5
5F1
  8
0
  6
CONTINUOUS
 62
     3
 10
-670.8430097105916
 20
134.2564998355468
 30
0.0
  0
VERTEX
  5
5F2
  8
0
  6
CONTINUOUS
 62
     3
 10
-671.6542386125601
 20
133.2618839667738
 30
0.0
  0
VERTEX
  5
5F3
  8
0
  6
CONTINUOUS
 62
     3
 10
-672.4554123941862
 20
132.2587542658742
 30
0.0
  0
VERTEX
  5
5F4
  8
0
  6
CONTINUOUS
 62
     3
 10
-673.2464458879805
 20
131.2472173689363
 30
0.0
  0
VERTEX
  5
5F5
  8
0
  6
CONTINUOUS
 62
     3
 10
-674.0272550044007
 20
130.2273808057619
 30
0.0
  0
VERTEX
  5
5F6
  8
0
  6
CONTINUOUS
 62
     3
 10
-674.7977567407902
 20
129.1993529884353
 30
0.0
  0
VERTEX
  5
5F7
  8
0
  6
CONTINUOUS
 62
     3
 10
-675.5578691902024
 20
128.1632431997991
 30
0.0
  0
VERTEX
  5
5F8
  8
0
  6
CONTINUOUS
 62
     3
 10
-676.3075115501065
 20
127.1191615818366
 30
0.0
  0
VERTEX
  5
5F9
  8
0
  6
CONTINUOUS
 62
     3
 10
-677.0466041309782
 20
126.0672191239638
 30
0.0
  0
VERTEX
  5
5FA
  8
0
  6
CONTINUOUS
 62
     3
 10
-677.77506836477
 20
125.0075276512305
 30
0.0
  0
VERTEX
  5
5FB
  8
0
  6
CONTINUOUS
 62
     3
 10
-678.4928268132644
 20
123.9401998124331
 30
0.0
  0
VERTEX
  5
5FC
  8
0
  6
CONTINUOUS
 62
     3
 10
-679.1998031763045
 20
122.8653490681397
 30
0.0
  0
VERTEX
  5
5FD
  8
0
  6
CONTINUOUS
 62
     3
 10
-679.895922299906
 20
121.7830896786285
 30
0.0
  0
VERTEX
  5
5FE
  8
0
  6
CONTINUOUS
 62
     3
 10
-680.581110184246
 20
120.6935366917422
 30
0.0
  0
VERTEX
  5
5FF
  8
0
  6
CONTINUOUS
 62
     3
 10
-681.2552939915291
 20
119.5968059306572
 30
0.0
  0
VERTEX
  5
600
  8
0
  6
CONTINUOUS
 62
     3
 10
-681.9184020537309
 20
118.493013981572
 30
0.0
  0
VERTEX
  5
601
  8
0
  6
CONTINUOUS
 62
     3
 10
-682.5703638802161
 20
117.382278181313
 30
0.0
  0
VERTEX
  5
602
  8
0
  6
CONTINUOUS
 62
     3
 10
-683.2111101652321
 20
116.2647166048618
 30
0.0
  0
VERTEX
  5
603
  8
0
  6
CONTINUOUS
 62
     3
 10
-683.8405727952763
 20
115.140448052803
 30
0.0
  0
VERTEX
  5
604
  8
0
  6
CONTINUOUS
 62
     3
 10
-684.4586848563371
 20
114.0095920386955
 30
0.0
  0
VERTEX
  5
605
  8
0
  6
CONTINUOUS
 62
     3
 10
-685.0653806410066
 20
112.8722687763678
 30
0.0
  0
VERTEX
  5
606
  8
0
  6
CONTINUOUS
 62
     3
 10
-685.660595655466
 20
111.7285991671386
 30
0.0
  0
VERTEX
  5
607
  8
0
  6
CONTINUOUS
 62
     3
 10
-686.2442666263411
 20
110.5787047869649
 30
0.0
  0
VERTEX
  5
608
  8
0
  6
CONTINUOUS
 62
     3
 10
-686.8163315074289
 20
109.4227078735182
 30
0.0
  0
VERTEX
  5
609
  8
0
  6
CONTINUOUS
 62
     3
 10
-687.3767294862928
 20
108.2607313131897
 30
0.0
  0
VERTEX
  5
60A
  8
0
  6
CONTINUOUS
 62
     3
 10
-687.9254009907278
 20
107.0928986280274
 30
0.0
  0
VERTEX
  5
60B
  8
0
  6
CONTINUOUS
 62
     3
 10
-688.4622876950926
 20
105.9193339626052
 30
0.0
  0
VERTEX
  5
60C
  8
0
  6
CONTINUOUS
 62
     3
 10
-688.9873325265103
 20
104.740162070826
 30
0.0
  0
VERTEX
  5
60D
  8
0
  6
CONTINUOUS
 62
     3
 10
-689.5004796709352
 20
103.5555083026598
 30
0.0
  0
VERTEX
  5
60E
  8
0
  6
CONTINUOUS
 62
     3
 10
-690.0016745790859
 20
102.3654985908187
 30
0.0
  0
VERTEX
  5
60F
  8
0
  6
CONTINUOUS
 62
     3
 10
-690.4908639722445
 20
101.1702594373699
 30
0.0
  0
VERTEX
  5
610
  8
0
  6
CONTINUOUS
 62
     3
 10
-690.96799584792
 20
99.96991790028764
 30
0.0
  0
VERTEX
  5
611
  8
0
  6
CONTINUOUS
 62
     3
 10
-691.433019485376
 20
98.76460157994714
 30
0.0
  0
VERTEX
  5
612
  8
0
  6
CONTINUOUS
 62
     3
 10
-691.8858854510236
 20
97.55443860555981
 30
0.0
  0
VERTEX
  5
613
  8
0
  6
CONTINUOUS
 62
     3
 10
-692.3265456036748
 20
96.33955762155287
 30
0.0
  0
VERTEX
  5
614
  8
0
  6
CONTINUOUS
 62
     3
 10
-692.7549530996617
 20
95.12008777389394
 30
0.0
  0
VERTEX
  5
615
  8
0
  6
CONTINUOUS
 62
     3
 10
-693.1710623978148
 20
93.89615869636239
 30
0.0
  0
VERTEX
  5
616
  8
0
  6
CONTINUOUS
 62
     3
 10
-693.574829264305
 20
92.66790049676885
 30
0.0
  0
VERTEX
  5
617
  8
0
  6
CONTINUOUS
 62
     3
 10
-693.9662107773452
 20
91.43544374312432
 30
0.0
  0
VERTEX
  5
618
  8
0
  6
CONTINUOUS
 62
     3
 10
-694.3451653317538
 20
90.19891944976034
 30
0.0
  0
VERTEX
  5
619
  8
0
  6
CONTINUOUS
 62
     3
 10
-694.7116526433767
 20
88.95845906340166
 30
0.0
  0
VERTEX
  5
61A
  8
0
  6
CONTINUOUS
 62
     3
 10
-695.0656337533703
 20
87.71419444919312
 30
0.0
  0
VERTEX
  5
61B
  8
0
  6
CONTINUOUS
 62
     3
 10
-695.4070710323424
 20
86.46625787668182
 30
0.0
  0
VERTEX
  5
61C
  8
0
  6
CONTINUOUS
 62
     3
 10
-695.7359281843524
 20
85.21478200575656
 30
0.0
  0
VERTEX
  5
61D
  8
0
  6
CONTINUOUS
 62
     3
 10
-696.0521702507702
 20
83.95989987254548
 30
0.0
  0
VERTEX
  5
61E
  8
0
  6
CONTINUOUS
 62
     3
 10
-696.355763613992
 20
82.70174487527399
 30
0.0
  0
VERTEX
  5
61F
  8
0
  6
CONTINUOUS
 62
     3
 10
-696.6466760010139
 20
81.44045076008402
 30
0.0
  0
VERTEX
  5
620
  8
0
  6
CONTINUOUS
 62
     3
 10
-696.9248764868629
 20
80.17615160681642
 30
0.0
  0
VERTEX
  5
621
  8
0
  6
CONTINUOUS
 62
     3
 10
-697.190335497884
 20
78.90898181475774
 30
0.0
  0
VERTEX
  5
622
  8
0
  6
CONTINUOUS
 62
     3
 10
-697.4430248148843
 20
77.63907608835316
 30
0.0
  0
VERTEX
  5
623
  8
0
  6
CONTINUOUS
 62
     3
 10
-697.6829175761328
 20
76.36656942288703
 30
0.0
  0
VERTEX
  5
624
  8
0
  6
CONTINUOUS
 62
     3
 10
-697.9099882802155
 20
75.09159709013224
 30
0.0
  0
VERTEX
  5
625
  8
0
  6
CONTINUOUS
 62
     3
 10
-698.1242127887467
 20
73.81429462397051
 30
0.0
  0
VERTEX
  5
626
  8
0
  6
CONTINUOUS
 62
     3
 10
-698.325568328935
 20
72.5347978059847
 30
0.0
  0
VERTEX
  5
627
  8
0
  6
CONTINUOUS
 62
     3
 10
-698.5140334960035
 20
71.2532426510246
 30
0.0
  0
VERTEX
  5
628
  8
0
  6
CONTINUOUS
 62
     3
 10
-698.6895882554661
 20
69.9697653927483
 30
0.0
  0
VERTEX
  5
629
  8
0
  6
CONTINUOUS
 62
     3
 10
-698.8522139452567
 20
68.68450246913993
 30
0.0
  0
VERTEX
  5
62A
  8
0
  6
CONTINUOUS
 62
     3
 10
-699.0018932777131
 20
67.3975905080059
 30
0.0
  0
VERTEX
  5
62B
  8
0
  6
CONTINUOUS
 62
     3
 10
-699.1386103414146
 20
66.10916631245095
 30
0.0
  0
VERTEX
  5
62C
  8
0
  6
CONTINUOUS
 62
     3
 10
-699.262350602874
 20
64.81936684633543
 30
0.0
  0
VERTEX
  5
62D
  8
0
  6
CONTINUOUS
 62
     3
 10
-699.3731009080818
 20
63.52832921971558
 30
0.0
  0
VERTEX
  5
62E
  8
0
  6
CONTINUOUS
 62
     3
 10
-699.4708494839052
 20
62.23619067426836
 30
0.0
  0
VERTEX
  5
62F
  8
0
  6
CONTINUOUS
 62
     3
 10
-699.5555859393392
 20
60.94308856870211
 30
0.0
  0
VERTEX
  5
630
  8
0
  6
CONTINUOUS
 62
     3
 10
-699.6273012666111
 20
59.64916036415487
 30
0.0
  0
VERTEX
  5
631
  8
0
  6
CONTINUOUS
 62
     3
 10
-699.6859878421385
 20
58.35454360958181
 30
0.0
  0
VERTEX
  5
632
  8
0
  6
CONTINUOUS
 62
     3
 10
-699.7316394273397
 20
57.0593759271333
 30
0.0
  0
VERTEX
  5
633
  8
0
  6
CONTINUOUS
 62
     3
 10
-699.7642511692961
 20
55.76379499752522
 30
0.0
  0
VERTEX
  5
634
  8
0
  6
CONTINUOUS
 62
     3
 10
-699.7838196012692
 20
54.46793854540302
 30
0.0
  0
VERTEX
  5
635
  8
0
  6
CONTINUOUS
 62
     3
 10
-699.7903426430682
 20
53.1719443247011
 30
0.0
  0
SEQEND
  5
7A7
  8
0
  6
CONTINUOUS
 62
     3
  0
POLYLINE
  5
550
  8
0
  6
CONTINUOUS
 62
     3
 66
     1
 10
0.0
 20
0.0
 30
0.0
 70
     1
  0
VERTEX
  5
636
  8
0
  6
CONTINUOUS
 62
     3
 10
1.0
 20
0.0
 30
0.0
  0
VERTEX
  5
637
  8
0
  6
CONTINUOUS
 62
     3
 10
0.9807852804032304
 20
0.1950903220161282
 30
0.0
  0
VERTEX
  5
638
  8
0
  6
CONTINUOUS
 62
     3
 10
0.9238795325112867
 20
0.3826834323650898
 30
0.0
  0
VERTEX
  5
639
  8
0
  6
CONTINUOUS
 62
     3
 10
0.8314696123025452
 20
0.5555702330196022
 30
0.0
  0
VERTEX
  5
63A
  8
0
  6
CONTINUOUS
 62
     3
 10
0.7071067811865476
 20
0.7071067811865475
 30
0.0
  0
VERTEX
  5
63B
  8
0
  6
CONTINUOUS
 62
     3
 10
0.5555702330196023
 20
0.8314696123025452
 30
0.0
  0
VERTEX
  5
63C
  8
0
  6
CONTINUOUS
 62
     3
 10
0.3826834323650898
 20
0.9238795325112867
 30
0.0
  0
VERTEX
  5
63D
  8
0
  6
CONTINUOUS
 62
     3
 10
0.1950903220161283
 20
0.9807852804032304
 30
0.0
  0
VERTEX
  5
63E
  8
0
  6
CONTINUOUS
 62
     3
 10
0.0000000000000001
 20
1.0
 30
0.0
  0
VERTEX
  5
63F
  8
0
  6
CONTINUOUS
 62
     3
 10
-0.1950903220161282
 20
0.9807852804032304
 30
0.0
  0
VERTEX
  5
640
  8
0
  6
CONTINUOUS
 62
     3
 10
-0.3826834323650897
 20
0.9238795325112867
 30
0.0
  0
VERTEX
  5
641
  8
0
  6
CONTINUOUS
 62
     3
 10
-0.555570233019602
 20
0.8314696123025455
 30
0.0
  0
VERTEX
  5
642
  8
0
  6
CONTINUOUS
 62
     3
 10
-0.7071067811865475
 20
0.7071067811865476
 30
0.0
  0
VERTEX
  5
643
  8
0
  6
CONTINUOUS
 62
     3
 10
-0.8314696123025453
 20
0.5555702330196022
 30
0.0
  0
VERTEX
  5
644
  8
0
  6
CONTINUOUS
 62
     3
 10
-0.9238795325112868
 20
0.3826834323650894
 30
0.0
  0
VERTEX
  5
645
  8
0
  6
CONTINUOUS
 62
     3
 10
-0.9807852804032305
 20
0.1950903220161277
 30
0.0
  0
VERTEX
  5
646
  8
0
  6
CONTINUOUS
 62
     3
 10
-1.0
 20
-0.0000000000000008
 30
0.0
  0
VERTEX
  5
647
  8
0
  6
CONTINUOUS
 62
     3
 10
-0.9807852804032302
 20
-0.1950903220161292
 30
0.0
  0
VERTEX
  5
648
  8
0
  6
CONTINUOUS
 62
     3
 10
-0.9238795325112863
 20
-0.3826834323650909
 30
0.0
  0
VERTEX
  5
649
  8
0
  6
CONTINUOUS
 62
     3
 10
-0.8314696123025445
 20
-0.5555702330196034
 30
0.0
  0
VERTEX
  5
64A
  8
0
  6
CONTINUOUS
 62
     3
 10
-0.7071067811865464
 20
-0.7071067811865487
 30
0.0
  0
VERTEX
  5
64B
  8
0
  6
CONTINUOUS
 62
     3
 10
-0.5555702330196007
 20
-0.8314696123025462
 30
0.0
  0
VERTEX
  5
64C
  8
0
  6
CONTINUOUS
 62
     3
 10
-0.3826834323650879
 20
-0.9238795325112875
 30
0.0
  0
VERTEX
  5
64D
  8
0
  6
CONTINUOUS
 62
     3
 10
-0.1950903220161261
 20
-0.9807852804032309
 30
0.0
  0
VERTEX
  5
64E
  8
0
  6
CONTINUOUS
 62
     3
 10
0.0000000000000025
 20
-1.0
 30
0.0
  0
VERTEX
  5
64F
  8
0
  6
CONTINUOUS
 62
     3
 10
0.1950903220161309
 20
-0.9807852804032299
 30
0.0
  0
VERTEX
  5
650
  8
0
  6
CONTINUOUS
 62
     3
 10
0.3826834323650924
 20
-0.9238795325112856
 30
0.0
  0
VERTEX
  5
651
  8
0
  6
CONTINUOUS
 62
     3
 10
0.5555702330196048
 20
-0.8314696123025435
 30
0.0
  0
VERTEX
  5
652
  8
0
  6
CONTINUOUS
 62
     3
 10
0.7071067811865499
 20
-0.7071067811865451
 30
0.0
  0
VERTEX
  5
653
  8
0
  6
CONTINUOUS
 62
     3
 10
0.8314696123025472
 20
-0.5555702330195993
 30
0.0
  0
VERTEX
  5
654
  8
0
  6
CONTINUOUS
 62
     3
 10
0.9238795325112882
 20
-0.3826834323650863
 30
0.0
  0
VERTEX
  5
655
  8
0
  6
CONTINUOUS
 62
     3
 10
0.9807852804032312
 20
-0.1950903220161244
 30
0.0
  0
SEQEND
  5
7A8
  8
0
  6
CONTINUOUS
 62
     3
  0
POLYLINE
  5
551
  8
0
  6
CONTINUOUS
 62
     3
 66
     1
 10
0.0
 20
0.0
 30
0.0
 70
   128
  0
VERTEX
  5
656
  8
0
  6
CONTINUOUS
 62
     3
 10
-580.0398942166106
 20
227.445671809552
 30
0.0
  0
VERTEX
  5
657
  8
0
  6
CONTINUOUS
 62
     3
 10
-581.8137154193353
 20
227.4049868679755
 30
0.0
  0
VERTEX
  5
658
  8
0
  6
CONTINUOUS
 62
     3
 10
-583.5870273572218
 20
227.3456153644113
 30
0.0
  0
VERTEX
  5
659
  8
0
  6
CONTINUOUS
 62
     3
 10
-585.359639841871
 20
227.2675636664763
 30
0.0
  0
VERTEX
  5
65A
  8
0
  6
CONTINUOUS
 62
     3
 10
-587.1313627599
 20
227.1708401452457
 30
0.0
  0
VERTEX
  5
65B
  8
0
  6
CONTINUOUS
 62
     3
 10
-588.9020060933328
 20
227.0554551743549
 30
0.0
  0
VERTEX
  5
65C
  8
0
  6
CONTINUOUS
 62
     3
 10
-590.671379939979
 20
226.9214211288872
 30
0.0
  0
VERTEX
  5
65D
  8
0
  6
CONTINUOUS
 62
     3
 10
-592.4392945338014
 20
226.7687523840465
 30
0.0
  0
VERTEX
  5
65E
  8
0
  6
CONTINUOUS
 62
     3
 10
-594.2055602652678
 20
226.5974653136154
 30
0.0
  0
VERTEX
  5
65F
  8
0
  6
CONTINUOUS
 62
     3
 10
-595.9699877016875
 20
226.4075782881991
 30
0.0
  0
VERTEX
  5
660
  8
0
  6
CONTINUOUS
 62
     3
 10
-597.7323876075276
 20
226.1991116732555
 30
0.0
  0
VERTEX
  5
661
  8
0
  6
CONTINUOUS
 62
     3
 10
-599.4925709647084
 20
225.9720878269107
 30
0.0
  0
VERTEX
  5
662
  8
0
  6
CONTINUOUS
 62
     3
 10
-601.2503489928763
 20
225.7265310975608
 30
0.0
  0
VERTEX
  5
663
  8
0
  6
CONTINUOUS
 62
     3
 10
-603.00553316965
 20
225.4624678212614
 30
0.0
  0
VERTEX
  5
664
  8
0
  6
CONTINUOUS
 62
     3
 10
-604.7579352508396
 20
225.1799263189019
 30
0.0
  0
VERTEX
  5
665
  8
0
  6
CONTINUOUS
 62
     3
 10
-606.5073672906364
 20
224.8789368931693
 30
0.0
  0
VERTEX
  5
666
  8
0
  6
CONTINUOUS
 62
     3
 10
-608.2536416617693
 20
224.559531825297
 30
0.0
  0
VERTEX
  5
667
  8
0
  6
CONTINUOUS
 62
     3
 10
-609.9965710756289
 20
224.2217453716037
 30
0.0
  0
VERTEX
  5
668
  8
0
  6
CONTINUOUS
 62
     3
 10
-611.7359686023538
 20
223.8656137598187
 30
0.0
  0
VERTEX
  5
669
  8
0
  6
CONTINUOUS
 62
     3
 10
-613.4716476908782
 20
223.4911751851967
 30
0.0
  0
VERTEX
  5
66A
  8
0
  6
CONTINUOUS
 62
     3
 10
-615.2034221889411
 20
223.0984698064212
 30
0.0
  0
VERTEX
  5
66B
  8
0
  6
CONTINUOUS
 62
     3
 10
-616.9311063630496
 20
222.6875397412979
 30
0.0
  0
VERTEX
  5
66C
  8
0
  6
CONTINUOUS
 62
     3
 10
-618.6545149184003
 20
222.258429062237
 30
0.0
  0
VERTEX
  5
66D
  8
0
  6
CONTINUOUS
 62
     3
 10
-620.3734630187513
 20
221.8111837915268
 30
0.0
  0
VERTEX
  5
66E
  8
0
  6
CONTINUOUS
 62
     3
 10
-622.0877663062461
 20
221.3458518963976
 30
0.0
  0
VERTEX
  5
66F
  8
0
  6
CONTINUOUS
 62
     3
 10
-623.7972409211862
 20
220.8624832838771
 30
0.0
  0
VERTEX
  5
670
  8
0
  6
CONTINUOUS
 62
     3
 10
-625.5017035217505
 20
220.3611297954383
 30
0.0
  0
VERTEX
  5
671
  8
0
  6
CONTINUOUS
 62
     3
 10
-627.2009713036582
 20
219.8418452014388
 30
0.0
  0
VERTEX
  5
672
  8
0
  6
CONTINUOUS
 62
     3
 10
-628.8948620197746
 20
219.3046851953547
 30
0.0
  0
VERTEX
  5
673
  8
0
  6
CONTINUOUS
 62
     3
 10
-630.5831939996576
 20
218.7497073878067
 30
0.0
  0
VERTEX
  5
674
  8
0
  6
CONTINUOUS
 62
     3
 10
-632.2657861690419
 20
218.1769713003819
 30
0.0
  0
VERTEX
  5
675
  8
0
  6
CONTINUOUS
 62
     3
 10
-633.9424580692588
 20
217.5865383592497
 30
0.0
  0
VERTEX
  5
676
  8
0
  6
CONTINUOUS
 62
     3
 10
-635.613029876591
 20
216.9784718885741
 30
0.0
  0
VERTEX
  5
677
  8
0
  6
CONTINUOUS
 62
     3
 10
-637.2773224215586
 20
216.352837103722
 30
0.0
  0
VERTEX
  5
678
  8
0
  6
CONTINUOUS
 62
     3
 10
-638.9351572081347
 20
215.709701104269
 30
0.0
  0
VERTEX
  5
679
  8
0
  6
CONTINUOUS
 62
     3
 10
-640.5863564328899
 20
215.0491328668025
 30
0.0
  0
VERTEX
  5
67A
  8
0
  6
CONTINUOUS
 62
     3
 10
-642.2307430040613
 20
214.3712032375245
 30
0.0
  0
VERTEX
  5
67B
  8
0
  6
CONTINUOUS
 62
     3
 10
-643.8681405605456
 20
213.6759849246531
 30
0.0
  0
VERTEX
  5
67C
  8
0
  6
CONTINUOUS
 62
     3
 10
-645.4983734908143
 20
212.9635524906242
 30
0.0
  0
VERTEX
  5
67D
  8
0
  6
CONTINUOUS
 62
     3
 10
-647.1212669517477
 20
212.2339823440953
 30
0.0
  0
VERTEX
  5
67E
  8
0
  6
CONTINUOUS
 62
     3
 10
-648.736646887387
 20
211.48735273175
 30
0.0
  0
VERTEX
  5
67F
  8
0
  6
CONTINUOUS
 62
     3
 10
-650.344340047602
 20
210.7237437299064
 30
0.0
  0
VERTEX
  5
680
  8
0
  6
CONTINUOUS
 62
     3
 10
-651.9441740066725
 20
209.9432372359287
 30
0.0
  0
VERTEX
  5
681
  8
0
  6
CONTINUOUS
 62
     3
 10
-653.5359771817801
 20
209.1459169594439
 30
0.0
  0
VERTEX
  5
682
  8
0
  6
CONTINUOUS
 62
     3
 10
-655.1195788514115
 20
208.3318684133634
 30
0.0
  0
VERTEX
  5
683
  8
0
  6
CONTINUOUS
 62
     3
 10
-656.6948091736681
 20
207.5011789047125
 30
0.0
  0
VERTEX
  5
684
  8
0
  6
CONTINUOUS
 62
     3
 10
-658.2614992044812
 20
206.6539375252659
 30
0.0
  0
VERTEX
  5
685
  8
0
  6
CONTINUOUS
 62
     3
 10
-659.8194809157322
 20
205.7902351419932
 30
0.0
  0
VERTEX
  5
686
  8
0
  6
CONTINUOUS
 62
     3
 10
-661.368587213273
 20
204.9101643873128
 30
0.0
  0
VERTEX
  5
687
  8
0
  6
CONTINUOUS
 62
     3
 10
-662.9086519548468
 20
204.0138196491577
 30
0.0
  0
VERTEX
  5
688
  8
0
  6
CONTINUOUS
 62
     3
 10
-664.4395099679077
 20
203.1012970608516
 30
0.0
  0
VERTEX
  5
689
  8
0
  6
CONTINUOUS
 62
     3
 10
-665.9609970673348
 20
202.1726944907993
 30
0.0
  0
VERTEX
  5
68A
  8
0
  6
CONTINUOUS
 62
     3
 10
-667.472950073041
 20
201.2281115319897
 30
0.0
  0
VERTEX
  5
68B
  8
0
  6
CONTINUOUS
 62
     3
 10
-668.9752068274753
 20
200.2676494913147
 30
0.0
  0
VERTEX
  5
68C
  8
0
  6
CONTINUOUS
 62
     3
 10
-670.4676062130127
 20
199.2914113787041
 30
0.0
  0
VERTEX
  5
68D
  8
0
  6
CONTINUOUS
 62
     3
 10
-671.9499881692351
 20
198.2995018960774
 30
0.0
  0
VERTEX
  5
68E
  8
0
  6
CONTINUOUS
 62
     3
 10
-673.4221937100979
 20
197.2920274261147
 30
0.0
  0
VERTEX
  5
68F
  8
0
  6
CONTINUOUS
 62
     3
 10
-674.8840649409805
 20
196.2690960208471
 30
0.0
  0
VERTEX
  5
690
  8
0
  6
CONTINUOUS
 62
     3
 10
-676.3354450756216
 20
195.2308173900682
 30
0.0
  0
VERTEX
  5
691
  8
0
  6
CONTINUOUS
 62
     3
 10
-677.7761784529338
 20
194.1773028895674
 30
0.0
  0
VERTEX
  5
692
  8
0
  6
CONTINUOUS
 62
     3
 10
-679.2061105536985
 20
193.1086655091869
 30
0.0
  0
VERTEX
  5
693
  8
0
  6
CONTINUOUS
 62
     3
 10
-680.6250880171386
 20
192.0250198607041
 30
0.0
  0
VERTEX
  5
694
  8
0
  6
CONTINUOUS
 62
     3
 10
-682.0329586573658
 20
190.9264821655388
 30
0.0
  0
VERTEX
  5
695
  8
0
  6
CONTINUOUS
 62
     3
 10
-683.4295714797031
 20
189.8131702422885
 30
0.0
  0
VERTEX
  5
696
  8
0
  6
CONTINUOUS
 62
     3
 10
-684.8147766968789
 20
188.6852034940927
 30
0.0
  0
VERTEX
  5
697
  8
0
  6
CONTINUOUS
 62
     3
 10
-686.1884257450914
 20
187.5427028958265
 30
0.0
  0
VERTEX
  5
698
  8
0
  6
CONTINUOUS
 62
     3
 10
-687.550371299943
 20
186.3857909811261
 30
0.0
  0
VERTEX
  5
699
  8
0
  6
CONTINUOUS
 62
     3
 10
-688.9004672922397
 20
185.2145918292471
 30
0.0
  0
VERTEX
  5
69A
  8
0
  6
CONTINUOUS
 62
     3
 10
-690.2385689236582
 20
184.0292310517567
 30
0.0
  0
VERTEX
  5
69B
  8
0
  6
CONTINUOUS
 62
     3
 10
-691.5645326822752
 20
182.8298357790621
 30
0.0
  0
VERTEX
  5
69C
  8
0
  6
CONTINUOUS
 62
     3
 10
-692.8782163579583
 20
181.6165346467757
 30
0.0
  0
VERTEX
  5
69D
  8
0
  6
CONTINUOUS
 62
     3
 10
-694.1794790576197
 20
180.3894577819187
 30
0.0
  0
VERTEX
  5
69E
  8
0
  6
CONTINUOUS
 62
     3
 10
-695.4681812203254
 20
179.1487367889648
 30
0.0
  0
VERTEX
  5
69F
  8
0
  6
CONTINUOUS
 62
     3
 10
-696.7441846322643
 20
177.8945047357262
 30
0.0
  0
VERTEX
  5
6A0
  8
0
  6
CONTINUOUS
 62
     3
 10
-698.007352441571
 20
176.6268961390813
 30
0.0
  0
VERTEX
  5
6A1
  8
0
  6
CONTINUOUS
 62
     3
 10
-699.257549173004
 20
175.346046950548
 30
0.0
  0
VERTEX
  5
6A2
  8
0
  6
CONTINUOUS
 62
     3
 10
-700.4946407424745
 20
174.052094541703
 30
0.0
  0
VERTEX
  5
6A3
  8
0
  6
CONTINUOUS
 62
     3
 10
-701.7184944714278
 20
172.7451776894485
 30
0.0
  0
VERTEX
  5
6A4
  8
0
  6
CONTINUOUS
 62
     3
 10
-702.9289791010723
 20
171.4254365611282
 30
0.0
  0
VERTEX
  5
6A5
  8
0
  6
CONTINUOUS
 62
     3
 10
-704.1259648064579
 20
170.0930126994946
 30
0.0
  0
VERTEX
  5
6A6
  8
0
  6
CONTINUOUS
 62
     3
 10
-705.3093232103995
 20
168.7480490075282
 30
0.0
  0
VERTEX
  5
6A7
  8
0
  6
CONTINUOUS
 62
     3
 10
-706.4789273972451
 20
167.3906897331112
 30
0.0
  0
VERTEX
  5
6A8
  8
0
  6
CONTINUOUS
 62
     3
 10
-707.6346519264881
 20
166.0210804535569
 30
0.0
  0
VERTEX
  5
6A9
  8
0
  6
CONTINUOUS
 62
     3
 10
-708.7763728462204
 20
164.6393680599965
 30
0.0
  0
VERTEX
  5
6AA
  8
0
  6
CONTINUOUS
 62
     3
 10
-709.9039677064268
 20
163.2457007416247
 30
0.0
  0
VERTEX
  5
6AB
  8
0
  6
CONTINUOUS
 62
     3
 10
-711.0173155721171
 20
161.8402279698068
 30
0.0
  0
VERTEX
  5
6AC
  8
0
  6
CONTINUOUS
 62
     3
 10
-712.1162970362973
 20
160.4231004820477
 30
0.0
  0
VERTEX
  5
6AD
  8
0
  6
CONTINUOUS
 62
     3
 10
-713.2007942327751
 20
158.9944702658247
 30
0.0
  0
VERTEX
  5
6AE
  8
0
  6
CONTINUOUS
 62
     3
 10
-714.2706908488021
 20
157.5544905422876
 30
0.0
  0
VERTEX
  5
6AF
  8
0
  6
CONTINUOUS
 62
     3
 10
-715.3258721375474
 20
156.1033157498252
 30
0.0
  0
VERTEX
  5
6B0
  8
0
  6
CONTINUOUS
 62
     3
 10
-716.366224930405
 20
154.6411015275018
 30
0.0
  0
VERTEX
  5
6B1
  8
0
  6
CONTINUOUS
 62
     3
 10
-717.3916376491308
 20
153.1680046983649
 30
0.0
  0
VERTEX
  5
6B2
  8
0
  6
CONTINUOUS
 62
     3
 10
-718.4020003178093
 20
151.6841832526259
 30
0.0
  0
VERTEX
  5
6B3
  8
0
  6
CONTINUOUS
 62
     3
 10
-719.3972045746493
 20
150.1897963307153
 30
0.0
  0
VERTEX
  5
6B4
  8
0
  6
CONTINUOUS
 62
     3
 10
-720.3771436836045
 20
148.6850042062153
 30
0.0
  0
VERTEX
  5
6B5
  8
0
  6
CONTINUOUS
 62
     3
 10
-721.3417125458221
 20
147.16996826867
 30
0.0
  0
VERTEX
  5
6B6
  8
0
  6
CONTINUOUS
 62
     3
 10
-722.2908077109144
 20
145.6448510062766
 30
0.0
  0
VERTEX
  5
6B7
  8
0
  6
CONTINUOUS
 62
     3
 10
-723.2243273880533
 20
144.1098159884582
 30
0.0
  0
VERTEX
  5
6B8
  8
0
  6
CONTINUOUS
 62
     3
 10
-724.1421714568885
 20
142.5650278483211
 30
0.0
  0
VERTEX
  5
6B9
  8
0
  6
CONTINUOUS
 62
     3
 10
-725.0442414782841
 20
141.0106522649978
 30
0.0
  0
VERTEX
  5
6BA
  8
0
  6
CONTINUOUS
 62
     3
 10
-725.9304407048776
 20
139.4468559458778
 30
0.0
  0
VERTEX
  5
6BB
  8
0
  6
CONTINUOUS
 62
     3
 10
-726.8006740914551
 20
137.8738066087282
 30
0.0
  0
VERTEX
  5
6BC
  8
0
  6
CONTINUOUS
 62
     3
 10
-727.6548483051454
 20
136.291672963706
 30
0.0
  0
VERTEX
  5
6BD
  8
0
  6
CONTINUOUS
 62
     3
 10
-728.4928717354297
 20
134.7006246952636
 30
0.0
  0
VERTEX
  5
6BE
  8
0
  6
CONTINUOUS
 62
     3
 10
-729.3146545039674
 20
133.1008324439504
 30
0.0
  0
VERTEX
  5
6BF
  8
0
  6
CONTINUOUS
 62
     3
 10
-730.1201084742349
 20
131.4924677881114
 30
0.0
  0
VERTEX
  5
6C0
  8
0
  6
CONTINUOUS
 62
     3
 10
-730.9091472609789
 20
129.8757032254851
 30
0.0
  0
VERTEX
  5
6C1
  8
0
  6
CONTINUOUS
 62
     3
 10
-731.6816862394805
 20
128.2507121547035
 30
0.0
  0
VERTEX
  5
6C2
  8
0
  6
CONTINUOUS
 62
     3
 10
-732.4376425546322
 20
126.6176688566949
 30
0.0
  0
VERTEX
  5
6C3
  8
0
  6
CONTINUOUS
 62
     3
 10
-733.1769351298235
 20
124.9767484759919
 30
0.0
  0
VERTEX
  5
6C4
  8
0
  6
CONTINUOUS
 62
     3
 10
-733.8994846756361
 20
123.3281270019475
 30
0.0
  0
VERTEX
  5
6C5
  8
0
  6
CONTINUOUS
 62
     3
 10
-734.6052136983487
 20
121.6719812498597
 30
0.0
  0
VERTEX
  5
6C6
  8
0
  6
CONTINUOUS
 62
     3
 10
-735.2940465082474
 20
120.0084888420086
 30
0.0
  0
VERTEX
  5
6C7
  8
0
  6
CONTINUOUS
 62
     3
 10
-735.9659092277439
 20
118.3378281886058
 30
0.0
  0
VERTEX
  5
6C8
  8
0
  6
CONTINUOUS
 62
     3
 10
-736.6207297992985
 20
116.66017846866
 30
0.0
  0
VERTEX
  5
6C9
  8
0
  6
CONTINUOUS
 62
     3
 10
-737.2584379931487
 20
114.9757196107602
 30
0.0
  0
VERTEX
  5
6CA
  8
0
  6
CONTINUOUS
 62
     3
 10
-737.8789654148413
 20
113.284632273778
 30
0.0
  0
VERTEX
  5
6CB
  8
0
  6
CONTINUOUS
 62
     3
 10
-738.4822455125676
 20
111.587097827492
 30
0.0
  0
VERTEX
  5
6CC
  8
0
  6
CONTINUOUS
 62
     3
 10
-739.0682135843008
 20
109.8832983331357
 30
0.0
  0
VERTEX
  5
6CD
  8
0
  6
CONTINUOUS
 62
     3
 10
-739.6368067847361
 20
108.1734165238716
 30
0.0
  0
VERTEX
  5
6CE
  8
0
  6
CONTINUOUS
 62
     3
 10
-740.1879641320302
 20
106.4576357851928
 30
0.0
  0
VERTEX
  5
6CF
  8
0
  6
CONTINUOUS
 62
     3
 10
-740.721626514342
 20
104.736140135255
 30
0.0
  0
VERTEX
  5
6D0
  8
0
  6
CONTINUOUS
 62
     3
 10
-741.2377366961721
 20
103.0091142051401
 30
0.0
  0
VERTEX
  5
6D1
  8
0
  6
CONTINUOUS
 62
     3
 10
-741.7362393245015
 20
101.2767432190548
 30
0.0
  0
VERTEX
  5
6D2
  8
0
  6
CONTINUOUS
 62
     3
 10
-742.2170809347285
 20
99.53921297446544
 30
0.0
  0
VERTEX
  5
6D3
  8
0
  6
CONTINUOUS
 62
     3
 10
-742.6802099564021
 20
97.79670982217046
 30
0.0
  0
VERTEX
  5
6D4
  8
0
  6
CONTINUOUS
 62
     3
 10
-743.1255767187535
 20
96.04942064631481
 30
0.0
  0
VERTEX
  5
6D5
  8
0
  6
CONTINUOUS
 62
     3
 10
-743.5531334560231
 20
94.29753284434628
 30
0.0
  0
VERTEX
  5
6D6
  8
0
  6
CONTINUOUS
 62
     3
 10
-743.9628343125837
 20
92.54123430691713
 30
0.0
  0
VERTEX
  5
6D7
  8
0
  6
CONTINUOUS
 62
     3
 10
-744.3546353478581
 20
90.78071339773271
 30
0.0
  0
VERTEX
  5
6D8
  8
0
  6
CONTINUOUS
 62
     3
 10
-744.7284945410319
 20
89.0161589333494
 30
0.0
  0
VERTEX
  5
6D9
  8
0
  6
CONTINUOUS
 62
     3
 10
-745.0843717955602
 20
87.24776016292394
 30
0.0
  0
VERTEX
  5
6DA
  8
0
  6
CONTINUOUS
 62
     3
 10
-745.4222289434684
 20
85.47570674791643
 30
0.0
  0
VERTEX
  5
6DB
  8
0
  6
CONTINUOUS
 62
     3
 10
-745.7420297494452
 20
83.700188741749
 30
0.0
  0
VERTEX
  5
6DC
  8
0
  6
CONTINUOUS
 62
     3
 10
-746.043739914729
 20
81.92139656942254
 30
0.0
  0
VERTEX
  5
6DD
  8
0
  6
CONTINUOUS
 62
     3
 10
-746.3273270807865
 20
80.13952100709355
 30
0.0
  0
VERTEX
  5
6DE
  8
0
  6
CONTINUOUS
 62
     3
 10
-746.592760832783
 20
78.35475316161332
 30
0.0
  0
VERTEX
  5
6DF
  8
0
  6
CONTINUOUS
 62
     3
 10
-746.8400127028451
 20
76.56728445003162
 30
0.0
  0
VERTEX
  5
6E0
  8
0
  6
CONTINUOUS
 62
     3
 10
-747.0690561731127
 20
74.7773065790672
 30
0.0
  0
VERTEX
  5
6E1
  8
0
  6
CONTINUOUS
 62
     3
 10
-747.2798666785841
 20
72.9850115245471
 30
0.0
  0
VERTEX
  5
6E2
  8
0
  6
CONTINUOUS
 62
     3
 10
-747.47242160975
 20
71.19059151081723
 30
0.0
  0
VERTEX
  5
6E3
  8
0
  6
CONTINUOUS
 62
     3
 10
-747.6467003150188
 20
69.39423899012618
 30
0.0
  0
VERTEX
  5
6E4
  8
0
  6
CONTINUOUS
 62
     3
 10
-747.8026841029312
 20
67.5961466219847
 30
0.0
  0
VERTEX
  5
6E5
  8
0
  6
CONTINUOUS
 62
     3
 10
-747.9403562441648
 20
65.79650725250282
 30
0.0
  0
VERTEX
  5
6E6
  8
0
  6
CONTINUOUS
 62
     3
 10
-748.0597019733286
 20
63.9955138937071
 30
0.0
  0
VERTEX
  5
6E7
  8
0
  6
CONTINUOUS
 62
     3
 10
-748.1607084905465
 20
62.19335970283998
 30
0.0
  0
VERTEX
  5
6E8
  8
0
  6
CONTINUOUS
 62
     3
 10
-748.2433649628301
 20
60.39023796164358
 30
0.0
  0
VERTEX
  5
6E9
  8
0
  6
CONTINUOUS
 62
     3
 10
-748.3076625252402
 20
58.58634205563019
 30
0.0
  0
VERTEX
  5
6EA
  8
0
  6
CONTINUOUS
 62
     3
 10
-748.3535942818381
 20
56.78186545334157
 30
0.0
  0
VERTEX
  5
6EB
  8
0
  6
CONTINUOUS
 62
     3
 10
-748.3811553064252
 20
54.97700168559937
 30
0.0
  0
VERTEX
  5
6EC
  8
0
  6
CONTINUOUS
 62
     3
 10
-748.3903426430704
 20
53.17194432474891
 30
0.0
  0
SEQEND
  5
7A9
  8
0
  6
CONTINUOUS
 62
     3
  0
LINE
  5
552
  8
0
  6
CENTER
 62
     4
 10
260.4649658448682
 20
246.5490638082185
 30
0.0
 11
260.4649658448682
 21
-489.6340656921161
 31
0.0
  0
LINE
  5
553
  8
0
  6
CENTER
 62
     4
 10
-724.0903426430712
 20
-513.5352415051343
 30
0.0
 11
-724.0903426430712
 21
53.17194432457836
 31
0.0
  0
LINE
  5
554
  8
0
  6
CENTER
 62
     4
 10
-580.0403426430719
 20
203.1719443245784
 30
0.0
 11
-234.5903426430712
 21
203.1719443245784
 31
0.0
  0
LINE
  5
555
  8
0
  6
CENTER
 62
     4
 10
-84.59034264307115
 20
-513.5352415051343
 30
0.0
 11
-84.59034264307115
 21
53.17194432457836
 31
0.0
  0
ARC
  5
556
  8
0
  6
CENTER
 62
     4
 10
-234.5903426430712
 20
53.17194432457836
 30
0.0
 40
150.0
 50
0.0
 51
90.0
  0
LINE
  5
557
  8
0
  6
CENTER
 62
     4
 10
-794.9190524443773
 20
521.0320438756071
 30
0.0
 11
-23.04404919457079
 21
521.0320438756066
 31
0.0
  0
LINE
  5
558
  8
0
  6
CENTER
 62
     4
 10
-779.0903426430712
 20
536.1569001430623
 30
0.0
 11
-779.0903426430712
 21
503.405616763981
 31
0.0
  0
LINE
  5
559
  8
0
  6
CENTER
 62
     4
 10
-724.0903426430712
 20
570.3920701248103
 30
0.0
 11
-724.0903426430712
 21
482.1165679694043
 31
0.0
  0
LINE
  5
55A
  8
0
  6
CENTER
 62
     4
 10
-669.0903426430712
 20
536.1569001430621
 30
0.0
 11
-669.0903426430712
 21
503.4056167639806
 31
0.0
  0
LINE
  5
55B
  8
0
  6
CENTER
 62
     4
 10
-404.3403426430712
 20
466.6779244458862
 30
0.0
 11
-404.3403426430712
 21
600.5510463156693
 31
0.0
  0
LINE
  5
55C
  8
0
  6
CENTER
 62
     4
 10
-29.59034264307115
 20
536.1569001430623
 30
0.0
 11
-29.59034264307115
 21
503.405616763981
 31
0.0
  0
LINE
  5
55D
  8
0
  6
CENTER
 62
     4
 10
-84.59034264307115
 20
570.3920701248103
 30
0.0
 11
-84.59034264307115
 21
482.1165679694043
 31
0.0
  0
LINE
  5
55E
  8
0
  6
CENTER
 62
     4
 10
-139.5903426430712
 20
536.1569001430621
 30
0.0
 11
-139.5903426430712
 21
503.4056167639806
 31
0.0
  0
POLYLINE
  5
55F
  8
0
  6
CENTER
 62
     4
 66
     1
 10
0.0
 20
0.0
 30
0.0
 70
     1
  0
VERTEX
  5
6ED
  8
0
  6
CENTER
 62
     4
 10
1.0
 20
0.0
 30
0.0
  0
VERTEX
  5
6EE
  8
0
  6
CENTER
 62
     4
 10
0.9807852804032304
 20
0.1950903220161282
 30
0.0
  0
VERTEX
  5
6EF
  8
0
  6
CENTER
 62
     4
 10
0.9238795325112867
 20
0.3826834323650898
 30
0.0
  0
VERTEX
  5
6F0
  8
0
  6
CENTER
 62
     4
 10
0.8314696123025452
 20
0.5555702330196022
 30
0.0
  0
VERTEX
  5
6F1
  8
0
  6
CENTER
 62
     4
 10
0.7071067811865476
 20
0.7071067811865475
 30
0.0
  0
VERTEX
  5
6F2
  8
0
  6
CENTER
 62
     4
 10
0.5555702330196023
 20
0.8314696123025452
 30
0.0
  0
VERTEX
  5
6F3
  8
0
  6
CENTER
 62
     4
 10
0.3826834323650898
 20
0.9238795325112867
 30
0.0
  0
VERTEX
  5
6F4
  8
0
  6
CENTER
 62
     4
 10
0.1950903220161283
 20
0.9807852804032304
 30
0.0
  0
VERTEX
  5
6F5
  8
0
  6
CENTER
 62
     4
 10
0.0000000000000001
 20
1.0
 30
0.0
  0
VERTEX
  5
6F6
  8
0
  6
CENTER
 62
     4
 10
-0.1950903220161282
 20
0.9807852804032304
 30
0.0
  0
VERTEX
  5
6F7
  8
0
  6
CENTER
 62
     4
 10
-0.3826834323650897
 20
0.9238795325112867
 30
0.0
  0
VERTEX
  5
6F8
  8
0
  6
CENTER
 62
     4
 10
-0.555570233019602
 20
0.8314696123025455
 30
0.0
  0
VERTEX
  5
6F9
  8
0
  6
CENTER
 62
     4
 10
-0.7071067811865475
 20
0.7071067811865476
 30
0.0
  0
VERTEX
  5
6FA
  8
0
  6
CENTER
 62
     4
 10
-0.8314696123025453
 20
0.5555702330196022
 30
0.0
  0
VERTEX
  5
6FB
  8
0
  6
CENTER
 62
     4
 10
-0.9238795325112868
 20
0.3826834323650894
 30
0.0
  0
VERTEX
  5
6FC
  8
0
  6
CENTER
 62
     4
 10
-0.9807852804032305
 20
0.1950903220161277
 30
0.0
  0
VERTEX
  5
6FD
  8
0
  6
CENTER
 62
     4
 10
-1.0
 20
-0.0000000000000008
 30
0.0
  0
VERTEX
  5
6FE
  8
0
  6
CENTER
 62
     4
 10
-0.9807852804032302
 20
-0.1950903220161292
 30
0.0
  0
VERTEX
  5
6FF
  8
0
  6
CENTER
 62
     4
 10
-0.9238795325112863
 20
-0.3826834323650909
 30
0.0
  0
VERTEX
  5
700
  8
0
  6
CENTER
 62
     4
 10
-0.8314696123025445
 20
-0.5555702330196034
 30
0.0
  0
VERTEX
  5
701
  8
0
  6
CENTER
 62
     4
 10
-0.7071067811865464
 20
-0.7071067811865487
 30
0.0
  0
VERTEX
  5
702
  8
0
  6
CENTER
 62
     4
 10
-0.5555702330196007
 20
-0.8314696123025462
 30
0.0
  0
VERTEX
  5
703
  8
0
  6
CENTER
 62
     4
 10
-0.3826834323650879
 20
-0.9238795325112875
 30
0.0
  0
VERTEX
  5
704
  8
0
  6
CENTER
 62
     4
 10
-0.1950903220161261
 20
-0.9807852804032309
 30
0.0
  0
VERTEX
  5
705
  8
0
  6
CENTER
 62
     4
 10
0.0000000000000025
 20
-1.0
 30
0.0
  0
VERTEX
  5
706
  8
0
  6
CENTER
 62
     4
 10
0.1950903220161309
 20
-0.9807852804032299
 30
0.0
  0
VERTEX
  5
707
  8
0
  6
CENTER
 62
     4
 10
0.3826834323650924
 20
-0.9238795325112856
 30
0.0
  0
VERTEX
  5
708
  8
0
  6
CENTER
 62
     4
 10
0.5555702330196048
 20
-0.8314696123025435
 30
0.0
  0
VERTEX
  5
709
  8
0
  6
CENTER
 62
     4
 10
0.7071067811865499
 20
-0.7071067811865451
 30
0.0
  0
VERTEX
  5
70A
  8
0
  6
CENTER
 62
     4
 10
0.8314696123025472
 20
-0.5555702330195993
 30
0.0
  0
VERTEX
  5
70B
  8
0
  6
CENTER
 62
     4
 10
0.9238795325112882
 20
-0.3826834323650863
 30
0.0
  0
VERTEX
  5
70C
  8
0
  6
CENTER
 62
     4
 10
0.9807852804032312
 20
-0.1950903220161244
 30
0.0
  0
SEQEND
  5
7AA
  8
0
  6
CENTER
 62
     4
  0
POLYLINE
  5
560
  8
0
  6
CENTER
 62
     4
 66
     1
 10
0.0
 20
0.0
 30
0.0
 70
   128
  0
VERTEX
  5
70D
  8
0
  6
CENTER
 62
     4
 10
-580.0397337862172
 20
203.141245659635
 30
0.0
  0
VERTEX
  5
70E
  8
0
  6
CENTER
 62
     4
 10
-581.5590483427515
 20
203.1018650493064
 30
0.0
  0
VERTEX
  5
70F
  8
0
  6
CENTER
 62
     4
 10
-583.0778827261299
 20
203.0464637362417
 30
0.0
  0
VERTEX
  5
710
  8
0
  6
CENTER
 62
     4
 10
-584.5960746419015
 20
202.9750476403265
 30
0.0
  0
VERTEX
  5
711
  8
0
  6
CENTER
 62
     4
 10
-586.113461864266
 20
202.8876243926996
 30
0.0
  0
VERTEX
  5
712
  8
0
  6
CENTER
 62
     4
 10
-587.6298822534083
 20
202.7842033349378
 30
0.0
  0
VERTEX
  5
713
  8
0
  6
CENTER
 62
     4
 10
-589.1451737728238
 20
202.6647955180575
 30
0.0
  0
VERTEX
  5
714
  8
0
  6
CENTER
 62
     4
 10
-590.6591745066329
 20
202.5294137013341
 30
0.0
  0
VERTEX
  5
715
  8
0
  6
CENTER
 62
     4
 10
-592.1717226768825
 20
202.3780723509384
 30
0.0
  0
VERTEX
  5
716
  8
0
  6
CENTER
 62
     4
 10
-593.6826566608325
 20
202.2107876383909
 30
0.0
  0
VERTEX
  5
717
  8
0
  6
CENTER
 62
     4
 10
-595.1918150082261
 20
202.0275774388337
 30
0.0
  0
VERTEX
  5
718
  8
0
  6
CENTER
 62
     4
 10
-596.6990364585411
 20
201.8284613291207
 30
0.0
  0
VERTEX
  5
719
  8
0
  6
CENTER
 62
     4
 10
-598.2041599582222
 20
201.6134605857256
 30
0.0
  0
VERTEX
  5
71A
  8
0
  6
CENTER
 62
     4
 10
-599.7070246778896
 20
201.3825981824682
 30
0.0
  0
VERTEX
  5
71B
  8
0
  6
CENTER
 62
     4
 10
-601.2074700295245
 20
201.13589878806
 30
0.0
  0
VERTEX
  5
71C
  8
0
  6
CENTER
 62
     4
 10
-602.7053356836286
 20
200.8733887634676
 30
0.0
  0
VERTEX
  5
71D
  8
0
  6
CENTER
 62
     4
 10
-604.2004615863565
 20
200.5950961590966
 30
0.0
  0
VERTEX
  5
71E
  8
0
  6
CENTER
 62
     4
 10
-605.6926879766174
 20
200.3010507117937
 30
0.0
  0
VERTEX
  5
71F
  8
0
  6
CENTER
 62
     4
 10
-607.1818554031472
 20
199.9912838416698
 30
0.0
  0
VERTEX
  5
720
  8
0
  6
CENTER
 62
     4
 10
-608.667804741546
 20
199.6658286487419
 30
0.0
  0
VERTEX
  5
721
  8
0
  6
CENTER
 62
     4
 10
-610.1503772112812
 20
199.3247199093966
 30
0.0
  0
VERTEX
  5
722
  8
0
  6
CENTER
 62
     4
 10
-611.6294143926547
 20
198.9679940726743
 30
0.0
  0
VERTEX
  5
723
  8
0
  6
CENTER
 62
     4
 10
-613.1047582437297
 20
198.595689256374
 30
0.0
  0
VERTEX
  5
724
  8
0
  6
CENTER
 62
     4
 10
-614.5762511172193
 20
198.2078452429804
 30
0.0
  0
VERTEX
  5
725
  8
0
  6
CENTER
 62
     4
 10
-616.0437357773307
 20
197.8045034754131
 30
0.0
  0
VERTEX
  5
726
  8
0
  6
CENTER
 62
     4
 10
-617.5070554165675
 20
197.3857070525982
 30
0.0
  0
VERTEX
  5
727
  8
0
  6
CENTER
 62
     4
 10
-618.9660536724851
 20
196.9515007248627
 30
0.0
  0
VERTEX
  5
728
  8
0
  6
CENTER
 62
     4
 10
-620.4205746443984
 20
196.5019308891532
 30
0.0
  0
VERTEX
  5
729
  8
0
  6
CENTER
 62
     4
 10
-621.8704629100407
 20
196.0370455840775
 30
0.0
  0
VERTEX
  5
72A
  8
0
  6
CENTER
 62
     4
 10
-623.3155635421714
 20
195.5568944847723
 30
0.0
  0
VERTEX
  5
72B
  8
0
  6
CENTER
 62
     4
 10
-624.7557221251307
 20
195.0615288975946
 30
0.0
  0
VERTEX
  5
72C
  8
0
  6
CENTER
 62
     4
 10
-626.1907847713392
 20
194.5510017546393
 30
0.0
  0
VERTEX
  5
72D
  8
0
  6
CENTER
 62
     4
 10
-627.620598137742
 20
194.0253676080836
 30
0.0
  0
VERTEX
  5
72E
  8
0
  6
CENTER
 62
     4
 10
-629.0450094421942
 20
193.4846826243577
 30
0.0
  0
VERTEX
  5
72F
  8
0
  6
CENTER
 62
     4
 10
-630.4638664797857
 20
192.9290045781429
 30
0.0
  0
VERTEX
  5
730
  8
0
  6
CENTER
 62
     4
 10
-631.8770176391055
 20
192.3583928461983
 30
0.0
  0
VERTEX
  5
731
  8
0
  6
CENTER
 62
     4
 10
-633.2843119184421
 20
191.7729084010163
 30
0.0
  0
VERTEX
  5
732
  8
0
  6
CENTER
 62
     4
 10
-634.6855989419186
 20
191.172613804307
 30
0.0
  0
VERTEX
  5
733
  8
0
  6
CENTER
 62
     4
 10
-636.0807289755609
 20
190.5575732003136
 30
0.0
  0
VERTEX
  5
734
  8
0
  6
CENTER
 62
     4
 10
-637.4695529432977
 20
189.9278523089581
 30
0.0
  0
VERTEX
  5
735
  8
0
  6
CENTER
 62
     4
 10
-638.8519224428901
 20
189.2835184188187
 30
0.0
  0
VERTEX
  5
736
  8
0
  6
CENTER
 62
     4
 10
-640.2276897617885
 20
188.6246403799399
 30
0.0
  0
VERTEX
  5
737
  8
0
  6
CENTER
 62
     4
 10
-641.5967078929169
 20
187.9512885964756
 30
0.0
  0
VERTEX
  5
738
  8
0
  6
CENTER
 62
     4
 10
-642.9588305503813
 20
187.2635350191659
 30
0.0
  0
VERTEX
  5
739
  8
0
  6
CENTER
 62
     4
 10
-644.3139121851005
 20
186.5614531376488
 30
0.0
  0
VERTEX
  5
73A
  8
0
  6
CENTER
 62
     4
 10
-645.6618080003592
 20
185.8451179726079
 30
0.0
  0
VERTEX
  5
73B
  8
0
  6
CENTER
 62
     4
 10
-647.0023739672799
 20
185.1146060677555
 30
0.0
  0
VERTEX
  5
73C
  8
0
  6
CENTER
 62
     4
 10
-648.3354668402134
 20
184.369995481654
 30
0.0
  0
VERTEX
  5
73D
  8
0
  6
CENTER
 62
     4
 10
-649.6609441720447
 20
183.611365779375
 30
0.0
  0
VERTEX
  5
73E
  8
0
  6
CENTER
 62
     4
 10
-650.9786643294145
 20
182.838798023997
 30
0.0
  0
VERTEX
  5
73F
  8
0
  6
CENTER
 62
     4
 10
-652.2884865078537
 20
182.0523747679437
 30
0.0
  0
VERTEX
  5
740
  8
0
  6
CENTER
 62
     4
 10
-653.5902707468281
 20
181.2521800441631
 30
0.0
  0
VERTEX
  5
741
  8
0
  6
CENTER
 62
     4
 10
-654.8838779446949
 20
180.4382993571477
 30
0.0
  0
VERTEX
  5
742
  8
0
  6
CENTER
 62
     4
 10
-656.1691698735652
 20
179.6108196737984
 30
0.0
  0
VERTEX
  5
743
  8
0
  6
CENTER
 62
     4
 10
-657.4460091940755
 20
178.7698294141315
 30
0.0
  0
VERTEX
  5
744
  8
0
  6
CENTER
 62
     4
 10
-658.7142594700621
 20
177.9154184418304
 30
0.0
  0
VERTEX
  5
745
  8
0
  6
CENTER
 62
     4
 10
-659.9737851831404
 20
177.0476780546439
 30
0.0
  0
VERTEX
  5
746
  8
0
  6
CENTER
 62
     4
 10
-661.2244517471854
 20
176.1667009746297
 30
0.0
  0
VERTEX
  5
747
  8
0
  6
CENTER
 62
     4
 10
-662.4661255227131
 20
175.2725813382475
 30
0.0
  0
VERTEX
  5
748
  8
0
  6
CENTER
 62
     4
 10
-663.6986738311605
 20
174.3654146862994
 30
0.0
  0
VERTEX
  5
749
  8
0
  6
CENTER
 62
     4
 10
-664.9219649690624
 20
173.4452979537215
 30
0.0
  0
VERTEX
  5
74A
  8
0
  6
CENTER
 62
     4
 10
-666.1358682221254
 20
172.5123294592254
 30
0.0
  0
VERTEX
  5
74B
  8
0
  6
CENTER
 62
     4
 10
-667.3402538791946
 20
171.5666088947929
 30
0.0
  0
VERTEX
  5
74C
  8
0
  6
CENTER
 62
     4
 10
-668.534993246114
 20
170.608237315023
 30
0.0
  0
VERTEX
  5
74D
  8
0
  6
CENTER
 62
     4
 10
-669.7199586594784
 20
169.6373171263341
 30
0.0
  0
VERTEX
  5
74E
  8
0
  6
CENTER
 62
     4
 10
-670.8950235002743
 20
168.6539520760214
 30
0.0
  0
VERTEX
  5
74F
  8
0
  6
CENTER
 62
     4
 10
-672.06006220741
 20
167.6582472411706
 30
0.0
  0
VERTEX
  5
750
  8
0
  6
CENTER
 62
     4
 10
-673.2149502911327
 20
166.6503090174305
 30
0.0
  0
VERTEX
  5
751
  8
0
  6
CENTER
 62
     4
 10
-674.3595643463301
 20
165.6302451076436
 30
0.0
  0
VERTEX
  5
752
  8
0
  6
CENTER
 62
     4
 10
-675.4937820657173
 20
164.5981645103381
 30
0.0
  0
VERTEX
  5
753
  8
0
  6
CENTER
 62
     4
 10
-676.6174822529058
 20
163.5541775080804
 30
0.0
  0
VERTEX
  5
754
  8
0
  6
CENTER
 62
     4
 10
-677.7305448353541
 20
162.4983956556912
 30
0.0
  0
VERTEX
  5
755
  8
0
  6
CENTER
 62
     4
 10
-678.8328508771972
 20
161.4309317683252
 30
0.0
  0
VERTEX
  5
756
  8
0
  6
CENTER
 62
     4
 10
-679.9242825919565
 20
160.3518999094166
 30
0.0
  0
VERTEX
  5
757
  8
0
  6
CENTER
 62
     4
 10
-681.0047233551252
 20
159.2614153784903
 30
0.0
  0
VERTEX
  5
758
  8
0
  6
CENTER
 62
     4
 10
-682.0740577166304
 20
158.1595946988423
 30
0.0
  0
VERTEX
  5
759
  8
0
  6
CENTER
 62
     4
 10
-683.1321714131691
 20
157.046555605088
 30
0.0
  0
VERTEX
  5
75A
  8
0
  6
CENTER
 62
     4
 10
-684.1789513804184
 20
155.9224170305823
 30
0.0
  0
VERTEX
  5
75B
  8
0
  6
CENTER
 62
     4
 10
-685.2142857651165
 20
154.7872990947106
 30
0.0
  0
VERTEX
  5
75C
  8
0
  6
CENTER
 62
     4
 10
-686.2380639370145
 20
153.6413230900537
 30
0.0
  0
VERTEX
  5
75D
  8
0
  6
CENTER
 62
     4
 10
-687.2501765006984
 20
152.484611469427
 30
0.0
  0
VERTEX
  5
75E
  8
0
  6
CENTER
 62
     4
 10
-688.2505153072784
 20
151.317287832796
 30
0.0
  0
VERTEX
  5
75F
  8
0
  6
CENTER
 62
     4
 10
-689.2389734659441
 20
150.139476914069
 30
0.0
  0
VERTEX
  5
760
  8
0
  6
CENTER
 62
     4
 10
-690.215445355388
 20
148.9513045677687
 30
0.0
  0
VERTEX
  5
761
  8
0
  6
CENTER
 62
     4
 10
-691.17982663509
 20
147.7528977555839
 30
0.0
  0
VERTEX
  5
762
  8
0
  6
CENTER
 62
     4
 10
-692.1320142564676
 20
146.5443845328036
 30
0.0
  0
VERTEX
  5
763
  8
0
  6
CENTER
 62
     4
 10
-693.071906473887
 20
145.325894034633
 30
0.0
  0
VERTEX
  5
764
  8
0
  6
CENTER
 62
     4
 10
-693.9994028555346
 20
144.0975564623953
 30
0.0
  0
VERTEX
  5
765
  8
0
  6
CENTER
 62
     4
 10
-694.9144042941494
 20
142.8595030696187
 30
0.0
  0
VERTEX
  5
766
  8
0
  6
CENTER
 62
     4
 10
-695.8168130176123
 20
141.6118661480119
 30
0.0
  0
VERTEX
  5
767
  8
0
  6
CENTER
 62
     4
 10
-696.7065325993938
 20
140.3547790133277
 30
0.0
  0
VERTEX
  5
768
  8
0
  6
CENTER
 62
     4
 10
-697.5834679688579
 20
139.0883759911177
 30
0.0
  0
VERTEX
  5
769
  8
0
  6
CENTER
 62
     4
 10
-698.4475254214206
 20
137.8127924023788
 30
0.0
  0
VERTEX
  5
76A
  8
0
  6
CENTER
 62
     4
 10
-699.2986126285621
 20
136.528164549094
 30
0.0
  0
VERTEX
  5
76B
  8
0
  6
CENTER
 62
     4
 10
-700.1366386476939
 20
135.2346296996675
 30
0.0
  0
VERTEX
  5
76C
  8
0
  6
CENTER
 62
     4
 10
-700.9615139318748
 20
133.9323260742571
 30
0.0
  0
VERTEX
  5
76D
  8
0
  6
CENTER
 62
     4
 10
-701.7731503393809
 20
132.6213928300047
 30
0.0
  0
VERTEX
  5
76E
  8
0
  6
CENTER
 62
     4
 10
-702.5714611431229
 20
131.3019700461668
 30
0.0
  0
VERTEX
  5
76F
  8
0
  6
CENTER
 62
     4
 10
-703.3563610399135
 20
129.9741987091462
 30
0.0
  0
VERTEX
  5
770
  8
0
  6
CENTER
 62
     4
 10
-704.1277661595832
 20
128.6382206974272
 30
0.0
  0
VERTEX
  5
771
  8
0
  6
CENTER
 62
     4
 10
-704.8855940739408
 20
127.2941787664149
 30
0.0
  0
VERTEX
  5
772
  8
0
  6
CENTER
 62
     4
 10
-705.6297638055827
 20
125.9422165331815
 30
0.0
  0
VERTEX
  5
773
  8
0
  6
CENTER
 62
     4
 10
-706.3601958365446
 20
124.5824784611199
 30
0.0
  0
VERTEX
  5
774
  8
0
  6
CENTER
 62
     4
 10
-707.0768121167991
 20
123.2151098445073
 30
0.0
  0
VERTEX
  5
775
  8
0
  6
CENTER
 62
     4
 10
-707.7795360725954
 20
121.8402567929796
 30
0.0
  0
VERTEX
  5
776
  8
0
  6
CENTER
 62
     4
 10
-708.4682926146413
 20
120.4580662159192
 30
0.0
  0
VERTEX
  5
777
  8
0
  6
CENTER
 62
     4
 10
-709.1430081461273
 20
119.0686858067567
 30
0.0
  0
VERTEX
  5
778
  8
0
  6
CENTER
 62
     4
 10
-709.8036105705905
 20
117.6722640271895
 30
0.0
  0
VERTEX
  5
779
  8
0
  6
CENTER
 62
     4
 10
-710.4500292996188
 20
116.268950091318
 30
0.0
  0
VERTEX
  5
77A
  8
0
  6
CENTER
 62
     4
 10
-711.0821952603927
 20
114.8588939497011
 30
0.0
  0
VERTEX
  5
77B
  8
0
  6
CENTER
 62
     4
 10
-711.7000409030672
 20
113.4422462733333
 30
0.0
  0
VERTEX
  5
77C
  8
0
  6
CENTER
 62
     4
 10
-712.3035002079891
 20
112.0191584375454
 30
0.0
  0
VERTEX
  5
77D
  8
0
  6
CENTER
 62
     4
 10
-712.8925086927513
 20
110.5897825058284
 30
0.0
  0
VERTEX
  5
77E
  8
0
  6
CENTER
 62
     4
 10
-713.4670034190841
 20
109.1542712135855
 30
0.0
  0
VERTEX
  5
77F
  8
0
  6
CENTER
 62
     4
 10
-714.0269229995791
 20
107.7127779518117
 30
0.0
  0
VERTEX
  5
780
  8
0
  6
CENTER
 62
     4
 10
-714.5722076042499
 20
106.2654567507027
 30
0.0
  0
VERTEX
  5
781
  8
0
  6
CENTER
 62
     4
 10
-715.1027989669242
 20
104.8124622631964
 30
0.0
  0
VERTEX
  5
782
  8
0
  6
CENTER
 62
     4
 10
-715.6186403914706
 20
103.3539497484476
 30
0.0
  0
VERTEX
  5
783
  8
0
  6
CENTER
 62
     4
 10
-716.1196767578565
 20
101.8900750552376
 30
0.0
  0
VERTEX
  5
784
  8
0
  6
CENTER
 62
     4
 10
-716.605854528038
 20
100.4209946053212
 30
0.0
  0
VERTEX
  5
785
  8
0
  6
CENTER
 62
     4
 10
-717.0771217516806
 20
98.94686537671247
 30
0.0
  0
VERTEX
  5
786
  8
0
  6
CENTER
 62
     4
 10
-717.5334280717103
 20
97.46784488691051
 30
0.0
  0
VERTEX
  5
787
  8
0
  6
CENTER
 62
     4
 10
-717.9747247296947
 20
95.9840911760683
 30
0.0
  0
VERTEX
  5
788
  8
0
  6
CENTER
 62
     4
 10
-718.4009645710529
 20
94.49576279010532
 30
0.0
  0
VERTEX
  5
789
  8
0
  6
CENTER
 62
     4
 10
-718.8121020500943
 20
93.00301876376614
 30
0.0
  0
VERTEX
  5
78A
  8
0
  6
CENTER
 62
     4
 10
-719.208093234885
 20
91.5060186036268
 30
0.0
  0
VERTEX
  5
78B
  8
0
  6
CENTER
 62
     4
 10
-719.5888958119428
 20
90.00492227105092
 30
0.0
  0
VERTEX
  5
78C
  8
0
  6
CENTER
 62
     4
 10
-719.9544690907582
 20
88.49989016509697
 30
0.0
  0
VERTEX
  5
78D
  8
0
  6
CENTER
 62
     4
 10
-720.3047740081417
 20
86.99108310537895
 30
0.0
  0
VERTEX
  5
78E
  8
0
  6
CENTER
 62
     4
 10
-720.6397731323997
 20
85.47866231488206
 30
0.0
  0
VERTEX
  5
78F
  8
0
  6
CENTER
 62
     4
 10
-720.9594306673321
 20
83.96278940273528
 30
0.0
  0
VERTEX
  5
790
  8
0
  6
CENTER
 62
     4
 10
-721.2637124560586
 20
82.4436263469427
 30
0.0
  0
VERTEX
  5
791
  8
0
  6
CENTER
 62
     4
 10
-721.5525859846684
 20
80.92133547707539
 30
0.0
  0
VERTEX
  5
792
  8
0
  6
CENTER
 62
     4
 10
-721.8260203856944
 20
79.39607945692578
 30
0.0
  0
VERTEX
  5
793
  8
0
  6
CENTER
 62
     4
 10
-722.0839864414108
 20
77.86802126712628
 30
0.0
  0
VERTEX
  5
794
  8
0
  6
CENTER
 62
     4
 10
-722.3264565869565
 20
76.33732418773404
 30
0.0
  0
VERTEX
  5
795
  8
0
  6
CENTER
 62
     4
 10
-722.5534049132791
 20
74.80415178078367
 30
0.0
  0
VERTEX
  5
796
  8
0
  6
CENTER
 62
     4
 10
-722.7648071699045
 20
73.26866787281
 30
0.0
  0
VERTEX
  5
797
  8
0
  6
CENTER
 62
     4
 10
-722.9606407675278
 20
71.73103653734233
 30
0.0
  0
VERTEX
  5
798
  8
0
  6
CENTER
 62
     4
 10
-723.1408847804269
 20
70.19142207737255
 30
0.0
  0
VERTEX
  5
799
  8
0
  6
CENTER
 62
     4
 10
-723.3055199486985
 20
68.64998900779847
 30
0.0
  0
VERTEX
  5
79A
  8
0
  6
CENTER
 62
     4
 10
-723.4545286803165
 20
67.10690203784475
 30
0.0
  0
VERTEX
  5
79B
  8
0
  6
CENTER
 62
     4
 10
-723.5878950530115
 20
65.56232605346293
 30
0.0
  0
VERTEX
  5
79C
  8
0
  6
CENTER
 62
     4
 10
-723.7056048159722
 20
64.01642609971258
 30
0.0
  0
VERTEX
  5
79D
  8
0
  6
CENTER
 62
     4
 10
-723.807645391368
 20
62.46936736312551
 30
0.0
  0
VERTEX
  5
79E
  8
0
  6
CENTER
 62
     4
 10
-723.8940058756936
 20
60.92131515405482
 30
0.0
  0
VERTEX
  5
79F
  8
0
  6
CENTER
 62
     4
 10
-723.9646770409331
 20
59.37243488901072
 30
0.0
  0
VERTEX
  5
7A0
  8
0
  6
CENTER
 62
     4
 10
-724.0196513355471
 20
57.822892072985
 30
0.0
  0
VERTEX
  5
7A1
  8
0
  6
CENTER
 62
     4
 10
-724.058922885279
 20
56.27285228176607
 30
0.0
  0
VERTEX
  5
7A2
  8
0
  6
CENTER
 62
     4
 10
-724.0824874937827
 20
54.72248114424647
 30
0.0
  0
VERTEX
  5
7A3
  8
0
  6
CENTER
 62
     4
 10
-724.0903426430712
 20
53.17194432472456
 30
0.0
  0
SEQEND
  5
7AB
  8
0
  6
CENTER
 62
     4
  0
CIRCLE
  5
561
  8
LAYER0006
  6
CONTINUOUS
 62
     3
 10
-779.0903426430712
 20
521.0320438756082
 30
0.0
 40
16.0
  0
CIRCLE
  5
562
  8
LAYER0006
  6
CONTINUOUS
 62
     3
 10
-29.59034264307115
 20
521.0320438756082
 30
0.0
 40
16.0
  0
DIMENSION
  5
563
  8
0
  6
CONTINUOUS
  2
*D1
 10
-651.5903426430712
 20
-596.5489396530861
 30
0.0
 11
-724.0903426430712
 21
-596.5489396530861
 31
0.0
 70
   160
  3
DC_ROTATED
 13
-796.5903426430712
 23
-472.5280556754219
 33
0.0
 14
-651.5903426430712
 24
-472.5280556754219
 34
0.0
1001
ACAD
1000
DSTYLE
1002
{
1070
     7
1000
OPEN30
1070
     6
1000
OPEN30
1070
   274
1070
     4
1070
    41
1040
15.00113010406494
1070
    79
1070
     2
1070
   176
1070
     4
1070
   177
1070
     9
1070
   178
1070
     4
1070
   271
1070
     1
1070
    44
1040
5.0
1070
    42
1040
5.0
1070
   147
1040
2.5
1070
   173
1070
     1
1070
    77
1070
     3
1070
    73
1070
     0
1070
   172
1070
     1
1070
    74
1070
     0
1070
   283
1070
     0
1070
   340
1005
102
1070
   140
1040
15.0
1070
   284
1070
     8
1070
   288
1070
     1
1070
    78
1070
     8
1070
    90
1070
     1
1002
}
  0
DIMENSION
  5
565
  8
0
  6
CONTINUOUS
  2
*D2
 10
-60.29034264306824
 20
288.1328941182046
 30
0.0
 11
-436.8403426430675
 21
288.1328941182046
 31
0.0
 70
   160
  1
<>{}{ ±2}
  3
DC_ROTATED
 13
-748.3903426430704
 23
53.17194432457836
 33
0.0
 14
-60.29034264306824
 24
53.17194432457836
 34
0.0
1001
ACAD
1000
DSTYLE
1002
{
1070
     7
1000
OPEN30
1070
     6
1000
OPEN30
1070
   274
1070
     4
1070
    41
1040
15.00113010406494
1070
    79
1070
     2
1070
   176
1070
     4
1070
   177
1070
     9
1070
   178
1070
    30
1070
   271
1070
     1
1070
    44
1040
5.0
1070
    42
1040
5.0
1070
   147
1040
5.0
1070
   173
1070
     1
1070
    77
1070
     3
1070
    73
1070
     0
1070
    48
1040
2.0
1070
   172
1070
     1
1070
    74
1070
     0
1070
   283
1070
     0
1070
    47
1040
2.0
1070
   340
1005
102
1070
   140
1040
25.0
1070
   284
1070
     8
1070
   288
1070
     1
1070
    78
1070
     8
1070
    90
1070
     1
1002
}
  0
DIMENSION
  5
566
  8
0
  6
CONTINUOUS
  2
*D3
 10
89.40518590652505
 20
227.4719443245783
 30
0.0
 11
89.40518590652505
 21
-155.0280556754219
 31
0.0
 70
   160
  1
<>{}{ ±1}
  3
DC_ROTATED
 13
12.30352099673405
 23
-472.5280556754219
 33
0.0
 14
-234.5903426430712
 24
227.4719443245783
 34
0.0
 50
90.0
1001
ACAD
1000
DSTYLE
1002
{
1070
     7
1000
OPEN30
1070
     6
1000
OPEN30
1070
   274
1070
     4
1070
    41
1040
15.00113010406494
1070
    79
1070
     2
1070
   176
1070
     4
1070
   177
1070
     9
1070
   178
1070
    30
1070
   271
1070
     1
1070
    44
1040
5.0
1070
    42
1040
5.0
1070
   147
1040
5.0
1070
   173
1070
     1
1070
    77
1070
     3
1070
    73
1070
     0
1070
    48
1040
1.0
1070
   172
1070
     1
1070
    74
1070
     0
1070
   283
1070
     0
1070
    47
1040
1.0
1070
   340
1005
102
1070
   140
1040
25.0
1070
   284
1070
     8
1070
   288
1070
     1
1070
    78
1070
     8
1070
    90
1070
     1
1002
}
  0
INSERT
  5
567
  8
0
  6
CONTINUOUS
  2
DC_GROUP_1
 10
0.0
 20
0.0
 30
0.0
  0
INSERT
  5
568
  8
0
  6
CONTINUOUS
  2
DC_GROUP_3
 10
0.0
 20
0.0
 30
0.0
  0
DIMENSION
  5
569
  8
0
  6
CONTINUOUS
  2
*D8
 10
305.4649658448682
 20
-613.6591695464717
 30
0.0
 11
260.4649658448682
 21
-613.6591695464717
 31
0.0
 70
   160
  3
DC_ROTATED
 13
215.4649658448682
 23
-472.5280556754219
 33
0.0
 14
305.4649658448682
 24
-472.5280556754219
 34
0.0
1001
ACAD
1000
DSTYLE
1002
{
1070
     7
1000
OPEN30
1070
     6
1000
OPEN30
1070
   274
1070
     4
1070
    41
1040
15.00113010406494
1070
    79
1070
     2
1070
   176
1070
     4
1070
   177
1070
     9
1070
   178
1070
     4
1070
   271
1070
     1
1070
    44
1040
5.0
1070
    42
1040
5.0
1070
   147
1040
5.0
1070
   173
1070
     1
1070
    77
1070
     3
1070
    73
1070
     0
1070
   172
1070
     1
1070
    74
1070
     0
1070
   283
1070
     0
1070
   340
1005
102
1070
   140
1040
15.0
1070
   284
1070
     8
1070
   288
1070
     1
1070
    78
1070
     8
1070
    90
1070
     1
1002
}
  0
INSERT
  5
56A
  8
0
  6
CONTINUOUS
  2
DC_GROUP_5
 10
0.0
 20
0.0
 30
0.0
  0
INSERT
  5
56B
  8
0
  6
CONTINUOUS
  2
DC_GROUP_7
 10
0.0
 20
0.0
 30
0.0
  0
INSERT
  5
56C
  8
0
  6
CONTINUOUS
  2
DC_GROUP_9
 10
0.0
 20
0.0
 30
0.0
  0
DIMENSION
  5
56D
  8
0
  6
CONTINUOUS
  2
*D17
 10
-12.09034264307115
 20
422.4667391370376
 30
0.0
 11
-404.3403426430675
 21
422.4667391370376
 31
0.0
 70
   160
  3
DC_ROTATED
 13
-796.5903426430712
 23
485.3495855100896
 33
0.0
 14
-12.09034264307115
 24
485.34958551009
 34
0.0
1001
ACAD
1000
DSTYLE
1002
{
1070
     7
1000
OPEN30
1070
     6
1000
OPEN30
1070
   274
1070
     4
1070
    41
1040
15.00113010406494
1070
    79
1070
     2
1070
   176
1070
     4
1070
   177
1070
     9
1070
   178
1070
     4
1070
   271
1070
     1
1070
    44
1040
5.0
1070
    42
1040
5.0
1070
   147
1040
5.0
1070
   173
1070
     1
1070
    77
1070
     3
1070
    73
1070
     0
1070
   172
1070
     1
1070
    74
1070
     0
1070
   283
1070
     0
1070
   340
1005
102
1070
   140
1040
15.0
1070
   284
1070
     8
1070
   288
1070
     1
1070
    78
1070
     8
1070
    90
1070
     1
1002
}
  0
INSERT
  5
56E
  8
0
  6
CONTINUOUS
  2
DC_GROUP_11
 10
0.0
 20
0.0
 30
0.0
  0
INSERT
  5
56F
  8
0
  6
CONTINUOUS
  2
DC_GROUP_12
 10
0.0
 20
0.0
 30
0.0
  0
INSERT
  5
570
  8
0
  6
CONTINUOUS
  2
DC_GROUP_13
 10
0.0
 20
0.0
 30
0.0
  0
INSERT
  5
571
  8
0
  6
CONTINUOUS
  2
DC_GROUP_14
 10
0.0
 20
0.0
 30
0.0
  0
INSERT
  5
572
  8
0
  6
CONTINUOUS
  2
DC_GROUP_15
 10
0.0
 20
0.0
 30
0.0
  0
DIMENSION
  5
573
  8
LAYER0001
  6
CONTINUOUS
  2
*D15
 10
-234.5903426430712
 20
53.17194432457836
 30
0.0
 11
-243.9197748755985
 21
92.54851954820333
 31
0.0
 70
   164
  1
R125.7
  3
DC_RADIAL06
 15
-154.6925146414912
 25
150.2122817138847
 35
0.0
 40
0.0
1001
ACAD
1000
DSTYLE
1002
{
1070
     7
1000
OPEN30
1070
     6
1000
OPEN30
1070
   274
1070
     4
1070
    41
1040
15.00113010406494
1070
    79
1070
     2
1070
   176
1070
     4
1070
   177
1070
     9
1070
   178
1070
     4
1070
   271
1070
     1
1070
    44
1040
5.0
1070
    42
1040
5.0
1070
   147
1040
5.0
1070
   173
1070
     1
1070
    77
1070
     2
1070
   283
1070
     0
1070
   340
1005
102
1070
   140
1040
17.5
1070
   284
1070
     8
1070
   288
1070
     1
1070
    78
1070
     8
1070
    90
1070
     1
1002
}
  0
INSERT
  5
575
  8
LAYER0001
  6
CONTINUOUS
  2
DA_IMAGEDIMGROUP_1
 10
0.0
 20
0.0
 30
0.0
  0
DIMENSION
  5
576
  8
LAYER0001
  6
CONTINUOUS
  2
*D19
 10
-848.2384962803051
 20
566.032043875608
 30
0.0
 11
-848.2384962803051
 21
521.0320438756082
 31
0.0
 70
   160
  3
DC_ROTATED
 13
-785.3353406414687
 23
476.0320438756082
 33
0.0
 14
-785.3353406414687
 24
566.032043875608
 34
0.0
 50
90.0
1001
ACAD
1000
DSTYLE
1002
{
1070
     7
1000
OPEN30
1070
     6
1000
OPEN30
1070
   274
1070
     4
1070
    41
1040
15.00113010406494
1070
    79
1070
     2
1070
   176
1070
     4
1070
   177
1070
     4
1070
   178
1070
     4
1070
   271
1070
     1
1070
    44
1040
5.0
1070
    42
1040
5.0
1070
   147
1040
5.0
1070
   173
1070
     1
1070
    77
1070
     3
1070
    73
1070
     0
1070
   172
1070
     1
1070
    74
1070
     0
1070
   283
1070
     0
1070
   340
1005
102
1070
   140
1040
17.5
1070
   284
1070
     8
1070
   288
1070
     1
1070
    78
1070
     8
1070
    90
1070
     1
1002
}
  0
DIMENSION
  5
577
  8
LAYER0001
  6
CONTINUOUS
  2
*D20
 10
-651.5903426430712
 20
608.0038846978698
 30
0.0
 11
-724.0903426430712
 21
608.0038846978698
 31
0.0
 70
   160
  3
DC_ROTATED
 13
-796.5903426430712
 23
556.7145022411264
 33
0.0
 14
-651.5903426430712
 24
556.7145022411264
 34
0.0
1001
ACAD
1000
DSTYLE
1002
{
1070
     7
1000
OPEN30
1070
     6
1000
OPEN30
1070
   274
1070
     4
1070
    41
1040
15.00113010406494
1070
    79
1070
     2
1070
   176
1070
     4
1070
   177
1070
     4
1070
   178
1070
     4
1070
   271
1070
     1
1070
    44
1040
5.0
1070
    42
1040
5.0
1070
   147
1040
5.0
1070
   173
1070
     1
1070
    77
1070
     3
1070
    73
1070
     0
1070
   172
1070
     1
1070
    74
1070
     0
1070
   283
1070
     0
1070
   340
1005
102
1070
   140
1040
17.5
1070
   284
1070
     8
1070
   288
1070
     1
1070
    78
1070
     8
1070
    90
1070
     1
1002
}
  0
VIEWPORT
  5
B0
 67
     1
  8
0
 10
35.9045284253848
 20
-6.458333333344399
 30
0.0
 40
5885.427170552342
 41
4206.250000000002
 68
     1
 69
     1
1001
ACAD
1000
MVIEW
1002
{
1070
    16
1010
0.0
1020
0.0
1030
0.0
1020
0.0
1030
0.0
1010
0.0
1020
0.0
1030
1.0
1020
0.0
1030
1.0
1040
0.0
1040
4206.250000000002
1040
35.9045284253848
1040
-6.458333333344399
1040
50.0
1040
0.0
1040
0.0
1070
     0
1070
   100
1070
     0
1070
     3
1070
     0
1070
     0
1070
     0
1070
     0
1040
0.0
1040
0.0
1040
0.0
1040
0.5
1040
0.5
1040
0.0
1040
0.0
1070
     0
1002
{
1002
}
1002
}
  0
ENDSEC
  0
EOF
