  0
SECTION
  2
HEADER
  9
$ACADVER
  1
AC1009
  9
$DWGCODEPAGE
  3
ansi_932
  9
$INSBASE
 10
0.0
 20
0.0
 30
0.0
  9
$EXTMIN
 10
-4650.414490961257
 20
-3375.333333333352
 30
0.0
  9
$EXTMAX
 10
4764.828981922488
 20
3354.66666666665
 30
0.0
  9
$LIMMIN
 10
-1680.0
 20
-1188.0
  9
$LIMMAX
 10
1680.0
 20
1188.0
  9
$ORTHOMODE
 70
     0
  9
$REGENMODE
 70
     1
  9
$FILLMODE
 70
     1
  9
$QTEXTMODE
 70
     0
  9
$MIRRTEXT
 70
     1
  9
$DRAGMODE
 70
     2
  9
$LTSCALE
 40
2.0
  9
$OSMODE
 70
    37
  9
$ATTMODE
 70
     1
  9
$TEXTSIZE
 40
0.2
  9
$TRACEWID
 40
0.05
  9
$TEXTSTYLE
  7
STANDARD
  9
$CLAYER
  8
0
  9
$CELTYPE
  6
BYLAYER
  9
$CECOLOR
 62
   256
  9
$DIMSCALE
 40
1.0
  9
$DIMASZ
 40
24.00180816650391
  9
$DIMEXO
 40
1.0
  9
$DIMDLI
 40
10.0
  9
$DIMRND
 40
0.0
  9
$DIMDLE
 40
0.0
  9
$DIMEXE
 40
1.0
  9
$DIMTP
 40
0.0
  9
$DIMTM
 40
0.0
  9
$DIMTXT
 40
32.0
  9
$DIMCEN
 40
0.0
  9
$DIMTSZ
 40
0.0
  9
$DIMTOL
 70
     0
  9
$DIMLIM
 70
     0
  9
$DIMTIH
 70
     0
  9
$DIMTOH
 70
     0
  9
$DIMSE1
 70
     0
  9
$DIMSE2
 70
     0
  9
$DIMTAD
 70
     1
  9
$DIMZIN
 70
     8
  9
$DIMBLK
  1

  9
$DIMASO
 70
     1
  9
$DIMSHO
 70
     1
  9
$DIMPOST
  1

  9
$DIMAPOST
  1

  9
$DIMALT
 70
     0
  9
$DIMALTD
 70
     2
  9
$DIMALTF
 40
25.4
  9
$DIMLFAC
 40
1.0
  9
$DIMTOFL
 70
     0
  9
$DIMTVP
 40
0.0
  9
$DIMTIX
 70
     0
  9
$DIMSOXD
 70
     0
  9
$DIMSAH
 70
     0
  9
$DIMBLK1
  1

  9
$DIMBLK2
  1

  9
$DIMSTYLE
  2
STANDARD
  9
$DIMCLRD
 70
     0
  9
$DIMCLRE
 70
     0
  9
$DIMCLRT
 70
     0
  9
$DIMTFAC
 40
0.65
  9
$DIMGAP
 40
0.09
  9
$LUNITS
 70
     2
  9
$LUPREC
 70
     4
  9
$SKETCHINC
 40
0.1
  9
$FILLETRAD
 40
0.5
  9
$AUNITS
 70
     0
  9
$AUPREC
 70
     0
  9
$MENU
  1
.
  9
$ELEVATION
 40
0.0
  9
$PELEVATION
 40
0.0
  9
$THICKNESS
 40
0.0
  9
$LIMCHECK
 70
     0
  9
$CHAMFERA
 40
0.0
  9
$CHAMFERB
 40
0.0
  9
$SKPOLY
 70
     0
  9
$TDCREATE
 40
2459031.556275347
  9
$TDUPDATE
 40
2459031.556275533
  9
$TDINDWG
 40
0.0000000116
  9
$TDUSRTIMER
 40
0.0000000116
  9
$USRTIMER
 70
     1
  9
$ANGBASE
 50
0.0
  9
$ANGDIR
 70
     0
  9
$PDMODE
 70
     0
  9
$PDSIZE
 40
1.0
  9
$PLINEWID
 40
0.0
  9
$COORDS
 70
     1
  9
$SPLFRAME
 70
     0
  9
$SPLINETYPE
 70
     6
  9
$SPLINESEGS
 70
     8
  9
$ATTDIA
 70
     0
  9
$ATTREQ
 70
     1
  9
$HANDLING
 70
     1
  9
$HANDSEED
  5
46B
  9
$SURFTAB1
 70
     6
  9
$SURFTAB2
 70
     6
  9
$SURFTYPE
 70
     6
  9
$SURFU
 70
     6
  9
$SURFV
 70
     6
  9
$UCSNAME
  2

  9
$UCSORG
 10
0.0
 20
0.0
 30
0.0
  9
$UCSXDIR
 10
1.0
 20
0.0
 30
0.0
  9
$UCSYDIR
 10
0.0
 20
1.0
 30
0.0
  9
$PUCSNAME
  2

  9
$PUCSORG
 10
0.0
 20
0.0
 30
0.0
  9
$PUCSXDIR
 10
1.0
 20
0.0
 30
0.0
  9
$PUCSYDIR
 10
0.0
 20
1.0
 30
0.0
  9
$USERI1
 70
     0
  9
$USERI2
 70
     0
  9
$USERI3
 70
     0
  9
$USERI4
 70
     0
  9
$USERI5
 70
     0
  9
$USERR1
 40
0.0
  9
$USERR2
 40
0.0
  9
$USERR3
 40
0.0
  9
$USERR4
 40
0.0
  9
$USERR5
 40
0.0
  9
$WORLDVIEW
 70
     1
  9
$SHADEDGE
 70
     3
  9
$SHADEDIF
 70
    70
  9
$TILEMODE
 70
     1
  9
$MAXACTVP
 70
    64
  9
$PLIMCHECK
 70
     0
  9
$PEXTMIN
 10
1.000000000000000E+20
 20
1.000000000000000E+20
 30
1.000000000000000E+20
  9
$PEXTMAX
 10
-1.000000000000000E+20
 20
-1.000000000000000E+20
 30
-1.000000000000000E+20
  9
$PLIMMIN
 10
0.0
 20
0.0
  9
$PLIMMAX
 10
12.0
 20
9.0
  9
$UNITMODE
 70
     0
  9
$VISRETAIN
 70
     0
  9
$PLINEGEN
 70
     1
  9
$PSLTSCALE
 70
     0
  0
ENDSEC
  0
SECTION
  2
TABLES
  0
TABLE
  2
VPORT
 70
     1
  0
VPORT
  2
*ACTIVE
 70
     0
 10
0.0
 20
0.0
 11
1.0
 21
1.0
 12
68.007245480616
 22
-10.33333333335122
 13
0.0
 23
0.0
 14
0.5
 24
0.5
 15
0.5
 25
0.5
 16
0.0
 26
0.0
 36
1.0
 17
0.0
 27
0.0
 37
0.0
 40
2288.200000000001
 41
1.408624587352711
 42
50.0
 43
0.0
 44
0.0
 50
0.0
 51
0.0
 71
     0
 72
  1000
 73
     1
 74
     1
 75
     0
 76
     0
 77
     0
 78
     0
  0
ENDTAB
  0
TABLE
  2
LTYPE
 70
    67
  0
LTYPE
  2
CONTINUOUS
 70
     0
  3
Solid line
 72
    65
 73
     0
 40
0.0
  0
LTYPE
  2
HIDDENX2
 70
     0
  3
Hidden (2x) ____ ____ ____ ____ ____ ____ ____ 
 72
    65
 73
     2
 40
19.05
 49
12.7
 49
-6.35
  0
LTYPE
  2
HIDDEN
 70
     0
  3
Hidden __ __ __ __ __ __ __ __ __ __ __ __ __ __
 72
    65
 73
     2
 40
9.524999999999999
 49
6.35
 49
-3.175
  0
LTYPE
  2
HIDDEN2
 70
     0
  3
Hidden (.5x) _ _ _ _ _ _ _ _ _ _ _ _ _ _ _ _ _ 
 72
    65
 73
     2
 40
4.762499999999999
 49
3.175
 49
-1.5875
  0
LTYPE
  2
DASHED
 70
     0
  3
Dashed __ __ __ __ __ __ __ __ __ __ __ __ __ _
 72
    65
 73
     2
 40
19.05
 49
12.7
 49
-6.35
  0
LTYPE
  2
DASHED2
 70
     0
  3
Dashed (.5x) _ _ _ _ _ _ _ _ _ _ _ _ _ _ _ _ _ 
 72
    65
 73
     2
 40
9.524999999999999
 49
6.35
 49
-3.175
  0
LTYPE
  2
DASHEDX2
 70
     0
  3
Dashed (2x) ____  ____  ____  ____  ____  ___
 72
    65
 73
     2
 40
38.09999999999999
 49
25.4
 49
-12.7
  0
LTYPE
  2
DOTX2
 70
     0
  3
Dot (2x) .  .  .  .  .  .  .  .  .  .  .  .  .  .
 72
    65
 73
     2
 40
12.7
 49
0.0
 49
-12.7
  0
LTYPE
  2
DOT
 70
     0
  3
Dot . . . . . . . . . . . . . . . . . . . . . . . .
 72
    65
 73
     2
 40
6.35
 49
0.0
 49
-6.35
  0
LTYPE
  2
DOT2
 70
     0
  3
Dot (.5x) ........................................
 72
    65
 73
     2
 40
3.175
 49
0.0
 49
-3.175
  0
LTYPE
  2
CENTERX2
 70
     0
  3
Center (2x) ________  __  ________  __  _____
 72
    65
 73
     4
 40
101.6
 49
63.5
 49
-12.7
 49
12.7
 49
-12.7
  0
LTYPE
  2
CENTER
 70
     0
  3
Center ____ _ ____ _ ____ _ ____ _ ____ _ ____
 72
    65
 73
     4
 40
50.8
 49
31.75
 49
-6.35
 49
6.35
 49
-6.35
  0
LTYPE
  2
CENTER2
 70
     0
  3
Center (.5x) ___ _ ___ _ ___ _ ___ _ ___ _ ___
 72
    65
 73
     4
 40
28.575
 49
19.05
 49
-3.175
 49
3.175
 49
-3.175
  0
LTYPE
  2
DASHDOTX2
 70
     0
  3
Dash dot (2x) ____  .  ____  .  ____  .  ___
 72
    65
 73
     4
 40
50.8
 49
25.4
 49
-12.7
 49
0.0
 49
-12.7
  0
LTYPE
  2
DASHDOT
 70
     0
  3
Dash dot __ . __ . __ . __ . __ . __ . __ . __
 72
    65
 73
     4
 40
25.4
 49
12.7
 49
-6.35
 49
0.0
 49
-6.35
  0
LTYPE
  2
DASHDOT2
 70
     0
  3
Dash dot (.5x) _._._._._._._._._._._._._._._.
 72
    65
 73
     4
 40
12.7
 49
6.35
 49
-3.175
 49
0.0
 49
-3.175
  0
LTYPE
  2
DIVIDEX2
 70
     0
  3
Divide (2x) ________  .  .  ________  .  .  _
 72
    65
 73
     6
 40
63.5
 49
25.4
 49
-12.7
 49
0.0
 49
-12.7
 49
0.0
 49
-12.7
  0
LTYPE
  2
DIVIDE
 70
     0
  3
Divide ____ . . ____ . . ____ . . ____ . . ____
 72
    65
 73
     6
 40
31.75
 49
12.7
 49
-6.35
 49
0.0
 49
-6.35
 49
0.0
 49
-6.35
  0
LTYPE
  2
DIVIDE2
 70
     0
  3
Divide (.5x) __..__..__..__..__..__..__..__.._
 72
    65
 73
     6
 40
15.875
 49
6.35
 49
-3.175
 49
0.0
 49
-3.175
 49
0.0
 49
-3.175
  0
LTYPE
  2
BORDERX2
 70
     0
  3
Border (2x) ____  ____  .  ____  ____  .  ___
 72
    65
 73
     6
 40
88.89999999999999
 49
25.4
 49
-12.7
 49
25.4
 49
-12.7
 49
0.0
 49
-12.7
  0
LTYPE
  2
BORDER
 70
     0
  3
Border __ __ . __ __ . __ __ . __ __ . __ __ .
 72
    65
 73
     6
 40
44.45
 49
12.7
 49
-6.35
 49
12.7
 49
-6.35
 49
0.0
 49
-6.35
  0
LTYPE
  2
BORDER2
 70
     0
  3
Border (.5x) __.__.__.__.__.__.__.__.__.__.__.
 72
    65
 73
     6
 40
22.225
 49
6.35
 49
-3.175
 49
6.35
 49
-3.175
 49
0.0
 49
-3.175
  0
LTYPE
  2
PHANTOMX2
 70
     0
  3
Phantom (2x) ____________    ____    ____   _
 72
    65
 73
     6
 40
127.0
 49
63.5
 49
-12.7
 49
12.7
 49
-12.7
 49
12.7
 49
-12.7
  0
LTYPE
  2
PHANTOM
 70
     0
  3
Phantom ______  __  __  ______  __  __  ______ 
 72
    65
 73
     6
 40
63.5
 49
31.75
 49
-6.35
 49
6.35
 49
-6.35
 49
6.35
 49
-6.35
  0
LTYPE
  2
PHANTOM2
 70
     0
  3
Phantom (.5x) ___ _ _ ___ _ _ ___ _ _ ___ _ _
 72
    65
 73
     6
 40
31.75
 49
15.875
 49
-3.175
 49
3.175
 49
-3.175
 49
3.175
 49
-3.175
  0
LTYPE
  2
ACAD_ISO06W100
 70
     0
  3
ISO long-dash triple-dot ____ ... ____ ... ____
 72
    65
 73
     8
 40
36.0
 49
24.0
 49
-3.0
 49
0.0
 49
-3.0
 49
0.0
 49
-3.0
 49
0.0
 49
-3.0
  0
LTYPE
  2
ACAD_ISO13W100
 70
     0
  3
ISO double-dash double-dot __ __ . . __ __ . . _
 72
    65
 73
     8
 40
36.0
 49
12.0
 49
-3.0
 49
12.0
 49
-3.0
 49
0.0
 49
-3.0
 49
0.0
 49
-3.0
  0
LTYPE
  2
ACAD_ISO14W100
 70
     0
  3
ISO dash triple-dot __ . . . __ . . . __ . . . _
 72
    65
 73
     8
 40
24.0
 49
12.0
 49
-3.0
 49
0.0
 49
-3.0
 49
0.0
 49
-3.0
 49
0.0
 49
-3.0
  0
LTYPE
  2
ACAD_ISO02W100
 70
     0
  3
ISO dash __ __ __ __ __ __ __ __ __ __ __ __ __
 72
    65
 73
     2
 40
15.0
 49
12.0
 49
-3.0
  0
LTYPE
  2
ACAD_ISO03W100
 70
     0
  3
ISO dash space __    __    __    __    __    __
 72
    65
 73
     2
 40
30.0
 49
12.0
 49
-18.0
  0
LTYPE
  2
ACAD_ISO04W100
 70
     0
  3
ISO long-dash dot ____ . ____ . ____ . ____ . _
 72
    65
 73
     4
 40
30.0
 49
24.0
 49
-3.0
 49
0.0
 49
-3.0
  0
LTYPE
  2
ACAD_ISO05W100
 70
     0
  3
ISO long-dash double-dot ____ .. ____ .. ____ . 
 72
    65
 73
     6
 40
33.0
 49
24.0
 49
-3.0
 49
0.0
 49
-3.0
 49
0.0
 49
-3.0
  0
LTYPE
  2
ACAD_ISO07W100
 70
     0
  3
ISO dot . . . . . . . . . . . . . . . . . . . . 
 72
    65
 73
     2
 40
3.0
 49
0.0
 49
-3.0
  0
LTYPE
  2
ACAD_ISO08W100
 70
     0
  3
ISO long-dash short-dash ____ __ ____ __ ____ _
 72
    65
 73
     4
 40
36.0
 49
24.0
 49
-3.0
 49
6.0
 49
-3.0
  0
LTYPE
  2
ACAD_ISO09W100
 70
     0
  3
ISO long-dash double-short-dash ____ __ __ ____
 72
    65
 73
     6
 40
45.0
 49
24.0
 49
-3.0
 49
6.0
 49
-3.0
 49
6.0
 49
-3.0
  0
LTYPE
  2
ACAD_ISO10W100
 70
     0
  3
ISO dash dot __ . __ . __ . __ . __ . __ . __ . 
 72
    65
 73
     4
 40
18.0
 49
12.0
 49
-3.0
 49
0.0
 49
-3.0
  0
LTYPE
  2
ACAD_ISO11W100
 70
     0
  3
ISO double-dash dot __ __ . __ __ . __ __ . __ _
 72
    65
 73
     6
 40
33.0
 49
12.0
 49
-3.0
 49
12.0
 49
-3.0
 49
0.0
 49
-3.0
  0
LTYPE
  2
ACAD_ISO12W100
 70
     0
  3
ISO dash double-dot __ . . __ . . __ . . __ . . 
 72
    65
 73
     6
 40
21.0
 49
12.0
 49
-3.0
 49
0.0
 49
-3.0
 49
0.0
 49
-3.0
  0
LTYPE
  2
ACAD_ISO15W100
 70
     0
  3
ISO double-dash triple-dot __ __ . . . __ __ . .
 72
    65
 73
    10
 40
39.0
 49
12.0
 49
-3.0
 49
12.0
 49
-3.0
 49
0.0
 49
-3.0
 49
0.0
 49
-3.0
 49
0.0
 49
-3.0
  0
LTYPE
  2
JIS_02_0_7
 70
     0
  3
HIDDEN0.75 _ _ _ _ _ _ _ _ _ _ _ _ _ _ _ _ _ 
 72
    65
 73
     2
 40
1.35
 49
0.75
 49
-0.6
  0
LTYPE
  2
JIS_02_1_0
 70
     0
  3
HIDDEN01 _ _ _ _ _ _ _ _ _ _ _ _ _ _ _ _ _ 
 72
    65
 73
     2
 40
2.0
 49
1.0
 49
-1.0
  0
LTYPE
  2
JIS_02_1_2
 70
     0
  3
HIDDEN01.25  _ _ _ _ _ _ _ _ _ _ _ _ _ _ _ _ _ 
 72
    65
 73
     2
 40
2.5
 49
1.25
 49
-1.25
  0
LTYPE
  2
JIS_02_2_0
 70
     0
  3
HIDDEN02 __ __ __ __ __ __ __ __ __ __ __ 
 72
    65
 73
     2
 40
3.0
 49
2.0
 49
-1.0
  0
LTYPE
  2
JIS_02_4_0
 70
     0
  3
HIDDEN04 ____ ____ ____ ____ ____ ____ ____ 
 72
    65
 73
     2
 40
5.5
 49
4.0
 49
-1.5
  0
LTYPE
  2
JIS_08_11
 70
     0
  3
1SASEN11 ___ _ ___ _ ___ _ ___ _ ___ _ ___
 72
    65
 73
     4
 40
12.8
 49
11.0
 49
-0.6
 49
0.6
 49
-0.6
  0
LTYPE
  2
JIS_08_15
 70
     0
  3
1SASEN15 ____ _ ____ _ ____ _ ____ _ ____ 
 72
    65
 73
     4
 40
17.25
 49
15.0
 49
-0.75
 49
0.75
 49
-0.75
  0
LTYPE
  2
JIS_08_25
 70
     0
  3
1SASEN25 ________  __  ________  __  _____
 72
    65
 73
     4
 40
28.0
 49
25.0
 49
-1.125
 49
0.75
 49
-1.125
  0
LTYPE
  2
JIS_08_37
 70
     0
  3
1SASEN37 ________  __  ________  __  _____
 72
    65
 73
     4
 40
40.5
 49
37.5
 49
-1.125
 49
0.75
 49
-1.125
  0
LTYPE
  2
JIS_08_50
 70
     0
  3
1SASEN50 _______________  __  ____________
 72
    65
 73
     4
 40
53.0
 49
50.0
 49
-1.125
 49
0.75
 49
-1.125
  0
LTYPE
  2
JIS_09_08
 70
     0
  3
2SASEN8 __ _ _ __ _ _ __ _ _ __ _ _ __ _ _ 
 72
    65
 73
     6
 40
10.75
 49
8.0
 49
-0.55
 49
0.55
 49
-0.55
 49
0.55
 49
-0.55
  0
LTYPE
  2
JIS_09_15
 70
     0
  3
2SASEN15 ___ _ _ ___ _ _ ___ _ _ ___ _ _ ___ 
 72
    65
 73
     6
 40
18.9
 49
15.0
 49
-0.9
 49
0.6
 49
-0.9
 49
0.6
 49
-0.9
  0
LTYPE
  2
JIS_09_29
 70
     0
  3
2SASEN29 ______　__  __  ______　__  __  ___
 72
    65
 73
     6
 40
34.0
 49
29.0
 49
-1.2
 49
0.7
 49
-1.2
 49
0.7
 49
-1.2
  0
LTYPE
  2
JIS_09_50
 70
     0
  3
2SASEN50 ____________　__  __  _____________
 72
    65
 73
     6
 40
55.0
 49
50.0
 49
-1.2
 49
0.7
 49
-1.2
 49
0.7
 49
-1.2
  0
LTYPE
  2
SXF_破線
 70
     0
  3
02 dashed -- -- -- -- -- --
 72
    65
 73
     2
 40
7.5
 49
6.0
 49
-1.5
  0
LTYPE
  2
SXF_跳び破線
 70
     0
  3
03 dashed_spaced --  --  --  --
 72
    65
 73
     2
 40
12.0
 49
6.0
 49
-6.0
  0
LTYPE
  2
SXF_一点長鎖線
 70
     0
  3
04 long_dashed_dotted ---- . ---- . ----
 72
    65
 73
     4
 40
15.25
 49
12.0
 49
-1.5
 49
0.25
 49
-1.5
  0
LTYPE
  2
SXF_二点長鎖線
 70
     0
  3
05 long_dashed_double-dotted ---- . . ---- 
 72
    65
 73
     6
 40
17.0
 49
12.0
 49
-1.5
 49
0.25
 49
-1.5
 49
0.25
 49
-1.5
  0
LTYPE
  2
SXF_三点長鎖線
 70
     0
  3
06 long_dashed_triplicate-dotted ---- ... ---- 
 72
    65
 73
     8
 40
18.75
 49
12.0
 49
-1.5
 49
0.25
 49
-1.5
 49
0.25
 49
-1.5
 49
0.25
 49
-1.5
  0
LTYPE
  2
SXF_点線
 70
     0
  3
07 dotted . . . . . . . . . . . . 
 72
    65
 73
     2
 40
1.75
 49
0.25
 49
-1.5
  0
LTYPE
  2
SXF_一点鎖線
 70
     0
  3
08 chain ---- - --- - --- - ---
 72
    65
 73
     4
 40
18.5
 49
12.0
 49
-1.5
 49
3.5
 49
-1.5
  0
LTYPE
  2
SXF_二点鎖線
 70
     0
  3
09 chain_double_dash ---- - - ---- - - ----
 72
    65
 73
     6
 40
23.5
 49
12.0
 49
-1.5
 49
3.5
 49
-1.5
 49
3.5
 49
-1.5
  0
LTYPE
  2
SXF_一点短鎖線
 70
     0
  3
10 dashed_dotted -- . -- . -- . --
 72
    65
 73
     4
 40
9.25
 49
6.0
 49
-1.5
 49
0.25
 49
-1.5
  0
LTYPE
  2
SXF_一点二短鎖線
 70
     0
  3
11 double-dashed_dotted -- -- . -- --
 72
    65
 73
     6
 40
16.75
 49
6.0
 49
-1.5
 49
6.0
 49
-1.5
 49
0.25
 49
-1.5
  0
LTYPE
  2
SXF_二点短鎖線
 70
     0
  3
12 dashed_double_dotted -- . . -- . . --
 72
    65
 73
     6
 40
11.0
 49
6.0
 49
-1.5
 49
0.25
 49
-1.5
 49
0.25
 49
-1.5
  0
LTYPE
  2
SXF_二点二短鎖線
 70
     0
  3
13 double-dashed_double-dotted -- -- . . -- --
 72
    65
 73
     8
 40
18.5
 49
6.0
 49
-1.5
 49
6.0
 49
-1.5
 49
0.25
 49
-1.5
 49
0.25
 49
-1.5
  0
LTYPE
  2
SXF_三点短鎖線
 70
     0
  3
14 dashed triplicate-dotted -- . . . -- . . . --
 72
    65
 73
     8
 40
12.75
 49
6.0
 49
-1.5
 49
0.25
 49
-1.5
 49
0.25
 49
-1.5
 49
0.25
 49
-1.5
  0
LTYPE
  2
SXF_三点二短鎖線
 70
     0
  3
15 double-dashed triplicate-dotted -- -- . . . -- -- 
 72
    65
 73
    10
 40
20.25
 49
6.0
 49
-1.5
 49
6.0
 49
-1.5
 49
0.25
 49
-1.5
 49
0.25
 49
-1.5
 49
0.25
 49
-1.5
  0
ENDTAB
  0
TABLE
  2
LAYER
 70
     5
  0
LAYER
  2
0
 70
     0
 62
     7
  6
CONTINUOUS
  0
LAYER
  2
LAYER0001
 70
     0
 62
     7
  6
CONTINUOUS
  0
LAYER
  2
LAYER0013
 70
     0
 62
     7
  6
CONTINUOUS
  0
LAYER
  2
LAYER0017
 70
     0
 62
     7
  6
CONTINUOUS
  0
LAYER
  2
ZUWAKU
 70
     0
 62
     7
  6
CONTINUOUS
  0
ENDTAB
  0
TABLE
  2
STYLE
 70
     2
  0
STYLE
  2
STANDARD
 70
     0
 40
0.0
 41
1.0
 50
0.0
 71
     0
 42
0.2
  3
txt.shx
  4
bigfont.shx
  0
STYLE
  2
DCSTYLE0
 70
     0
 40
0.0
 41
0.8
 50
0.0
 71
     0
 42
0.2
  3
txt.shx
  4
bigfont
  0
ENDTAB
  0
TABLE
  2
VIEW
 70
     0
  0
ENDTAB
  0
TABLE
  2
UCS
 70
     0
  0
ENDTAB
  0
TABLE
  2
APPID
 70
     2
  0
APPID
  2
ACAD
 70
     0
  0
APPID
  2
DAFUSIONOUT
 70
     0
  0
ENDTAB
  0
TABLE
  2
DIMSTYLE
 70
     3
  0
DIMSTYLE
  2
STANDARD
 70
     0
  3

  4

  5

  6

  7

 40
1.0
 41
0.18
 42
0.0625
 43
0.38
 44
0.18
 45
0.0
 46
0.0
 47
0.0
 48
0.0
140
0.18
141
0.09
142
0.0
143
25.4
144
1.0
145
0.0
146
1.0
147
0.09
 71
     0
 72
     0
 73
     1
 74
     1
 75
     0
 76
     0
 77
     0
 78
     0
170
     0
171
     2
172
     0
173
     0
174
     0
175
     0
176
     0
177
     0
178
     0
  0
DIMSTYLE
  2
DC_ROTATED
 70
     0
  3

  4

  5

  6
OPEN30
  7
OPEN30
 40
1.0
 41
24.00180816650391
 42
8.0
 43
0.38
 44
8.0
 45
0.0
 46
0.0
 47
2.0
 48
2.0
140
40.0
141
0.09
142
0.0
143
25.4
144
1.0
145
0.0
146
1.0
147
7.999999999999986
 71
     0
 72
     0
 73
     0
 74
     0
 75
     0
 76
     0
 77
     3
 78
     8
170
     0
171
     2
172
     1
173
     1
174
     0
175
     0
176
     4
177
     9
178
    30
  0
DIMSTYLE
  2
DC_RADIAL06
 70
     0
  3

  4

  5

  6
OPEN30
  7
OPEN30
 40
1.0
 41
24.00180816650391
 42
8.0
 43
0.38
 44
8.0
 45
0.0
 46
0.0
 47
0.0
 48
0.0
140
28.0
141
0.09
142
0.0
143
25.4
144
1.0
145
0.0
146
1.0
147
8.0
 71
     0
 72
     0
 73
     1
 74
     1
 75
     0
 76
     0
 77
     2
 78
     8
170
     0
171
     2
172
     0
173
     1
174
     0
175
     0
176
     4
177
     9
178
     4
  0
ENDTAB
  0
ENDSEC
  0
SECTION
  2
BLOCKS
  0
BLOCK
  8
0
  2
$MODEL_SPACE
 70
     0
 10
0.0
 20
0.0
 30
0.0
  3
$MODEL_SPACE
  1

  0
ENDBLK
  5
21
  8
0
  0
BLOCK
 67
     1
  8
0
  2
$PAPER_SPACE
 70
     0
 10
0.0
 20
0.0
 30
0.0
  3
$PAPER_SPACE
  1

  0
ENDBLK
  5
1D
 67
     1
  8
0
  0
BLOCK
  8
0
  2
*D1
 70
     1
 10
0.0
 20
0.0
 30
0.0
  3
*D1
  1

  0
LINE
  5
DC
  8
0
  6
CONTINUOUS
 62
     4
 10
-1218.07981508527
 20
127.5207929683064
 30
0.0
 11
-549.9798150852673
 21
127.5207929683064
 31
0.0
  0
INSERT
  5
E3
  8
0
 62
     4
  2
_OPEN30
 10
-1218.07981508527
 20
127.5207929683064
 30
0.0
 41
24.0018442714354
 42
24.00130528403405
 50
180.0
  0
INSERT
  5
E4
  8
0
 62
     4
  2
_OPEN30
 10
-549.9798150852673
 20
127.5207929683064
 30
0.0
 41
24.0018442714354
 42
24.00130528403405
 50
360.0
  0
TEXT
  5
E6
  8
0
 62
    30
 10
-1016.029815085269
 20
135.5207929683064
 30
0.0
 40
40.0
  1
668.1
 41
1.037037037037037
  7
DCSTYLE0
 72
     5
 11
-856.0298150852689
 21
135.5207929683064
 31
0.0
  0
TEXT
  5
E7
  8
0
 62
    30
 10
-848.0298150852689
 20
135.5207929683064
 30
0.0
 40
40.0
  1
　±2
 41
0.8262295081967214
  7
DCSTYLE0
 72
     5
 11
-752.0298150852689
 21
135.5207929683064
 31
0.0
  0
LINE
  5
E8
  8
0
  6
CONTINUOUS
 62
     9
 10
-1218.07981508527
 20
-36.31796872563348
 30
0.0
 11
-1218.07981508527
 21
135.5207929683064
 31
0.0
  0
LINE
  5
E9
  8
0
  6
CONTINUOUS
 62
     9
 10
-549.9798150852673
 20
-183.3179687256339
 30
0.0
 11
-549.9798150852673
 21
135.5207929683064
 31
0.0
  0
ENDBLK
  5
B4
  8
0
  0
BLOCK
  8
0
  2
*D2
 70
     1
 10
0.0
 20
0.0
 30
0.0
  3
*D2
  1

  0
LINE
  5
EA
  8
LAYER0001
  6
CONTINUOUS
 62
     4
 10
-696.6581096849472
 20
-157.5682613768963
 30
0.0
 11
-644.6674812165043
 21
-94.04327368130014
 31
0.0
  0
INSERT
  5
EB
  8
LAYER0001
 62
     4
  2
_OPEN30
 10
-644.6674812165043
 20
-94.04327368130014
 30
0.0
 41
24.0018442714354
 42
24.00130528403405
 50
50.70214510199376
  0
LINE
  5
EC
  8
LAYER0001
  6
CONTINUOUS
 62
     4
 10
-830.2581096849473
 20
-157.5682613768963
 30
0.0
 11
-696.6581096849472
 21
-157.5682613768963
 31
0.0
  0
TEXT
  5
ED
  8
LAYER0001
 62
     4
 10
-822.2581096849473
 20
-149.5682613768963
 30
0.0
 40
28.0
  1
R125.7
 41
0.8166666666666669
  7
DCSTYLE0
 72
     5
 11
-704.6581096849472
 21
-149.5682613768963
 31
0.0
  0
ENDBLK
  5
B7
  8
0
  0
BLOCK
  8
0
  2
DC_GROUP_1
 70
     0
 10
0.0
 20
0.0
 30
0.0
  3
DC_GROUP_1
  1

  0
LINE
  5
EE
  8
LAYER0013
  6
CONTINUOUS
 62
     4
 10
-1052.755867328168
 20
910.8378706624721
 30
0.0
 11
-980.5437436817838
 21
1014.588996052646
 31
0.0
  0
INSERT
  5
EF
  8
LAYER0013
 62
     4
  2
_OPEN30
 10
-1052.755867328168
 20
910.8378706624721
 30
0.0
 41
24.0018442714354
 42
24.00130528403405
 50
235.1615845417076
  0
CIRCLE
  5
F0
  8
LAYER0013
  6
CONTINUOUS
 62
     4
 10
-957.6931836661406
 20
1047.419651041109
 30
0.0
 40
40.0
  0
TEXT
  5
F1
  8
LAYER0013
 62
     4
 10
-967.4931836661406
 20
1033.419651041109
 30
0.0
 40
28.0
  1
1
 41
1.33636363636363
  7
DCSTYLE0
 72
     5
 11
-947.8931836661407
 21
1033.419651041109
 31
0.0
  0
ENDBLK
  5
BA
  8
0
  0
BLOCK
  8
0
  2
DA_IMAGEDIMGROUP_1
 70
     0
 10
0.0
 20
0.0
 30
0.0
  3
DA_IMAGEDIMGROUP_1
  1

  0
LINE
  5
F2
  8
LAYER0001
  6
CONTINUOUS
 62
     4
 10
-1218.07981508527
 20
-193.7167805878127
 30
0.0
 11
-1169.479815085268
 21
-193.7167805878127
 31
0.0
  0
LINE
  5
F3
  8
LAYER0001
  6
CONTINUOUS
 62
     4
 10
-1043.98981508527
 20
-193.7167805878127
 30
0.0
 11
-1169.479815085268
 21
-193.7167805878127
 31
0.0
  0
INSERT
  5
F4
  8
LAYER0001
 62
     4
  2
_OPEN30
 10
-1169.479815085268
 20
-193.7167805878127
 30
0.0
 41
24.0018442714354
 42
24.00130528403405
 50
180.0
  0
LINE
  5
F5
  8
LAYER0001
  6
CONTINUOUS
 62
     4
 10
-1243.07981508527
 20
-193.7167805878127
 30
0.0
 11
-1218.07981508527
 21
-193.7167805878127
 31
0.0
  0
INSERT
  5
F6
  8
LAYER0001
 62
     4
  2
_OPEN30
 10
-1218.07981508527
 20
-193.7167805878127
 30
0.0
 41
24.0018442714354
 42
24.00130528403405
 50
360.0
  0
TEXT
  5
F7
  8
LAYER0001
 62
     4
 10
-1149.98981508527
 20
-188.7167805878127
 30
0.0
 40
28.0
  1
φ48.6
 41
0.8647058823529413
  7
DCSTYLE0
 72
     5
 11
-1051.98981508527
 21
-188.7167805878127
 31
0.0
  0
ENDBLK
  5
BD
  8
0
  0
BLOCK
  8
0
  2
*D5
 70
     1
 10
0.0
 20
0.0
 30
0.0
  3
*D5
  1

  0
LINE
  5
F8
  8
0
  6
CONTINUOUS
 62
     4
 10
417.7915179763201
 20
127.5207929683064
 30
0.0
 11
-250.3084820236826
 21
127.5207929683064
 31
0.0
  0
INSERT
  5
F9
  8
0
 62
     4
  2
_OPEN30
 10
417.7915179763201
 20
127.5207929683064
 30
0.0
 41
24.0018442714354
 42
24.00130528403405
 50
360.0
  0
INSERT
  5
FA
  8
0
 62
     4
  2
_OPEN30
 10
-250.3084820236826
 20
127.5207929683064
 30
0.0
 41
24.0018442714354
 42
24.00130528403405
 50
180.0
  0
TEXT
  5
FB
  8
0
 62
    30
 10
-48.25848202368121
 20
135.5207929683064
 30
0.0
 40
40.0
  1
668.1
 41
1.037037037037037
  7
DCSTYLE0
 72
     5
 11
111.7415179763188
 21
135.5207929683064
 31
0.0
  0
TEXT
  5
FC
  8
0
 62
    30
 10
119.7415179763188
 20
135.5207929683064
 30
0.0
 40
40.0
  1
　±2
 41
0.8262295081967214
  7
DCSTYLE0
 72
     5
 11
215.7415179763188
 21
135.5207929683064
 31
0.0
  0
LINE
  5
FD
  8
0
  6
CONTINUOUS
 62
     9
 10
417.7915179763201
 20
-36.31796872563348
 30
0.0
 11
417.7915179763201
 21
135.5207929683064
 31
0.0
  0
LINE
  5
FE
  8
0
  6
CONTINUOUS
 62
     9
 10
-250.3084820236826
 20
-183.3179687256339
 30
0.0
 11
-250.3084820236826
 21
135.5207929683064
 31
0.0
  0
ENDBLK
  5
C0
  8
0
  0
BLOCK
  8
0
  2
*D6
 70
     1
 10
0.0
 20
0.0
 30
0.0
  3
*D6
  1

  0
LINE
  5
FF
  8
0
  6
CONTINUOUS
 62
     4
 10
583.8572415400284
 20
-717.0179687256342
 30
0.0
 11
583.8572415400284
 21
-17.01796872563325
 31
0.0
  0
INSERT
  5
100
  8
0
 62
     4
  2
_OPEN30
 10
583.8572415400284
 20
-717.0179687256342
 30
0.0
 41
24.0018442714354
 42
24.00130528403405
 50
270.0
  0
INSERT
  5
101
  8
0
 62
     4
  2
_OPEN30
 10
583.8572415400284
 20
-17.01796872563325
 30
0.0
 41
24.0018442714354
 42
24.00130528403405
 50
90.0
  0
TEXT
  5
102
  8
0
 62
    30
 10
575.8572415400284
 20
-415.0179687256338
 30
0.0
 40
40.0
  1
700
 50
90.0
 41
0.8842105263157894
  7
DCSTYLE0
 72
     5
 11
575.8572415400284
 21
-319.0179687256338
 31
0.0
  0
LINE
  5
103
  8
0
  6
CONTINUOUS
 62
     9
 10
446.4915179763208
 20
-717.0179687256342
 30
0.0
 11
591.8572415400284
 21
-717.0179687256342
 31
0.0
  0
LINE
  5
104
  8
0
  6
CONTINUOUS
 62
     9
 10
401.4915179763208
 20
-17.01796872563328
 30
0.0
 11
591.8572415400284
 21
-17.01796872563325
 31
0.0
  0
ENDBLK
  5
C3
  8
0
  0
BLOCK
  8
0
  2
*D7
 70
     1
 10
0.0
 20
0.0
 30
0.0
  3
*D7
  1

  0
LINE
  5
105
  8
LAYER0001
  6
CONTINUOUS
 62
     4
 10
-108.4290497911524
 20
-151.941393502009
 30
0.0
 11
-155.9063100252596
 21
-94.27763133632754
 31
0.0
  0
INSERT
  5
106
  8
LAYER0001
 62
     4
  2
_OPEN30
 10
-155.9063100252596
 20
-94.27763133632754
 30
0.0
 41
24.0018442714354
 42
24.00130528403405
 50
129.4662165209954
  0
LINE
  5
107
  8
LAYER0001
  6
CONTINUOUS
 62
     4
 10
22.17095020884759
 20
-151.941393502009
 30
0.0
 11
-108.4290497911524
 21
-151.941393502009
 31
0.0
  0
TEXT
  5
108
  8
LAYER0001
 62
     4
 10
-103.4290497911524
 20
-146.941393502009
 30
0.0
 40
28.0
  1
R125.7
 41
0.8166666666666667
  7
DCSTYLE0
 72
     5
 11
14.17095020884759
 21
-146.941393502009
 31
0.0
  0
ENDBLK
  5
C6
  8
0
  0
BLOCK
  8
0
  2
DA_IMAGEDIMGROUP_2
 70
     0
 10
0.0
 20
0.0
 30
0.0
  3
DA_IMAGEDIMGROUP_2
  1

  0
LINE
  5
109
  8
LAYER0001
  6
CONTINUOUS
 62
     4
 10
417.7915179763201
 20
-193.7167805878127
 30
0.0
 11
369.1915179763179
 21
-193.7167805878127
 31
0.0
  0
LINE
  5
10A
  8
LAYER0001
  6
CONTINUOUS
 62
     4
 10
243.70151797632
 20
-193.7167805878127
 30
0.0
 11
369.1915179763179
 21
-193.7167805878127
 31
0.0
  0
INSERT
  5
10B
  8
LAYER0001
 62
     4
  2
_OPEN30
 10
369.1915179763179
 20
-193.7167805878127
 30
0.0
 41
24.0018442714354
 42
24.00130528403405
 50
360.0
  0
LINE
  5
10C
  8
LAYER0001
  6
CONTINUOUS
 62
     4
 10
442.7915179763201
 20
-193.7167805878127
 30
0.0
 11
417.7915179763201
 21
-193.7167805878127
 31
0.0
  0
INSERT
  5
10D
  8
LAYER0001
 62
     4
  2
_OPEN30
 10
417.7915179763201
 20
-193.7167805878127
 30
0.0
 41
24.0018442714354
 42
24.00130528403405
 50
180.0
  0
TEXT
  5
10E
  8
LAYER0001
 62
     4
 10
251.70151797632
 20
-188.7167805878127
 30
0.0
 40
28.0
  1
φ48.6
 41
0.8647058823529413
  7
DCSTYLE0
 72
     5
 11
349.70151797632
 21
-188.7167805878127
 31
0.0
  0
ENDBLK
  5
C9
  8
0
  0
BLOCK
  8
0
  2
DA_DIMGROUP_0
 70
     0
 10
0.0
 20
0.0
 30
0.0
  3
DA_DIMGROUP_0
  1

  0
LINE
  5
10F
  8
LAYER0001
  6
CONTINUOUS
 62
     4
 10
-1076.200382852743
 20
774.1144458860967
 30
0.0
 11
-1123.67764308685
 21
831.7782080517782
 31
0.0
  0
INSERT
  5
110
  8
LAYER0001
 62
     4
  2
_OPEN30
 10
-1123.67764308685
 20
831.7782080517782
 30
0.0
 41
24.0018442714354
 42
24.00130528403405
 50
129.4662165209954
  0
LINE
  5
111
  8
LAYER0001
  6
CONTINUOUS
 62
     4
 10
-945.6003828527432
 20
774.1144458860967
 30
0.0
 11
-1076.200382852743
 21
774.1144458860967
 31
0.0
  0
TEXT
  5
112
  8
LAYER0001
 62
     4
 10
-1071.200382852743
 20
779.1144458860967
 30
0.0
 40
28.0
  1
R125.7
 41
0.8166666666666669
  7
DCSTYLE0
 72
     5
 11
-953.6003828527431
 21
779.1144458860967
 31
0.0
  0
ENDBLK
  5
CC
  8
0
  0
BLOCK
  8
0
  2
*D10
 70
     1
 10
0.0
 20
0.0
 30
0.0
  3
*D10
  1

  0
LINE
  5
113
  8
LAYER0017
  6
CONTINUOUS
 62
     4
 10
-1193.779815085271
 20
-1020.683203413711
 30
0.0
 11
-574.2798150852702
 21
-1020.683203413711
 31
0.0
  0
INSERT
  5
114
  8
LAYER0017
 62
     4
  2
_OPEN30
 10
-1193.779815085271
 20
-1020.683203413711
 30
0.0
 41
24.0018442714354
 42
24.00130528403405
 50
180.0
  0
INSERT
  5
115
  8
LAYER0017
 62
     4
  2
_OPEN30
 10
-574.2798150852702
 20
-1020.683203413711
 30
0.0
 41
24.0018442714354
 42
24.00130528403405
 50
360.0
  0
LINE
  5
116
  8
LAYER0017
  6
CONTINUOUS
 62
     4
 10
-1193.779815085271
 20
-944.2214600109311
 30
0.0
 11
-1193.779815085271
 21
-1028.683203413711
 31
0.0
  0
LINE
  5
117
  8
LAYER0017
  6
CONTINUOUS
 62
     4
 10
-574.2798150852702
 20
-944.2214600109311
 30
0.0
 11
-574.2798150852702
 21
-1028.683203413711
 31
0.0
  0
TEXT
  5
118
  8
LAYER0017
 62
    30
 10
-964.0298150852707
 20
-1012.683203413711
 30
0.0
 40
40.0
  1
619.5
 41
0.9655172413793105
  7
DCSTYLE0
 72
     5
 11
-804.0298150852707
 21
-1012.683203413711
 31
0.0
  0
ENDBLK
  5
CF
  8
0
  0
BLOCK
  8
0
  2
*D11
 70
     1
 10
0.0
 20
0.0
 30
0.0
  3
*D11
  1

  0
LINE
  5
119
  8
LAYER0017
  6
CONTINUOUS
 62
     4
 10
-226.0084820236798
 20
-1020.683203413711
 30
0.0
 11
393.4915179763209
 21
-1020.683203413711
 31
0.0
  0
INSERT
  5
11A
  8
LAYER0017
 62
     4
  2
_OPEN30
 10
-226.0084820236798
 20
-1020.683203413711
 30
0.0
 41
24.0018442714354
 42
24.00130528403405
 50
180.0
  0
INSERT
  5
11B
  8
LAYER0017
 62
     4
  2
_OPEN30
 10
393.4915179763209
 20
-1020.683203413711
 30
0.0
 41
24.0018442714354
 42
24.00130528403405
 50
360.0
  0
LINE
  5
11C
  8
LAYER0017
  6
CONTINUOUS
 62
     4
 10
-226.0084820236798
 20
-944.2214600109311
 30
0.0
 11
-226.0084820236798
 21
-1028.683203413711
 31
0.0
  0
LINE
  5
11D
  8
LAYER0017
  6
CONTINUOUS
 62
     4
 10
393.4915179763209
 20
-944.2214600109311
 30
0.0
 11
393.4915179763209
 21
-1028.683203413711
 31
0.0
  0
TEXT
  5
11E
  8
LAYER0017
 62
    30
 10
3.741517976320438
 20
-1012.683203413711
 30
0.0
 40
40.0
  1
619.5
 41
0.9655172413793105
  7
DCSTYLE0
 72
     5
 11
163.7415179763204
 21
-1012.683203413711
 31
0.0
  0
ENDBLK
  5
D2
  8
0
  0
BLOCK
  8
0
  2
*D12
 70
     1
 10
0.0
 20
0.0
 30
0.0
  3
*D12
  1

  0
LINE
  5
11F
  8
0
  6
CONTINUOUS
 62
     4
 10
688.4443027978931
 20
-917.0179687256342
 30
0.0
 11
688.4443027978931
 21
-17.01796872563321
 31
0.0
  0
INSERT
  5
120
  8
0
 62
     4
  2
_OPEN30
 10
688.4443027978931
 20
-917.0179687256342
 30
0.0
 41
24.0018442714354
 42
24.00130528403405
 50
270.0
  0
INSERT
  5
121
  8
0
 62
     4
  2
_OPEN30
 10
688.4443027978931
 20
-17.01796872563321
 30
0.0
 41
24.0018442714354
 42
24.00130528403405
 50
90.0
  0
TEXT
  5
122
  8
0
 62
    30
 10
680.4443027978931
 20
-567.0179687256336
 30
0.0
 40
40.0
  1
900
 50
90.0
 41
0.8842105263157894
  7
DCSTYLE0
 72
     5
 11
680.4443027978931
 21
-471.0179687256336
 31
0.0
  0
TEXT
  5
123
  8
0
 62
    30
 10
680.4443027978931
 20
-463.0179687256336
 30
0.0
 40
40.0
  1
　±1
 50
90.0
 41
0.9163636363636365
  7
DCSTYLE0
 72
     5
 11
680.4443027978931
 21
-367.0179687256336
 31
0.0
  0
LINE
  5
124
  8
0
  6
CONTINUOUS
 62
     9
 10
425.7915179763201
 20
-917.0179687256342
 30
0.0
 11
696.4443027978931
 21
-917.0179687256342
 31
0.0
  0
LINE
  5
125
  8
0
  6
CONTINUOUS
 62
     9
 10
401.4915179763208
 20
-17.01796872563328
 30
0.0
 11
696.4443027978931
 21
-17.01796872563321
 31
0.0
  0
ENDBLK
  5
D5
  8
0
  0
BLOCK
  8
0
  2
*D13
 70
     1
 10
0.0
 20
0.0
 30
0.0
  3
*D13
  1

  0
LINE
  5
126
  8
LAYER0001
  6
CONTINUOUS
 62
     4
 10
582.4465043567875
 20
-917.0179687256342
 30
0.0
 11
582.4465043567875
 21
-717.0179687256342
 31
0.0
  0
INSERT
  5
127
  8
LAYER0001
 62
     4
  2
_OPEN30
 10
582.4465043567875
 20
-917.0179687256342
 30
0.0
 41
24.0018442714354
 42
24.00130528403405
 50
270.0
  0
INSERT
  5
128
  8
LAYER0001
 62
     4
  2
_OPEN30
 10
582.4465043567875
 20
-717.0179687256342
 30
0.0
 41
24.0018442714354
 42
24.00130528403405
 50
90.0
  0
LINE
  5
129
  8
LAYER0001
  6
CONTINUOUS
 62
     4
 10
425.7915179763201
 20
-917.0179687256342
 30
0.0
 11
590.4465043567875
 21
-917.0179687256342
 31
0.0
  0
LINE
  5
12A
  8
LAYER0001
  6
CONTINUOUS
 62
     4
 10
530.8435692406352
 20
-717.0179687256342
 30
0.0
 11
590.4465043567875
 21
-717.0179687256342
 31
0.0
  0
TEXT
  5
12B
  8
LAYER0001
 62
     4
 10
574.4465043567875
 20
-885.6179687256342
 30
0.0
 40
28.0
  1
埋設深度200
 50
90.0
 41
0.7976744186046516
  7
DCSTYLE0
 72
     5
 11
574.4465043567875
 21
-748.4179687256342
 31
0.0
  0
ENDBLK
  5
D8
  8
0
  0
BLOCK
  8
0
  2
*D14
 70
     1
 10
0.0
 20
0.0
 30
0.0
  3
*D14
  1

  0
LINE
  5
12C
  8
LAYER0001
  6
CONTINUOUS
 62
     4
 10
-1113.801841363143
 20
187.0598969403446
 30
0.0
 11
-494.3018413631434
 21
806.5598969403443
 31
0.0
  0
INSERT
  5
12D
  8
LAYER0001
 62
     4
  2
_OPEN30
 10
-1113.801841363143
 20
187.0598969403446
 30
0.0
 41
24.0018442714354
 42
24.00130528403405
 50
225.0
  0
INSERT
  5
12E
  8
LAYER0001
 62
     4
  2
_OPEN30
 10
-494.3018413631434
 20
806.5598969403443
 30
0.0
 41
24.0018442714354
 42
24.00130528403405
 50
44.99999999999998
  0
LINE
  5
12F
  8
LAYER0001
  6
CONTINUOUS
 62
     4
 10
-1188.122960835778
 20
261.3810164129786
 30
0.0
 11
-1108.144987113651
 21
181.4030426908521
 31
0.0
  0
LINE
  5
130
  8
LAYER0001
  6
CONTINUOUS
 62
     4
 10
-568.6229608357778
 20
880.8810164129786
 30
0.0
 11
-488.644987113651
 21
800.9030426908519
 31
0.0
  0
TEXT
  5
131
  8
LAYER0001
 62
     4
 10
-844.3569278907767
 20
467.8185189116958
 30
0.0
 40
28.0
  1
876.1
 50
45.0
 41
0.9074074074074074
  7
DCSTYLE0
 72
     5
 11
-775.060463334495
 21
537.1149834679775
 31
0.0
  0
ENDBLK
  5
DB
  8
0
  0
BLOCK
  8
0
  2
_OPEN30
 70
     0
 10
0.0
 20
0.0
 30
0.0
  3
_OPEN30
  1

  0
LINE
  5
E0
  8
0
  6
BYBLOCK
 62
     0
 10
-1.0
 20
0.267949
 30
0.0
 11
0.0
 21
0.0
 31
0.0
  0
LINE
  5
E1
  8
0
  6
BYBLOCK
 62
     0
 10
0.0
 20
0.0
 30
0.0
 11
-1.0
 21
-0.267949
 31
0.0
  0
LINE
  5
E2
  8
0
  6
BYBLOCK
 62
     0
 10
0.0
 20
0.0
 30
0.0
 11
-1.0
 21
0.0
 31
0.0
  0
ENDBLK
  5
DF
  8
0
  0
ENDSEC
  0
SECTION
  2
ENTITIES
  0
LINE
  5
132
  8
ZUWAKU
  6
CONTINUOUS
 62
   190
 10
1385.333333333324
 20
1111.333333333316
 30
0.0
 11
1385.333333333324
 21
911.3333333333162
 31
0.0
  0
LINE
  5
133
  8
ZUWAKU
  6
CONTINUOUS
 62
   190
 10
1617.333333333324
 20
911.333333333316
 30
0.0
 11
1385.333333333324
 21
911.3333333333162
 31
0.0
  0
TEXT
  5
134
  8
ZUWAKU
 62
   190
 10
1448.763380634187
 20
1033.635242546653
 30
0.0
 40
32.0
  1
　
 41
1.119999999999996
  7
DCSTYLE0
 72
     5
 11
1474.363380634187
 21
1033.635242546653
 31
0.0
  0
TEXT
  5
135
  8
ZUWAKU
 62
   190
 10
1399.232228839922
 20
995.4215134851145
 30
0.0
 40
32.0
  1
重量6.08ｋg
 41
0.9669064748201437
  7
DCSTYLE0
 72
     5
 11
1604.032228839922
 21
995.4215134851145
 31
0.0
  0
LINE
  5
136
  8
ZUWAKU
  6
CONTINUOUS
 62
     3
 10
825.3333333333242
 20
-862.0000000000175
 30
0.0
 11
825.3333333333238
 21
-1132.000000000018
 31
0.0
  0
LINE
  5
137
  8
ZUWAKU
  6
CONTINUOUS
 62
     3
 10
825.3333333333242
 20
-892.0000000000175
 30
0.0
 11
1617.333333333324
 21
-892.0000000000172
 31
0.0
  0
LINE
  5
138
  8
ZUWAKU
  6
CONTINUOUS
 62
     3
 10
1617.333333333323
 20
-862.0000000000199
 30
0.0
 11
825.3333333333238
 21
-862.0000000000199
 31
0.0
  0
LINE
  5
139
  8
ZUWAKU
  6
CONTINUOUS
 62
     4
 10
1293.333333333325
 20
-988.0000000000173
 30
0.0
 11
1293.333333333325
 21
-1048.000000000018
 31
0.0
  0
LINE
  5
13A
  8
ZUWAKU
  6
CONTINUOUS
 62
     4
 10
1402.833333333327
 20
-892.0000000000173
 30
0.0
 11
1402.833333333324
 21
-1048.000000000017
 31
0.0
  0
LINE
  5
13B
  8
ZUWAKU
  6
CONTINUOUS
 62
     4
 10
825.3333333333242
 20
-988.0000000000177
 30
0.0
 11
1617.333333333324
 21
-988.0000000000173
 31
0.0
  0
LINE
  5
13C
  8
ZUWAKU
  6
CONTINUOUS
 62
     4
 10
1617.333333333324
 20
-1048.000000000018
 30
0.0
 11
825.3333333333242
 21
-1048.000000000018
 31
0.0
  0
LINE
  5
13D
  8
ZUWAKU
  6
CONTINUOUS
 62
     4
 10
867.3333333333242
 20
-892.0000000000173
 30
0.0
 11
867.3333333333242
 21
-1048.000000000018
 31
0.0
  0
LINE
  5
13E
  8
ZUWAKU
  6
CONTINUOUS
 62
     4
 10
1335.333333333324
 20
-988.0000000000173
 30
0.0
 11
1335.333333333325
 21
-1048.000000000018
 31
0.0
  0
LINE
  5
13F
  8
ZUWAKU
  6
CONTINUOUS
 62
     4
 10
1444.833333333324
 20
-892.0000000000173
 30
0.0
 11
1444.833333333324
 21
-1048.000000000017
 31
0.0
  0
LINE
  5
140
  8
ZUWAKU
  6
CONTINUOUS
 62
     4
 10
1221.333333333325
 20
-988.0000000000177
 30
0.0
 11
1221.333333333325
 21
-1132.000000000017
 31
0.0
  0
LINE
  5
141
  8
ZUWAKU
  6
CONTINUOUS
 62
     4
 10
1179.333333333325
 20
-988.0000000000177
 30
0.0
 11
1179.333333333325
 21
-1048.000000000018
 31
0.0
  0
LINE
  5
142
  8
ZUWAKU
  6
CONTINUOUS
 62
     4
 10
1107.333333333325
 20
-988.0000000000177
 30
0.0
 11
1107.333333333325
 21
-1048.000000000018
 31
0.0
  0
LINE
  5
143
  8
ZUWAKU
  6
CONTINUOUS
 62
     4
 10
1065.333333333325
 20
-988.0000000000177
 30
0.0
 11
1065.333333333325
 21
-1048.000000000018
 31
0.0
  0
LINE
  5
144
  8
ZUWAKU
  6
CONTINUOUS
 62
     4
 10
891.3333333333238
 20
-1048.000000000018
 30
0.0
 11
891.3333333333238
 21
-1132.000000000017
 31
0.0
  0
LINE
  5
145
  8
ZUWAKU
  6
CONTINUOUS
 62
     4
 10
825.3333333333238
 20
-862.0000000000175
 30
0.0
 11
1617.333333333323
 21
-862.00000000002
 31
0.0
  0
ARC
  5
146
  8
ZUWAKU
  6
CONTINUOUS
 62
     4
 10
1299.302240624304
 20
-1072.371819143606
 30
0.0
 40
0.5206426682936989
 50
89.99999999999883
 51
269.9999999999989
  0
LINE
  5
147
  8
ZUWAKU
  6
CONTINUOUS
 62
     4
 10
1299.302240624304
 20
-1072.892461811895
 30
0.0
 11
1304.248345973093
 21
-1072.892461811895
 31
0.0
  0
ARC
  5
148
  8
ZUWAKU
  6
CONTINUOUS
 62
     4
 10
1304.248345973093
 20
-1080.962423170455
 30
0.0
 40
8.069961358551957
 50
0.0000000000000114
 51
89.99999999999905
  0
LINE
  5
149
  8
ZUWAKU
  6
CONTINUOUS
 62
     4
 10
1312.318307331648
 20
-1080.962423170455
 30
0.0
 11
1312.318307331648
 21
-1114.023232607102
 31
0.0
  0
LINE
  5
14A
  8
ZUWAKU
  6
CONTINUOUS
 62
     4
 10
1312.318307331648
 20
-1114.023232607102
 30
0.0
 11
1236.82512042906
 21
-1114.023232607102
 31
0.0
  0
LINE
  5
14B
  8
ZUWAKU
  6
CONTINUOUS
 62
     4
 10
1236.82512042906
 20
-1114.023232607102
 30
0.0
 11
1236.82512042906
 21
-1080.962423170455
 31
0.0
  0
ARC
  5
14C
  8
ZUWAKU
  6
CONTINUOUS
 62
     4
 10
1244.895081787615
 20
-1080.962423170455
 30
0.0
 40
8.069961358551957
 50
90.0000000000001
 51
179.9999999999999
  0
LINE
  5
14D
  8
ZUWAKU
  6
CONTINUOUS
 62
     4
 10
1244.895081787615
 20
-1072.892461811895
 30
0.0
 11
1249.841187136404
 21
-1072.892461811895
 31
0.0
  0
ARC
  5
14E
  8
ZUWAKU
  6
CONTINUOUS
 62
     4
 10
1249.841187136404
 20
-1072.371819143606
 30
0.0
 40
0.5206426682936941
 50
270.0000000000001
 51
90.0000000000004
  0
LINE
  5
14F
  8
ZUWAKU
  6
CONTINUOUS
 62
     4
 10
1249.841187136404
 20
-1071.851176475317
 30
0.0
 11
1244.895081787615
 21
-1071.851176475317
 31
0.0
  0
ARC
  5
150
  8
ZUWAKU
  6
CONTINUOUS
 62
     4
 10
1244.895081787615
 20
-1080.962423170455
 30
0.0
 40
9.111246695139311
 50
90.00000000000058
 51
179.9999999999999
  0
LINE
  5
151
  8
ZUWAKU
  6
CONTINUOUS
 62
     4
 10
1235.783835092477
 20
-1080.962423170455
 30
0.0
 11
1235.783835092477
 21
-1115.064517943691
 31
0.0
  0
LINE
  5
152
  8
ZUWAKU
  6
CONTINUOUS
 62
     4
 10
1235.783835092477
 20
-1115.064517943691
 30
0.0
 11
1313.359592668231
 21
-1115.064517943691
 31
0.0
  0
LINE
  5
153
  8
ZUWAKU
  6
CONTINUOUS
 62
     4
 10
1313.359592668231
 20
-1115.064517943691
 30
0.0
 11
1313.359592668231
 21
-1080.962423170455
 31
0.0
  0
ARC
  5
154
  8
ZUWAKU
  6
CONTINUOUS
 62
     4
 10
1304.248345973093
 20
-1080.962423170455
 30
0.0
 40
9.111246695139311
 50
0.0000000000000114
 51
89.99999999999905
  0
LINE
  5
155
  8
ZUWAKU
  6
CONTINUOUS
 62
     4
 10
1304.248345973093
 20
-1071.851176475317
 30
0.0
 11
1299.302240624304
 21
-1071.851176475317
 31
0.0
  0
LINE
  5
156
  8
ZUWAKU
  6
CONTINUOUS
 62
     4
 10
1291.456386094794
 20
-1100.181988326659
 30
0.0
 11
1291.585890712048
 21
-1099.193866508712
 31
0.0
  0
LINE
  5
157
  8
ZUWAKU
  6
CONTINUOUS
 62
     4
 10
1291.585890712048
 20
-1099.193866508712
 30
0.0
 11
1291.593831980333
 21
-1098.189826955932
 31
0.0
  0
LINE
  5
158
  8
ZUWAKU
  6
CONTINUOUS
 62
     4
 10
1291.593831980333
 20
-1098.189826955932
 30
0.0
 11
1291.480149461793
 21
-1097.17751101558
 31
0.0
  0
LINE
  5
159
  8
ZUWAKU
  6
CONTINUOUS
 62
     4
 10
1291.480149461793
 20
-1097.17751101558
 30
0.0
 11
1291.245708349046
 21
-1096.164623023226
 31
0.0
  0
LINE
  5
15A
  8
ZUWAKU
  6
CONTINUOUS
 62
     4
 10
1291.245708349046
 20
-1096.164623023226
 30
0.0
 11
1290.892292880511
 21
-1095.158871668086
 31
0.0
  0
LINE
  5
15B
  8
ZUWAKU
  6
CONTINUOUS
 62
     4
 10
1290.892292880511
 20
-1095.158871668086
 30
0.0
 11
1290.819766618449
 21
-1095.00585776287
 31
0.0
  0
LINE
  5
15C
  8
ZUWAKU
  6
CONTINUOUS
 62
     4
 10
1288.499321937124
 20
-1091.521420381869
 30
0.0
 11
1288.355786734787
 21
-1091.35828850095
 31
0.0
  0
LINE
  5
15D
  8
ZUWAKU
  6
CONTINUOUS
 62
     4
 10
1288.355786734787
 20
-1091.35828850095
 30
0.0
 11
1287.465097994512
 21
-1090.499931810424
 31
0.0
  0
LINE
  5
15E
  8
ZUWAKU
  6
CONTINUOUS
 62
     4
 10
1287.465097994512
 20
-1090.499931810424
 30
0.0
 11
1286.484207626048
 21
-1089.691823477665
 31
0.0
  0
LINE
  5
15F
  8
ZUWAKU
  6
CONTINUOUS
 62
     4
 10
1286.484207626048
 20
-1089.691823477665
 30
0.0
 11
1285.420580797377
 21
-1088.940113695048
 31
0.0
  0
LINE
  5
160
  8
ZUWAKU
  6
CONTINUOUS
 62
     4
 10
1285.420580797377
 20
-1088.940113695048
 30
0.0
 11
1284.282312350898
 21
-1088.250523427906
 31
0.0
  0
LINE
  5
161
  8
ZUWAKU
  6
CONTINUOUS
 62
     4
 10
1284.282312350898
 20
-1088.250523427906
 30
0.0
 11
1283.078065196792
 21
-1087.628300874553
 31
0.0
  0
LINE
  5
162
  8
ZUWAKU
  6
CONTINUOUS
 62
     4
 10
1283.078065196792
 20
-1087.628300874553
 30
0.0
 11
1281.817004383055
 21
-1087.078181524336
 31
0.0
  0
LINE
  5
163
  8
ZUWAKU
  6
CONTINUOUS
 62
     4
 10
1281.817004383055
 20
-1087.078181524336
 30
0.0
 11
1280.508727343918
 21
-1086.604352117677
 31
0.0
  0
LINE
  5
164
  8
ZUWAKU
  6
CONTINUOUS
 62
     4
 10
1280.508727343918
 20
-1086.604352117677
 30
0.0
 11
1279.163190857618
 21
-1086.210418782474
 31
0.0
  0
LINE
  5
165
  8
ZUWAKU
  6
CONTINUOUS
 62
     4
 10
1279.163190857618
 20
-1086.210418782474
 30
0.0
 11
1277.790635269266
 21
-1085.899379589265
 31
0.0
  0
LINE
  5
166
  8
ZUWAKU
  6
CONTINUOUS
 62
     4
 10
1277.790635269266
 20
-1085.899379589265
 30
0.0
 11
1276.401506555659
 21
-1085.673601734122
 31
0.0
  0
LINE
  5
167
  8
ZUWAKU
  6
CONTINUOUS
 62
     4
 10
1276.401506555659
 20
-1085.673601734122
 30
0.0
 11
1275.006376825096
 21
-1085.534803522846
 31
0.0
  0
LINE
  5
168
  8
ZUWAKU
  6
CONTINUOUS
 62
     4
 10
1275.006376825096
 20
-1085.534803522846
 30
0.0
 11
1273.615863857223
 21
-1085.484041293647
 31
0.0
  0
LINE
  5
169
  8
ZUWAKU
  6
CONTINUOUS
 62
     4
 10
1273.615863857223
 20
-1085.484041293647
 30
0.0
 11
1272.240550295336
 21
-1085.521701377719
 31
0.0
  0
LINE
  5
16A
  8
ZUWAKU
  6
CONTINUOUS
 62
     4
 10
1272.240550295336
 20
-1085.521701377719
 30
0.0
 11
1270.890903106086
 21
-1085.647497159102
 31
0.0
  0
LINE
  5
16B
  8
ZUWAKU
  6
CONTINUOUS
 62
     4
 10
1270.890903106086
 20
-1085.647497159102
 30
0.0
 11
1269.577193919523
 21
-1085.860471255943
 31
0.0
  0
LINE
  5
16C
  8
ZUWAKU
  6
CONTINUOUS
 62
     4
 10
1269.577193919523
 20
-1085.860471255943
 30
0.0
 11
1268.30942085579
 21
-1086.159002806748
 31
0.0
  0
LINE
  5
16D
  8
ZUWAKU
  6
CONTINUOUS
 62
     4
 10
1268.30942085579
 20
-1086.159002806748
 30
0.0
 11
1267.097232433405
 21
-1086.540819806175
 31
0.0
  0
LINE
  5
16E
  8
ZUWAKU
  6
CONTINUOUS
 62
     4
 10
1267.097232433405
 20
-1086.540819806175
 30
0.0
 11
1265.949854138203
 21
-1087.00301639631
 31
0.0
  0
LINE
  5
16F
  8
ZUWAKU
  6
CONTINUOUS
 62
     4
 10
1265.949854138203
 20
-1087.00301639631
 30
0.0
 11
1264.876018211818
 21
-1087.542074982005
 31
0.0
  0
LINE
  5
170
  8
ZUWAKU
  6
CONTINUOUS
 62
     4
 10
1264.876018211818
 20
-1087.542074982005
 30
0.0
 11
1263.883897194047
 21
-1088.153893001942
 31
0.0
  0
LINE
  5
171
  8
ZUWAKU
  6
CONTINUOUS
 62
     4
 10
1263.883897194047
 20
-1088.153893001942
 30
0.0
 11
1262.981041724897
 21
-1088.833814151575
 31
0.0
  0
LINE
  5
172
  8
ZUWAKU
  6
CONTINUOUS
 62
     4
 10
1262.981041724897
 20
-1088.833814151575
 30
0.0
 11
1262.174323079645
 21
-1089.576663820383
 31
0.0
  0
LINE
  5
173
  8
ZUWAKU
  6
CONTINUOUS
 62
     4
 10
1262.174323079645
 20
-1089.576663820383
 30
0.0
 11
1261.46988087429
 21
-1090.376788473852
 31
0.0
  0
LINE
  5
174
  8
ZUWAKU
  6
CONTINUOUS
 62
     4
 10
1261.46988087429
 20
-1090.376788473852
 30
0.0
 11
1261.299992218022
 21
-1090.619125685746
 31
0.0
  0
LINE
  5
175
  8
ZUWAKU
  6
CONTINUOUS
 62
     4
 10
1260.650595293623
 20
-1091.63944110461
 30
0.0
 11
1260.388451517764
 21
-1092.12411545486
 31
0.0
  0
LINE
  5
176
  8
ZUWAKU
  6
CONTINUOUS
 62
     4
 10
1260.388451517764
 20
-1092.12411545486
 30
0.0
 11
1260.373359254241
 21
-1092.162337736304
 31
0.0
  0
LINE
  5
177
  8
ZUWAKU
  6
CONTINUOUS
 62
     4
 10
1259.9999068798
 20
-1093.134350376183
 30
0.0
 11
1259.769612339086
 21
-1094.022703448449
 31
0.0
  0
LINE
  5
178
  8
ZUWAKU
  6
CONTINUOUS
 62
     4
 10
1259.769612339086
 20
-1094.022703448449
 30
0.0
 11
1259.640107721832
 21
-1095.010825266407
 31
0.0
  0
LINE
  5
179
  8
ZUWAKU
  6
CONTINUOUS
 62
     4
 10
1259.640107721832
 20
-1095.010825266407
 30
0.0
 11
1259.632166453553
 21
-1096.014864819176
 31
0.0
  0
LINE
  5
17A
  8
ZUWAKU
  6
CONTINUOUS
 62
     4
 10
1259.632166453553
 20
-1096.014864819176
 30
0.0
 11
1259.745848972093
 21
-1097.027180759528
 31
0.0
  0
LINE
  5
17B
  8
ZUWAKU
  6
CONTINUOUS
 62
     4
 10
1259.745848972093
 20
-1097.027180759528
 30
0.0
 11
1259.98029008484
 21
-1098.040068751882
 31
0.0
  0
LINE
  5
17C
  8
ZUWAKU
  6
CONTINUOUS
 62
     4
 10
1259.98029008484
 20
-1098.040068751882
 30
0.0
 11
1260.333705553375
 21
-1099.045820107033
 31
0.0
  0
LINE
  5
17D
  8
ZUWAKU
  6
CONTINUOUS
 62
     4
 10
1260.333705553375
 20
-1099.045820107033
 30
0.0
 11
1260.803405672577
 21
-1100.036780449864
 31
0.0
  0
LINE
  5
17E
  8
ZUWAKU
  6
CONTINUOUS
 62
     4
 10
1260.803405672577
 20
-1100.036780449864
 30
0.0
 11
1261.385815740926
 21
-1101.005407973815
 31
0.0
  0
LINE
  5
17F
  8
ZUWAKU
  6
CONTINUOUS
 62
     4
 10
1261.385815740926
 20
-1101.005407973815
 30
0.0
 11
1262.07650326614
 21
-1101.944330838561
 31
0.0
  0
LINE
  5
180
  8
ZUWAKU
  6
CONTINUOUS
 62
     4
 10
1262.07650326614
 20
-1101.944330838561
 30
0.0
 11
1262.870211699098
 21
-1102.846403274158
 31
0.0
  0
LINE
  5
181
  8
ZUWAKU
  6
CONTINUOUS
 62
     4
 10
1262.870211699098
 20
-1102.846403274158
 30
0.0
 11
1263.760900439368
 21
-1103.704759964695
 31
0.0
  0
LINE
  5
182
  8
ZUWAKU
  6
CONTINUOUS
 62
     4
 10
1263.760900439368
 20
-1103.704759964695
 30
0.0
 11
1264.741790807833
 21
-1104.512868297443
 31
0.0
  0
LINE
  5
183
  8
ZUWAKU
  6
CONTINUOUS
 62
     4
 10
1264.741790807833
 20
-1104.512868297443
 30
0.0
 11
1265.805417636509
 21
-1105.26457808006
 31
0.0
  0
LINE
  5
184
  8
ZUWAKU
  6
CONTINUOUS
 62
     4
 10
1265.805417636509
 20
-1105.26457808006
 30
0.0
 11
1266.943686082988
 21
-1105.954168347213
 31
0.0
  0
LINE
  5
185
  8
ZUWAKU
  6
CONTINUOUS
 62
     4
 10
1266.943686082988
 20
-1105.954168347213
 30
0.0
 11
1268.147933237088
 21
-1106.576390900555
 31
0.0
  0
LINE
  5
186
  8
ZUWAKU
  6
CONTINUOUS
 62
     4
 10
1268.147933237088
 20
-1106.576390900555
 30
0.0
 11
1269.40899405083
 21
-1107.126510250772
 31
0.0
  0
LINE
  5
187
  8
ZUWAKU
  6
CONTINUOUS
 62
     4
 10
1269.40899405083
 20
-1107.126510250772
 30
0.0
 11
1270.717271089962
 21
-1107.600339657431
 31
0.0
  0
LINE
  5
188
  8
ZUWAKU
  6
CONTINUOUS
 62
     4
 10
1270.717271089962
 20
-1107.600339657431
 30
0.0
 11
1272.062807576268
 21
-1107.994272992634
 31
0.0
  0
LINE
  5
189
  8
ZUWAKU
  6
CONTINUOUS
 62
     4
 10
1272.062807576268
 20
-1107.994272992634
 30
0.0
 11
1273.43536316462
 21
-1108.305312185844
 31
0.0
  0
LINE
  5
18A
  8
ZUWAKU
  6
CONTINUOUS
 62
     4
 10
1273.43536316462
 20
-1108.305312185844
 30
0.0
 11
1274.824491878221
 21
-1108.531090040997
 31
0.0
  0
LINE
  5
18B
  8
ZUWAKU
  6
CONTINUOUS
 62
     4
 10
1274.824491878221
 20
-1108.531090040997
 30
0.0
 11
1276.21962160879
 21
-1108.669888252262
 31
0.0
  0
LINE
  5
18C
  8
ZUWAKU
  6
CONTINUOUS
 62
     4
 10
1276.21962160879
 20
-1108.669888252262
 30
0.0
 11
1277.610134576663
 21
-1108.720650481472
 31
0.0
  0
LINE
  5
18D
  8
ZUWAKU
  6
CONTINUOUS
 62
     4
 10
1277.610134576663
 20
-1108.720650481472
 30
0.0
 11
1278.985448138544
 21
-1108.682990397389
 31
0.0
  0
LINE
  5
18E
  8
ZUWAKU
  6
CONTINUOUS
 62
     4
 10
1278.985448138544
 20
-1108.682990397389
 30
0.0
 11
1280.335095327794
 21
-1108.557194616006
 31
0.0
  0
LINE
  5
18F
  8
ZUWAKU
  6
CONTINUOUS
 62
     4
 10
1280.335095327794
 20
-1108.557194616006
 30
0.0
 11
1281.648804514363
 21
-1108.344220519176
 31
0.0
  0
LINE
  5
190
  8
ZUWAKU
  6
CONTINUOUS
 62
     4
 10
1281.648804514363
 20
-1108.344220519176
 30
0.0
 11
1282.916577578096
 21
-1108.04568896836
 31
0.0
  0
LINE
  5
191
  8
ZUWAKU
  6
CONTINUOUS
 62
     4
 10
1282.916577578096
 20
-1108.04568896836
 30
0.0
 11
1284.128766000481
 21
-1107.663871968933
 31
0.0
  0
LINE
  5
192
  8
ZUWAKU
  6
CONTINUOUS
 62
     4
 10
1284.128766000481
 20
-1107.663871968933
 30
0.0
 11
1285.276144295683
 21
-1107.201675378809
 31
0.0
  0
LINE
  5
193
  8
ZUWAKU
  6
CONTINUOUS
 62
     4
 10
1285.276144295683
 20
-1107.201675378809
 30
0.0
 11
1286.349980222068
 21
-1106.662616793103
 31
0.0
  0
LINE
  5
194
  8
ZUWAKU
  6
CONTINUOUS
 62
     4
 10
1286.349980222068
 20
-1106.662616793103
 30
0.0
 11
1287.342101239839
 21
-1106.050798773166
 31
0.0
  0
LINE
  5
195
  8
ZUWAKU
  6
CONTINUOUS
 62
     4
 10
1287.342101239839
 20
-1106.050798773166
 30
0.0
 11
1288.244956708989
 21
-1105.370877623544
 31
0.0
  0
LINE
  5
196
  8
ZUWAKU
  6
CONTINUOUS
 62
     4
 10
1288.244956708989
 20
-1105.370877623544
 30
0.0
 11
1289.051675354241
 21
-1104.628027954725
 31
0.0
  0
LINE
  5
197
  8
ZUWAKU
  6
CONTINUOUS
 62
     4
 10
1289.051675354241
 20
-1104.628027954725
 30
0.0
 11
1289.276555571826
 21
-1104.372602875425
 31
0.0
  0
LINE
  5
198
  8
ZUWAKU
  6
CONTINUOUS
 62
     4
 10
1289.969661715156
 20
-1103.52329382108
 30
0.0
 11
1290.352922094505
 21
-1102.976593094868
 31
0.0
  0
LINE
  5
199
  8
ZUWAKU
  6
CONTINUOUS
 62
     4
 10
1290.352922094505
 20
-1102.976593094868
 30
0.0
 11
1290.661791977816
 21
-1102.405527428652
 31
0.0
  0
LINE
  5
19A
  8
ZUWAKU
  6
CONTINUOUS
 62
     4
 10
1291.112670286829
 20
-1101.383805892369
 30
0.0
 11
1291.206303736902
 21
-1101.146672206117
 31
0.0
  0
LINE
  5
19B
  8
ZUWAKU
  6
CONTINUOUS
 62
     4
 10
1291.206303736902
 20
-1101.146672206117
 30
0.0
 11
1291.456386094794
 21
-1100.181988326659
 31
0.0
  0
LINE
  5
19C
  8
ZUWAKU
  6
CONTINUOUS
 62
     4
 10
1290.434232102675
 20
-1099.983301717683
 30
0.0
 11
1290.555381583335
 21
-1099.058929694439
 31
0.0
  0
LINE
  5
19D
  8
ZUWAKU
  6
CONTINUOUS
 62
     4
 10
1290.555381583335
 20
-1099.058929694439
 30
0.0
 11
1290.562810511728
 21
-1098.119666887008
 31
0.0
  0
LINE
  5
19E
  8
ZUWAKU
  6
CONTINUOUS
 62
     4
 10
1290.562810511728
 20
-1098.119666887008
 30
0.0
 11
1290.456462349222
 21
-1097.17266165248
 31
0.0
  0
LINE
  5
19F
  8
ZUWAKU
  6
CONTINUOUS
 62
     4
 10
1290.456462349222
 20
-1097.17266165248
 30
0.0
 11
1290.237146469555
 21
-1096.225121272539
 31
0.0
  0
LINE
  5
1A0
  8
ZUWAKU
  6
CONTINUOUS
 62
     4
 10
1290.237146469555
 20
-1096.225121272539
 30
0.0
 11
1289.950492886127
 21
-1095.409361195075
 31
0.0
  0
LINE
  5
1A1
  8
ZUWAKU
  6
CONTINUOUS
 62
     4
 10
1289.514344732489
 20
-1094.456831235225
 30
0.0
 11
1289.467135113283
 21
-1094.357229684109
 31
0.0
  0
LINE
  5
1A2
  8
ZUWAKU
  6
CONTINUOUS
 62
     4
 10
1289.467135113283
 20
-1094.357229684109
 30
0.0
 11
1288.922299888052
 21
-1093.451094258475
 31
0.0
  0
LINE
  5
1A3
  8
ZUWAKU
  6
CONTINUOUS
 62
     4
 10
1288.922299888052
 20
-1093.451094258475
 30
0.0
 11
1288.263451701319
 21
-1092.555453893846
 31
0.0
  0
LINE
  5
1A4
  8
ZUWAKU
  6
CONTINUOUS
 62
     4
 10
1287.276304870343
 20
-1091.480848727192
 30
0.0
 11
1286.700446460477
 21
-1090.925894008946
 31
0.0
  0
LINE
  5
1A5
  8
ZUWAKU
  6
CONTINUOUS
 62
     4
 10
1286.700446460477
 20
-1090.925894008946
 30
0.0
 11
1285.782839341592
 21
-1090.169921697656
 31
0.0
  0
LINE
  5
1A6
  8
ZUWAKU
  6
CONTINUOUS
 62
     4
 10
1285.782839341592
 20
-1090.169921697656
 30
0.0
 11
1284.78783359864
 21
-1089.466709320365
 31
0.0
  0
LINE
  5
1A7
  8
ZUWAKU
  6
CONTINUOUS
 62
     4
 10
1284.78783359864
 20
-1089.466709320365
 30
0.0
 11
1283.723001826123
 21
-1088.821608747884
 31
0.0
  0
LINE
  5
1A8
  8
ZUWAKU
  6
CONTINUOUS
 62
     4
 10
1283.723001826123
 20
-1088.821608747884
 30
0.0
 11
1282.596448036803
 21
-1088.239529585066
 31
0.0
  0
LINE
  5
1A9
  8
ZUWAKU
  6
CONTINUOUS
 62
     4
 10
1282.596448036803
 20
-1088.239529585066
 30
0.0
 11
1281.416745985237
 21
-1087.724901805833
 31
0.0
  0
LINE
  5
1AA
  8
ZUWAKU
  6
CONTINUOUS
 62
     4
 10
1281.416745985237
 20
-1087.724901805833
 30
0.0
 11
1280.192873916372
 21
-1087.281642038318
 31
0.0
  0
LINE
  5
1AB
  8
ZUWAKU
  6
CONTINUOUS
 62
     4
 10
1280.192873916372
 20
-1087.281642038318
 30
0.0
 11
1278.934146235636
 21
-1086.91312375699
 31
0.0
  0
LINE
  5
1AC
  8
ZUWAKU
  6
CONTINUOUS
 62
     4
 10
1278.934146235636
 20
-1086.91312375699
 30
0.0
 11
1277.650142620728
 21
-1086.62215160851
 31
0.0
  0
LINE
  5
1AD
  8
ZUWAKU
  6
CONTINUOUS
 62
     4
 10
1277.650142620728
 20
-1086.62215160851
 30
0.0
 11
1276.350635114453
 21
-1086.410940066595
 31
0.0
  0
LINE
  5
1AE
  8
ZUWAKU
  6
CONTINUOUS
 62
     4
 10
1276.350635114453
 20
-1086.410940066595
 30
0.0
 11
1275.045513753604
 21
-1086.281096578638
 31
0.0
  0
LINE
  5
1AF
  8
ZUWAKU
  6
CONTINUOUS
 62
     4
 10
1275.045513753604
 20
-1086.281096578638
 30
0.0
 11
1273.744711299785
 21
-1086.233609331962
 31
0.0
  0
LINE
  5
1B0
  8
ZUWAKU
  6
CONTINUOUS
 62
     4
 10
1273.744711299785
 20
-1086.233609331962
 30
0.0
 11
1272.458127645117
 21
-1086.268839733199
 31
0.0
  0
LINE
  5
1B1
  8
ZUWAKU
  6
CONTINUOUS
 62
     4
 10
1272.458127645117
 20
-1086.268839733199
 30
0.0
 11
1271.195554468078
 21
-1086.386519657721
 31
0.0
  0
LINE
  5
1B2
  8
ZUWAKU
  6
CONTINUOUS
 62
     4
 10
1271.195554468078
 20
-1086.386519657721
 30
0.0
 11
1269.966600712905
 21
-1086.585753490236
 31
0.0
  0
LINE
  5
1B3
  8
ZUWAKU
  6
CONTINUOUS
 62
     4
 10
1269.966600712905
 20
-1086.585753490236
 30
0.0
 11
1268.780619459734
 21
-1086.865024940999
 31
0.0
  0
LINE
  5
1B4
  8
ZUWAKU
  6
CONTINUOUS
 62
     4
 10
1268.780619459734
 20
-1086.865024940999
 30
0.0
 11
1267.646636742021
 21
-1087.222208585624
 31
0.0
  0
LINE
  5
1B5
  8
ZUWAKU
  6
CONTINUOUS
 62
     4
 10
1267.646636742021
 20
-1087.222208585624
 30
0.0
 11
1266.573282852961
 21
-1087.654586040907
 31
0.0
  0
LINE
  5
1B6
  8
ZUWAKU
  6
CONTINUOUS
 62
     4
 10
1266.573282852961
 20
-1087.654586040907
 30
0.0
 11
1265.568726663763
 21
-1088.158866653332
 31
0.0
  0
LINE
  5
1B7
  8
ZUWAKU
  6
CONTINUOUS
 62
     4
 10
1265.568726663763
 20
-1088.158866653332
 30
0.0
 11
1264.640613453589
 21
-1088.731212542953
 31
0.0
  0
LINE
  5
1B8
  8
ZUWAKU
  6
CONTINUOUS
 62
     4
 10
1264.640613453589
 20
-1088.731212542953
 30
0.0
 11
1263.796006724385
 21
-1089.367267811955
 31
0.0
  0
LINE
  5
1B9
  8
ZUWAKU
  6
CONTINUOUS
 62
     4
 10
1263.796006724385
 20
-1089.367267811955
 30
0.0
 11
1263.041334443341
 21
-1090.062191695685
 31
0.0
  0
LINE
  5
1BA
  8
ZUWAKU
  6
CONTINUOUS
 62
     4
 10
1263.041334443341
 20
-1090.062191695685
 30
0.0
 11
1262.515500473975
 21
-1090.659448247505
 31
0.0
  0
LINE
  5
1BB
  8
ZUWAKU
  6
CONTINUOUS
 62
     4
 10
1261.786162609012
 20
-1091.677111752237
 30
0.0
 11
1261.370680401585
 21
-1092.445291611807
 31
0.0
  0
LINE
  5
1BC
  8
ZUWAKU
  6
CONTINUOUS
 62
     4
 10
1261.370680401585
 20
-1092.445291611807
 30
0.0
 11
1261.336432518841
 21
-1092.532026925685
 31
0.0
  0
LINE
  5
1BD
  8
ZUWAKU
  6
CONTINUOUS
 62
     4
 10
1260.976395572953
 20
-1093.509189266105
 30
0.0
 11
1260.79176633121
 21
-1094.221390057425
 31
0.0
  0
LINE
  5
1BE
  8
ZUWAKU
  6
CONTINUOUS
 62
     4
 10
1260.79176633121
 20
-1094.221390057425
 30
0.0
 11
1260.670616850551
 21
-1095.145762080669
 31
0.0
  0
LINE
  5
1BF
  8
ZUWAKU
  6
CONTINUOUS
 62
     4
 10
1260.670616850551
 20
-1095.145762080669
 30
0.0
 11
1260.663187922158
 21
-1096.085024888111
 31
0.0
  0
LINE
  5
1C0
  8
ZUWAKU
  6
CONTINUOUS
 62
     4
 10
1260.663187922158
 20
-1096.085024888111
 30
0.0
 11
1260.769536084664
 21
-1097.032030122628
 31
0.0
  0
LINE
  5
1C1
  8
ZUWAKU
  6
CONTINUOUS
 62
     4
 10
1260.769536084664
 20
-1097.032030122628
 30
0.0
 11
1260.988851964331
 21
-1097.979570502569
 31
0.0
  0
LINE
  5
1C2
  8
ZUWAKU
  6
CONTINUOUS
 62
     4
 10
1260.988851964331
 20
-1097.979570502569
 30
0.0
 11
1261.319466434893
 21
-1098.920434673518
 31
0.0
  0
LINE
  5
1C3
  8
ZUWAKU
  6
CONTINUOUS
 62
     4
 10
1261.319466434893
 20
-1098.920434673518
 30
0.0
 11
1261.758863320597
 21
-1099.84746209101
 31
0.0
  0
LINE
  5
1C4
  8
ZUWAKU
  6
CONTINUOUS
 62
     4
 10
1261.758863320597
 20
-1099.84746209101
 30
0.0
 11
1262.303698545829
 21
-1100.753597516644
 31
0.0
  0
LINE
  5
1C5
  8
ZUWAKU
  6
CONTINUOUS
 62
     4
 10
1262.303698545829
 20
-1100.753597516644
 30
0.0
 11
1262.949825585544
 21
-1101.631944712692
 31
0.0
  0
LINE
  5
1C6
  8
ZUWAKU
  6
CONTINUOUS
 62
     4
 10
1262.949825585544
 20
-1101.631944712692
 30
0.0
 11
1263.692327022826
 21
-1102.475818926637
 31
0.0
  0
LINE
  5
1C7
  8
ZUWAKU
  6
CONTINUOUS
 62
     4
 10
1263.692327022826
 20
-1102.475818926637
 30
0.0
 11
1264.525551973408
 21
-1103.278797766162
 31
0.0
  0
LINE
  5
1C8
  8
ZUWAKU
  6
CONTINUOUS
 62
     4
 10
1264.525551973408
 20
-1103.278797766162
 30
0.0
 11
1265.443159092293
 21
-1104.034770077452
 31
0.0
  0
LINE
  5
1C9
  8
ZUWAKU
  6
CONTINUOUS
 62
     4
 10
1265.443159092293
 20
-1104.034770077452
 30
0.0
 11
1266.438164835246
 21
-1104.737982454743
 31
0.0
  0
LINE
  5
1CA
  8
ZUWAKU
  6
CONTINUOUS
 62
     4
 10
1266.438164835246
 20
-1104.737982454743
 30
0.0
 11
1267.502996607757
 21
-1105.383083027235
 31
0.0
  0
LINE
  5
1CB
  8
ZUWAKU
  6
CONTINUOUS
 62
     4
 10
1267.502996607757
 20
-1105.383083027235
 30
0.0
 11
1268.629550397083
 21
-1105.965162190042
 31
0.0
  0
LINE
  5
1CC
  8
ZUWAKU
  6
CONTINUOUS
 62
     4
 10
1268.629550397083
 20
-1105.965162190042
 30
0.0
 11
1269.809252448643
 21
-1106.479789969276
 31
0.0
  0
LINE
  5
1CD
  8
ZUWAKU
  6
CONTINUOUS
 62
     4
 10
1269.809252448643
 20
-1106.479789969276
 30
0.0
 11
1271.033124517514
 21
-1106.923049736791
 31
0.0
  0
LINE
  5
1CE
  8
ZUWAKU
  6
CONTINUOUS
 62
     4
 10
1271.033124517514
 20
-1106.923049736791
 30
0.0
 11
1272.291852198244
 21
-1107.291568018118
 31
0.0
  0
LINE
  5
1CF
  8
ZUWAKU
  6
CONTINUOUS
 62
     4
 10
1272.291852198244
 20
-1107.291568018118
 30
0.0
 11
1273.575855813158
 21
-1107.582540166598
 31
0.0
  0
LINE
  5
1D0
  8
ZUWAKU
  6
CONTINUOUS
 62
     4
 10
1273.575855813158
 20
-1107.582540166598
 30
0.0
 11
1274.875363319433
 21
-1107.793751708513
 31
0.0
  0
LINE
  5
1D1
  8
ZUWAKU
  6
CONTINUOUS
 62
     4
 10
1274.875363319433
 20
-1107.793751708513
 30
0.0
 11
1276.180484680282
 21
-1107.923595196481
 31
0.0
  0
LINE
  5
1D2
  8
ZUWAKU
  6
CONTINUOUS
 62
     4
 10
1276.180484680282
 20
-1107.923595196481
 30
0.0
 11
1277.481287134101
 21
-1107.971082443147
 31
0.0
  0
LINE
  5
1D3
  8
ZUWAKU
  6
CONTINUOUS
 62
     4
 10
1277.481287134101
 20
-1107.971082443147
 30
0.0
 11
1278.767870788764
 21
-1107.93585204192
 31
0.0
  0
LINE
  5
1D4
  8
ZUWAKU
  6
CONTINUOUS
 62
     4
 10
1278.767870788764
 20
-1107.93585204192
 30
0.0
 11
1280.030443965802
 21
-1107.818172117398
 31
0.0
  0
LINE
  5
1D5
  8
ZUWAKU
  6
CONTINUOUS
 62
     4
 10
1280.030443965802
 20
-1107.818172117398
 30
0.0
 11
1281.259397720981
 21
-1107.618938284872
 31
0.0
  0
LINE
  5
1D6
  8
ZUWAKU
  6
CONTINUOUS
 62
     4
 10
1281.259397720981
 20
-1107.618938284872
 30
0.0
 11
1282.445378974152
 21
-1107.33966683412
 31
0.0
  0
LINE
  5
1D7
  8
ZUWAKU
  6
CONTINUOUS
 62
     4
 10
1282.445378974152
 20
-1107.33966683412
 30
0.0
 11
1283.579361691865
 21
-1106.982483189485
 31
0.0
  0
LINE
  5
1D8
  8
ZUWAKU
  6
CONTINUOUS
 62
     4
 10
1283.579361691865
 20
-1106.982483189485
 30
0.0
 11
1284.652715580925
 21
-1106.550105734212
 31
0.0
  0
LINE
  5
1D9
  8
ZUWAKU
  6
CONTINUOUS
 62
     4
 10
1284.652715580925
 20
-1106.550105734212
 30
0.0
 11
1285.657271770123
 21
-1106.045825121776
 31
0.0
  0
LINE
  5
1DA
  8
ZUWAKU
  6
CONTINUOUS
 62
     4
 10
1285.657271770123
 20
-1106.045825121776
 30
0.0
 11
1286.585384980296
 21
-1105.473479232155
 31
0.0
  0
LINE
  5
1DB
  8
ZUWAKU
  6
CONTINUOUS
 62
     4
 10
1286.585384980296
 20
-1105.473479232155
 30
0.0
 11
1287.429991709501
 21
-1104.837423963153
 31
0.0
  0
LINE
  5
1DC
  8
ZUWAKU
  6
CONTINUOUS
 62
     4
 10
1287.429991709501
 20
-1104.837423963153
 30
0.0
 11
1288.184663990545
 21
-1104.142500079423
 31
0.0
  0
LINE
  5
1DD
  8
ZUWAKU
  6
CONTINUOUS
 62
     4
 10
1288.184663990545
 20
-1104.142500079423
 30
0.0
 11
1288.309054459826
 21
-1104.001213994671
 31
0.0
  0
LINE
  5
1DE
  8
ZUWAKU
  6
CONTINUOUS
 62
     4
 10
1289.010996800607
 20
-1103.15529683873
 30
0.0
 11
1289.401959328215
 21
-1102.597609404064
 31
0.0
  0
LINE
  5
1DF
  8
ZUWAKU
  6
CONTINUOUS
 62
     4
 10
1289.401959328215
 20
-1102.597609404064
 30
0.0
 11
1289.855318032301
 21
-1101.759400163301
 31
0.0
  0
LINE
  5
1E0
  8
ZUWAKU
  6
CONTINUOUS
 62
     4
 10
1289.855318032301
 20
-1101.759400163301
 30
0.0
 11
1289.900708916771
 21
-1101.644444367602
 31
0.0
  0
LINE
  5
1E1
  8
ZUWAKU
  6
CONTINUOUS
 62
     4
 10
1290.285581308873
 20
-1100.556716914413
 30
0.0
 11
1290.434232102675
 21
-1099.983301717683
 31
0.0
  0
LINE
  5
1E2
  8
ZUWAKU
  6
CONTINUOUS
 62
     4
 10
1259.272895816653
 20
-1096.578088428746
 30
0.0
 11
1259.143391199398
 21
-1097.566210246704
 31
0.0
  0
LINE
  5
1E3
  8
ZUWAKU
  6
CONTINUOUS
 62
     4
 10
1259.143391199398
 20
-1097.566210246704
 30
0.0
 11
1259.135449931114
 21
-1098.570249799483
 31
0.0
  0
LINE
  5
1E4
  8
ZUWAKU
  6
CONTINUOUS
 62
     4
 10
1259.135449931114
 20
-1098.570249799483
 30
0.0
 11
1259.249132449654
 21
-1099.582565739824
 31
0.0
  0
LINE
  5
1E5
  8
ZUWAKU
  6
CONTINUOUS
 62
     4
 10
1259.249132449654
 20
-1099.582565739824
 30
0.0
 11
1259.483573562401
 21
-1100.595453732178
 31
0.0
  0
LINE
  5
1E6
  8
ZUWAKU
  6
CONTINUOUS
 62
     4
 10
1259.483573562401
 20
-1100.595453732178
 30
0.0
 11
1259.836989030936
 21
-1101.601205087329
 31
0.0
  0
LINE
  5
1E7
  8
ZUWAKU
  6
CONTINUOUS
 62
     4
 10
1259.836989030936
 20
-1101.601205087329
 30
0.0
 11
1260.306689150138
 21
-1102.592165430161
 31
0.0
  0
LINE
  5
1E8
  8
ZUWAKU
  6
CONTINUOUS
 62
     4
 10
1260.306689150138
 20
-1102.592165430161
 30
0.0
 11
1260.889099218487
 21
-1103.560792954123
 31
0.0
  0
LINE
  5
1E9
  8
ZUWAKU
  6
CONTINUOUS
 62
     4
 10
1260.889099218487
 20
-1103.560792954123
 30
0.0
 11
1261.579786743701
 21
-1104.499715818868
 31
0.0
  0
LINE
  5
1EA
  8
ZUWAKU
  6
CONTINUOUS
 62
     4
 10
1261.579786743701
 20
-1104.499715818868
 30
0.0
 11
1262.373495176659
 21
-1105.401788254455
 31
0.0
  0
LINE
  5
1EB
  8
ZUWAKU
  6
CONTINUOUS
 62
     4
 10
1262.373495176659
 20
-1105.401788254455
 30
0.0
 11
1263.264183916935
 21
-1106.260144944991
 31
0.0
  0
LINE
  5
1EC
  8
ZUWAKU
  6
CONTINUOUS
 62
     4
 10
1263.264183916935
 20
-1106.260144944991
 30
0.0
 11
1264.245074285399
 21
-1107.06825327774
 31
0.0
  0
LINE
  5
1ED
  8
ZUWAKU
  6
CONTINUOUS
 62
     4
 10
1264.245074285399
 20
-1107.06825327774
 30
0.0
 11
1265.30870111407
 21
-1107.819963060367
 31
0.0
  0
LINE
  5
1EE
  8
ZUWAKU
  6
CONTINUOUS
 62
     4
 10
1265.30870111407
 20
-1107.819963060367
 30
0.0
 11
1266.446969560549
 21
-1108.50955332751
 31
0.0
  0
LINE
  5
1EF
  8
ZUWAKU
  6
CONTINUOUS
 62
     4
 10
1266.446969560549
 20
-1108.50955332751
 30
0.0
 11
1267.651216714655
 21
-1109.131775880863
 31
0.0
  0
LINE
  5
1F0
  8
ZUWAKU
  6
CONTINUOUS
 62
     4
 10
1267.651216714655
 20
-1109.131775880863
 30
0.0
 11
1268.912277528392
 21
-1109.681895231079
 31
0.0
  0
LINE
  5
1F1
  8
ZUWAKU
  6
CONTINUOUS
 62
     4
 10
1268.912277528392
 20
-1109.681895231079
 30
0.0
 11
1270.220554567529
 21
-1110.155724637728
 31
0.0
  0
LINE
  5
1F2
  8
ZUWAKU
  6
CONTINUOUS
 62
     4
 10
1270.220554567529
 20
-1110.155724637728
 30
0.0
 11
1271.566091053829
 21
-1110.549657972941
 31
0.0
  0
LINE
  5
1F3
  8
ZUWAKU
  6
CONTINUOUS
 62
     4
 10
1271.566091053829
 20
-1110.549657972941
 30
0.0
 11
1272.938646642181
 21
-1110.860697166151
 31
0.0
  0
LINE
  5
1F4
  8
ZUWAKU
  6
CONTINUOUS
 62
     4
 10
1272.938646642181
 20
-1110.860697166151
 30
0.0
 11
1274.327775355788
 21
-1111.086475021294
 31
0.0
  0
LINE
  5
1F5
  8
ZUWAKU
  6
CONTINUOUS
 62
     4
 10
1274.327775355788
 20
-1111.086475021294
 30
0.0
 11
1275.722905086351
 21
-1111.225273232558
 31
0.0
  0
LINE
  5
1F6
  8
ZUWAKU
  6
CONTINUOUS
 62
     4
 10
1275.722905086351
 20
-1111.225273232558
 30
0.0
 11
1277.113418054224
 21
-1111.276035461768
 31
0.0
  0
LINE
  5
1F7
  8
ZUWAKU
  6
CONTINUOUS
 62
     4
 10
1277.113418054224
 20
-1111.276035461768
 30
0.0
 11
1278.48873161611
 21
-1111.238375377686
 31
0.0
  0
LINE
  5
1F8
  8
ZUWAKU
  6
CONTINUOUS
 62
     4
 10
1278.48873161611
 20
-1111.238375377686
 30
0.0
 11
1279.838378805361
 21
-1111.112579596302
 31
0.0
  0
LINE
  5
1F9
  8
ZUWAKU
  6
CONTINUOUS
 62
     4
 10
1279.838378805361
 20
-1111.112579596302
 30
0.0
 11
1281.152087991924
 21
-1110.899605499472
 31
0.0
  0
LINE
  5
1FA
  8
ZUWAKU
  6
CONTINUOUS
 62
     4
 10
1281.152087991924
 20
-1110.899605499472
 30
0.0
 11
1282.419861055657
 21
-1110.601073948656
 31
0.0
  0
LINE
  5
1FB
  8
ZUWAKU
  6
CONTINUOUS
 62
     4
 10
1282.419861055657
 20
-1110.601073948656
 30
0.0
 11
1283.632049478042
 21
-1110.21925694923
 31
0.0
  0
LINE
  5
1FC
  8
ZUWAKU
  6
CONTINUOUS
 62
     4
 10
1283.632049478042
 20
-1110.21925694923
 30
0.0
 11
1284.779427773244
 21
-1109.757060359105
 31
0.0
  0
LINE
  5
1FD
  8
ZUWAKU
  6
CONTINUOUS
 62
     4
 10
1284.779427773244
 20
-1109.757060359105
 30
0.0
 11
1285.853263699629
 21
-1109.2180017734
 31
0.0
  0
LINE
  5
1FE
  8
ZUWAKU
  6
CONTINUOUS
 62
     4
 10
1285.853263699629
 20
-1109.2180017734
 30
0.0
 11
1286.8453847174
 21
-1108.606183753462
 31
0.0
  0
LINE
  5
1FF
  8
ZUWAKU
  6
CONTINUOUS
 62
     4
 10
1286.8453847174
 20
-1108.606183753462
 30
0.0
 11
1287.74824018655
 21
-1107.926262603841
 31
0.0
  0
LINE
  5
200
  8
ZUWAKU
  6
CONTINUOUS
 62
     4
 10
1287.74824018655
 20
-1107.926262603841
 30
0.0
 11
1288.546774144024
 21
-1107.190949630313
 31
0.0
  0
LINE
  5
201
  8
ZUWAKU
  6
CONTINUOUS
 62
     4
 10
1286.663839361521
 20
-1096.934974967055
 30
0.0
 11
1290.285581308873
 21
-1100.556716914413
 31
0.0
  0
LINE
  5
202
  8
ZUWAKU
  6
CONTINUOUS
 62
     4
 10
1291.112670286829
 20
-1101.383805892369
 30
0.0
 11
1296.414672216058
 21
-1106.685807821593
 31
0.0
  0
LINE
  5
203
  8
ZUWAKU
  6
CONTINUOUS
 62
     4
 10
1285.927539438867
 20
-1097.671274889709
 30
0.0
 11
1289.900708916771
 21
-1101.644444367602
 31
0.0
  0
LINE
  5
204
  8
ZUWAKU
  6
CONTINUOUS
 62
     4
 10
1290.661791977816
 20
-1102.405527428652
 30
0.0
 11
1292.214353507697
 21
-1103.958088958527
 31
0.0
  0
LINE
  5
205
  8
ZUWAKU
  6
CONTINUOUS
 62
     4
 10
1291.963660588267
 20
-1101.498496271154
 30
0.0
 11
1297.919695025618
 21
-1107.4545307085
 31
0.0
  0
LINE
  5
206
  8
ZUWAKU
  6
CONTINUOUS
 62
     4
 10
1251.901791232366
 20
-1090.224966114737
 30
0.0
 11
1251.516801382271
 21
-1092.205567194175
 31
0.0
  0
LINE
  5
207
  8
ZUWAKU
  6
CONTINUOUS
 62
     4
 10
1261.191790948936
 20
-1089.904757454308
 30
0.0
 11
1261.801577776592
 21
-1089.21214495826
 31
0.0
  0
LINE
  5
208
  8
ZUWAKU
  6
CONTINUOUS
 62
     4
 10
1261.801577776592
 20
-1089.21214495826
 30
0.0
 11
1262.647288554622
 21
-1088.43339021512
 31
0.0
  0
LINE
  5
209
  8
ZUWAKU
  6
CONTINUOUS
 62
     4
 10
1262.647288554622
 20
-1088.43339021512
 30
0.0
 11
1263.590020317182
 21
-1087.723439081536
 31
0.0
  0
LINE
  5
20A
  8
ZUWAKU
  6
CONTINUOUS
 62
     4
 10
1263.590020317182
 20
-1087.723439081536
 30
0.0
 11
1264.622102698152
 21
-1087.086977815791
 31
0.0
  0
LINE
  5
20B
  8
ZUWAKU
  6
CONTINUOUS
 62
     4
 10
1264.622102698152
 20
-1087.086977815791
 30
0.0
 11
1265.735431757671
 21
-1086.528093936512
 31
0.0
  0
LINE
  5
20C
  8
ZUWAKU
  6
CONTINUOUS
 62
     4
 10
1265.735431757671
 20
-1086.528093936512
 30
0.0
 11
1266.921488759684
 21
-1086.050316463884
 31
0.0
  0
LINE
  5
20D
  8
ZUWAKU
  6
CONTINUOUS
 62
     4
 10
1266.921488759684
 20
-1086.050316463884
 30
0.0
 11
1268.171356293525
 21
-1085.656631239181
 31
0.0
  0
LINE
  5
20E
  8
ZUWAKU
  6
CONTINUOUS
 62
     4
 10
1268.171356293525
 20
-1085.656631239181
 30
0.0
 11
1269.475741449303
 21
-1085.349478378351
 31
0.0
  0
LINE
  5
20F
  8
ZUWAKU
  6
CONTINUOUS
 62
     4
 10
1269.475741449303
 20
-1085.349478378351
 30
0.0
 11
1270.825010011627
 21
-1085.130739515604
 31
0.0
  0
LINE
  5
210
  8
ZUWAKU
  6
CONTINUOUS
 62
     4
 10
1270.825010011627
 20
-1085.130739515604
 30
0.0
 11
1272.209232062368
 21
-1085.001721135199
 31
0.0
  0
LINE
  5
211
  8
ZUWAKU
  6
CONTINUOUS
 62
     4
 10
1272.209232062368
 20
-1085.001721135199
 30
0.0
 11
1273.618237587819
 21
-1084.963138467193
 31
0.0
  0
LINE
  5
212
  8
ZUWAKU
  6
CONTINUOUS
 62
     4
 10
1273.618237587819
 20
-1084.963138467193
 30
0.0
 11
1275.041680011075
 21
-1085.015102822953
 31
0.0
  0
LINE
  5
213
  8
ZUWAKU
  6
CONTINUOUS
 62
     4
 10
1275.041680011075
 20
-1085.015102822953
 30
0.0
 11
1276.469105481742
 21
-1085.157114062273
 31
0.0
  0
LINE
  5
214
  8
ZUWAKU
  6
CONTINUOUS
 62
     4
 10
1276.469105481742
 20
-1085.157114062273
 30
0.0
 11
1277.890025906464
 21
-1085.388059087513
 31
0.0
  0
LINE
  5
215
  8
ZUWAKU
  6
CONTINUOUS
 62
     4
 10
1277.890025906464
 20
-1085.388059087513
 30
0.0
 11
1279.293993912054
 21
-1085.706216748634
 31
0.0
  0
LINE
  5
216
  8
ZUWAKU
  6
CONTINUOUS
 62
     4
 10
1279.293993912054
 20
-1085.706216748634
 30
0.0
 11
1280.670678108641
 21
-1086.109269213296
 31
0.0
  0
LINE
  5
217
  8
ZUWAKU
  6
CONTINUOUS
 62
     4
 10
1280.670678108641
 20
-1086.109269213296
 30
0.0
 11
1282.009937131686
 21
-1086.594319618722
 31
0.0
  0
LINE
  5
218
  8
ZUWAKU
  6
CONTINUOUS
 62
     4
 10
1282.009937131686
 20
-1086.594319618722
 30
0.0
 11
1283.30189098405
 21
-1087.157915605549
 31
0.0
  0
LINE
  5
219
  8
ZUWAKU
  6
CONTINUOUS
 62
     4
 10
1283.30189098405
 20
-1087.157915605549
 30
0.0
 11
1284.536988184665
 21
-1087.79607807177
 31
0.0
  0
LINE
  5
21A
  8
ZUWAKU
  6
CONTINUOUS
 62
     4
 10
1284.536988184665
 20
-1087.79607807177
 30
0.0
 11
1285.706067190905
 21
-1088.504334113409
 31
0.0
  0
LINE
  5
21B
  8
ZUWAKU
  6
CONTINUOUS
 62
     4
 10
1285.706067190905
 20
-1088.504334113409
 30
0.0
 11
1286.800410560626
 21
-1089.277752566559
 31
0.0
  0
LINE
  5
21C
  8
ZUWAKU
  6
CONTINUOUS
 62
     4
 10
1286.800410560626
 20
-1089.277752566559
 30
0.0
 11
1287.811790477442
 21
-1090.110979769762
 31
0.0
  0
LINE
  5
21D
  8
ZUWAKU
  6
CONTINUOUS
 62
     4
 10
1287.811790477442
 20
-1090.110979769762
 30
0.0
 11
1288.599141549437
 21
-1090.869749954993
 31
0.0
  0
LINE
  5
21E
  8
ZUWAKU
  6
CONTINUOUS
 62
     4
 10
1259.272895816653
 20
-1096.578088428746
 30
0.0
 11
1259.358553141429
 21
-1096.137419694555
 31
0.0
  0
LINE
  5
21F
  8
ZUWAKU
  6
CONTINUOUS
 62
     4
 10
1292.003570404607
 20
-1097.173108543547
 30
0.0
 11
1292.114705192165
 21
-1098.162737542106
 31
0.0
  0
LINE
  5
220
  8
ZUWAKU
  6
CONTINUOUS
 62
     4
 10
1292.114705192165
 20
-1098.162737542106
 30
0.0
 11
1292.106264752117
 21
-1099.229888953524
 31
0.0
  0
LINE
  5
221
  8
ZUWAKU
  6
CONTINUOUS
 62
     4
 10
1292.106264752117
 20
-1099.229888953524
 30
0.0
 11
1291.972613994683
 21
-1100.249645871893
 31
0.0
  0
LINE
  5
222
  8
ZUWAKU
  6
CONTINUOUS
 62
     4
 10
1291.972613994683
 20
-1100.249645871893
 30
0.0
 11
1291.820733553535
 21
-1101.031003005345
 31
0.0
  0
ARC
  5
223
  8
ZUWAKU
  6
CONTINUOUS
 62
     4
 10
1292.331810549594
 20
-1101.130346309827
 30
0.0
 40
0.5206426682936749
 50
168.9999999999997
 51
224.9999999999998
  0
LINE
  5
224
  8
ZUWAKU
  6
CONTINUOUS
 62
     4
 10
1297.708609720027
 20
-1109.743259581421
 30
0.0
 11
1298.062622060351
 21
-1107.922023974309
 31
0.0
  0
ARC
  5
225
  8
ZUWAKU
  6
CONTINUOUS
 62
     4
 10
1297.551545064292
 20
-1107.822680669826
 30
0.0
 40
0.5206426682936749
 50
349.0000000000001
 51
45.00000000000005
  0
ARC
  5
226
  8
ZUWAKU
  6
CONTINUOUS
 62
     4
 10
1286.663839361521
 20
-1096.934974967055
 30
0.0
 40
1.04128533658735
 50
114.9999999999996
 51
225.0
  0
ARC
  5
227
  8
ZUWAKU
  6
CONTINUOUS
 62
     4
 10
1286.663839361521
 20
-1096.934974967055
 30
0.0
 40
1.561928004881011
 50
138.0853946908566
 51
168.9999999999998
  0
ARC
  5
228
  8
ZUWAKU
  6
CONTINUOUS
 62
     4
 10
1285.114112546005
 20
-1095.543771385241
 30
0.0
 40
0.5206426682936749
 50
318.0853946908566
 51
88.10000000000012
  0
LINE
  5
229
  8
ZUWAKU
  6
CONTINUOUS
 62
     4
 10
1261.370271525003
 20
-1097.318598468043
 30
0.0
 11
1261.489593930245
 21
-1097.834123369249
 31
0.0
  0
LINE
  5
22A
  8
ZUWAKU
  6
CONTINUOUS
 62
     4
 10
1261.489593930245
 20
-1097.834123369249
 30
0.0
 11
1261.801621030928
 21
-1098.722091518056
 31
0.0
  0
LINE
  5
22B
  8
ZUWAKU
  6
CONTINUOUS
 62
     4
 10
1261.801621030928
 20
-1098.722091518056
 30
0.0
 11
1262.218315318246
 21
-1099.601221620302
 31
0.0
  0
LINE
  5
22C
  8
ZUWAKU
  6
CONTINUOUS
 62
     4
 10
1262.218315318246
 20
-1099.601221620302
 30
0.0
 11
1262.737427318035
 21
-1100.464575807215
 31
0.0
  0
LINE
  5
22D
  8
ZUWAKU
  6
CONTINUOUS
 62
     4
 10
1262.737427318035
 20
-1100.464575807215
 30
0.0
 11
1263.355734349348
 21
-1101.305104393502
 31
0.0
  0
LINE
  5
22E
  8
ZUWAKU
  6
CONTINUOUS
 62
     4
 10
1263.355734349348
 20
-1101.305104393502
 30
0.0
 11
1264.069045076919
 21
-1102.115802527271
 31
0.0
  0
LINE
  5
22F
  8
ZUWAKU
  6
CONTINUOUS
 62
     4
 10
1264.069045076919
 20
-1102.115802527271
 30
0.0
 11
1264.872244456338
 21
-1102.88984572551
 31
0.0
  0
LINE
  5
230
  8
ZUWAKU
  6
CONTINUOUS
 62
     4
 10
1264.872244456338
 20
-1102.88984572551
 30
0.0
 11
1265.759362026872
 21
-1103.620699166346
 31
0.0
  0
LINE
  5
231
  8
ZUWAKU
  6
CONTINUOUS
 62
     4
 10
1265.759362026872
 20
-1103.620699166346
 30
0.0
 11
1266.723651228774
 21
-1104.302202873104
 31
0.0
  0
LINE
  5
232
  8
ZUWAKU
  6
CONTINUOUS
 62
     4
 10
1266.723651228774
 20
-1104.302202873104
 30
0.0
 11
1267.757672441524
 21
-1104.9286376711
 31
0.0
  0
LINE
  5
233
  8
ZUWAKU
  6
CONTINUOUS
 62
     4
 10
1267.757672441524
 20
-1104.9286376711
 30
0.0
 11
1268.853376184346
 21
-1105.494776921049
 31
0.0
  0
LINE
  5
234
  8
ZUWAKU
  6
CONTINUOUS
 62
     4
 10
1268.853376184346
 20
-1105.494776921049
 30
0.0
 11
1270.002185197279
 21
-1105.995928063662
 31
0.0
  0
LINE
  5
235
  8
ZUWAKU
  6
CONTINUOUS
 62
     4
 10
1270.002185197279
 20
-1105.995928063662
 30
0.0
 11
1271.195075282237
 21
-1106.42796683241
 31
0.0
  0
LINE
  5
236
  8
ZUWAKU
  6
CONTINUOUS
 62
     4
 10
1271.195075282237
 20
-1106.42796683241
 30
0.0
 11
1272.422655252686
 21
-1106.787365984278
 31
0.0
  0
LINE
  5
237
  8
ZUWAKU
  6
CONTINUOUS
 62
     4
 10
1272.422655252686
 20
-1106.787365984278
 30
0.0
 11
1273.675246450356
 21
-1107.071219664857
 31
0.0
  0
LINE
  5
238
  8
ZUWAKU
  6
CONTINUOUS
 62
     4
 10
1273.675246450356
 20
-1107.071219664857
 30
0.0
 11
1274.942962245517
 21
-1107.277264036665
 31
0.0
  0
LINE
  5
239
  8
ZUWAKU
  6
CONTINUOUS
 62
     4
 10
1274.942962245517
 20
-1107.277264036665
 30
0.0
 11
1276.215787866267
 21
-1107.403894496588
 31
0.0
  0
LINE
  5
23A
  8
ZUWAKU
  6
CONTINUOUS
 62
     4
 10
1276.215787866267
 20
-1107.403894496588
 30
0.0
 11
1277.483660864698
 21
-1107.450179616703
 31
0.0
  0
LINE
  5
23B
  8
ZUWAKU
  6
CONTINUOUS
 62
     4
 10
1277.483660864698
 20
-1107.450179616703
 30
0.0
 11
1278.736552555801
 21
-1107.415871799389
 31
0.0
  0
LINE
  5
23C
  8
ZUWAKU
  6
CONTINUOUS
 62
     4
 10
1278.736552555801
 20
-1107.415871799389
 30
0.0
 11
1279.964550871338
 21
-1107.3014144739
 31
0.0
  0
LINE
  5
23D
  8
ZUWAKU
  6
CONTINUOUS
 62
     4
 10
1279.964550871338
 20
-1107.3014144739
 30
0.0
 11
1281.157945250761
 21
-1107.107945407279
 31
0.0
  0
LINE
  5
23E
  8
ZUWAKU
  6
CONTINUOUS
 62
     4
 10
1281.157945250761
 20
-1107.107945407279
 30
0.0
 11
1282.307314411882
 21
-1106.837295266542
 31
0.0
  0
LINE
  5
23F
  8
ZUWAKU
  6
CONTINUOUS
 62
     4
 10
1282.307314411882
 20
-1106.837295266542
 30
0.0
 11
1283.403618018144
 21
-1106.491979847194
 31
0.0
  0
LINE
  5
240
  8
ZUWAKU
  6
CONTINUOUS
 62
     4
 10
1284.191000757411
 20
-1106.174799699435
 30
0.0
 11
1283.403618018144
 21
-1106.491979847194
 31
0.0
  0
LINE
  5
241
  8
ZUWAKU
  6
CONTINUOUS
 62
     4
 10
1285.182502632043
 20
-1099.978339585615
 30
0.0
 11
1286.355605608503
 21
-1101.151442562074
 31
0.0
  0
LINE
  5
242
  8
ZUWAKU
  6
CONTINUOUS
 62
     4
 10
1285.130608373337
 20
-1096.636945053586
 30
0.0
 11
1284.75372152784
 21
-1098.575859788177
 31
0.0
  0
ARC
  5
243
  8
ZUWAKU
  6
CONTINUOUS
 62
     4
 10
1286.286952516018
 20
-1098.873889701634
 30
0.0
 40
1.561928004881024
 50
168.9999999999998
 51
224.9999999999996
  0
LINE
  5
244
  8
ZUWAKU
  6
CONTINUOUS
 62
     4
 10
1253.941899448429
 20
-1090.375032608885
 30
0.0
 11
1261.299992218022
 21
-1090.619125685746
 31
0.0
  0
LINE
  5
245
  8
ZUWAKU
  6
CONTINUOUS
 62
     4
 10
1262.515500473975
 20
-1090.659448247505
 30
0.0
 11
1287.276304870343
 21
-1091.480848727192
 31
0.0
  0
LINE
  5
246
  8
ZUWAKU
  6
CONTINUOUS
 62
     4
 10
1288.499321937124
 20
-1091.521420381869
 30
0.0
 11
1296.797198013674
 21
-1091.796689281881
 31
0.0
  0
LINE
  5
247
  8
ZUWAKU
  6
CONTINUOUS
 62
     4
 10
1296.877976897186
 20
-1092.193730179134
 30
0.0
 11
1290.819766618449
 21
-1095.00585776287
 31
0.0
  0
LINE
  5
248
  8
ZUWAKU
  6
CONTINUOUS
 62
     4
 10
1289.950492886127
 20
-1095.409361195075
 30
0.0
 11
1286.663839361521
 21
-1096.934974967055
 31
0.0
  0
ARC
  5
249
  8
ZUWAKU
  6
CONTINUOUS
 62
     4
 10
1296.790293213458
 20
-1092.004831852781
 30
0.0
 40
0.2082570673174699
 50
294.9000000000007
 51
88.09999999999967
  0
LINE
  5
24A
  8
ZUWAKU
  6
CONTINUOUS
 62
     4
 10
1296.192779573333
 20
-1107.027492527851
 30
0.0
 11
1289.276555571826
 21
-1104.372602875425
 31
0.0
  0
LINE
  5
24B
  8
ZUWAKU
  6
CONTINUOUS
 62
     4
 10
1288.309054459832
 20
-1104.001213994671
 30
0.0
 11
1260.976395572953
 21
-1093.509189266105
 31
0.0
  0
LINE
  5
24C
  8
ZUWAKU
  6
CONTINUOUS
 62
     4
 10
1259.9999068798
 20
-1093.134350376183
 30
0.0
 11
1253.86036199002
 21
-1090.777599901511
 31
0.0
  0
ARC
  5
24D
  8
ZUWAKU
  6
CONTINUOUS
 62
     4
 10
1253.934994648212
 20
-1090.583175179786
 30
0.0
 40
0.2082570673174699
 50
90.00000000000001
 51
249.0000000000023
  0
ARC
  5
24E
  8
ZUWAKU
  6
CONTINUOUS
 62
     4
 10
1296.267412231525
 20
-1106.833067806125
 30
0.0
 40
0.2082570673174699
 50
249.0000000000006
 51
45.0
  0
LINE
  5
24F
  8
ZUWAKU
  6
CONTINUOUS
 62
     4
 10
1288.943162336643
 20
-1091.015215017553
 30
0.0
 11
1298.215140292795
 21
-1091.322798205042
 31
0.0
  0
ARC
  5
250
  8
ZUWAKU
  6
CONTINUOUS
 62
     4
 10
1288.960424337188
 20
-1090.494858590297
 30
0.0
 40
0.5206426682936749
 50
226.0590228224399
 51
268.1000000000001
  0
LINE
  5
251
  8
ZUWAKU
  6
CONTINUOUS
 62
     4
 10
1252.430130228971
 20
-1089.803952991963
 30
0.0
 11
1260.783756008944
 21
-1090.081071300116
 31
0.0
  0
ARC
  5
252
  8
ZUWAKU
  6
CONTINUOUS
 62
     4
 10
1252.412868228426
 20
-1090.324309419219
 30
0.0
 40
0.5206426682936749
 50
88.10000000000028
 51
168.9999999999999
  0
ARC
  5
253
  8
ZUWAKU
  6
CONTINUOUS
 62
     4
 10
1260.801018009489
 20
-1089.560714872871
 30
0.0
 40
0.5206426682936749
 50
268.1000000000004
 51
318.638806595188
  0
LINE
  5
254
  8
ZUWAKU
  6
CONTINUOUS
 62
     4
 10
1298.708955288314
 20
-1091.94249793678
 30
0.0
 11
1298.390878856228
 21
-1093.578859322825
 31
0.0
  0
ARC
  5
255
  8
ZUWAKU
  6
CONTINUOUS
 62
     4
 10
1298.19787829225
 20
-1091.843154632298
 30
0.0
 40
0.5206426682936749
 50
349.0000000000001
 51
88.10000000000001
  0
LINE
  5
256
  8
ZUWAKU
  6
CONTINUOUS
 62
     4
 10
1298.099011069488
 20
-1093.951761834197
 30
0.0
 11
1292.301751636825
 21
-1096.642760068106
 31
0.0
  0
ARC
  5
257
  8
ZUWAKU
  6
CONTINUOUS
 62
     4
 10
1297.879801860169
 20
-1093.479516018343
 30
0.0
 40
0.5206426682936749
 50
294.9000000000004
 51
349.0000000000001
  0
ARC
  5
258
  8
ZUWAKU
  6
CONTINUOUS
 62
     4
 10
1292.520960846144
 20
-1097.115005883971
 30
0.0
 40
0.5206426682936749
 50
114.9
 51
186.40743915255
  0
LINE
  5
259
  8
ZUWAKU
  6
CONTINUOUS
 62
     4
 10
1291.992460864972
 20
-1104.299773664786
 30
0.0
 11
1289.969661715156
 21
-1103.52329382108
 31
0.0
  0
ARC
  5
25A
  8
ZUWAKU
  6
CONTINUOUS
 62
     4
 10
1292.067093523164
 20
-1104.10534894306
 30
0.0
 40
0.2082570673174699
 50
248.999999999998
 51
45.00000000000102
  0
LINE
  5
25B
  8
ZUWAKU
  6
CONTINUOUS
 62
     4
 10
1289.010996800607
 20
-1103.15529683873
 30
0.0
 11
1261.336432518841
 21
-1092.532026925685
 31
0.0
  0
LINE
  5
25C
  8
ZUWAKU
  6
CONTINUOUS
 62
     4
 10
1260.373359254241
 20
-1092.162337736304
 30
0.0
 11
1258.856085992969
 21
-1091.579911099977
 31
0.0
  0
LINE
  5
25D
  8
ZUWAKU
  6
CONTINUOUS
 62
     4
 10
1286.133712965783
 20
-1101.493127268332
 30
0.0
 11
1270.669139311434
 21
-1095.556833625273
 31
0.0
  0
ARC
  5
25E
  8
ZUWAKU
  6
CONTINUOUS
 62
     4
 10
1286.208345623975
 20
-1101.298702546607
 30
0.0
 40
0.2082570673174699
 50
249.0000000000001
 51
44.99999999999837
  0
LINE
  5
25F
  8
ZUWAKU
  6
CONTINUOUS
 62
     4
 10
1251.841296732847
 20
-1092.790972302981
 30
0.0
 11
1259.034057790853
 21
-1095.552014585749
 31
0.0
  0
ARC
  5
260
  8
ZUWAKU
  6
CONTINUOUS
 62
     4
 10
1258.84747614537
 20
-1096.038076390073
 30
0.0
 40
0.5206426682936749
 50
349.0000000000001
 51
69.00000000000003
  0
LINE
  5
261
  8
ZUWAKU
  6
CONTINUOUS
 62
     4
 10
1262.064086138325
 20
-1096.715133493487
 30
0.0
 11
1284.183043612181
 21
-1105.205805760172
 31
0.0
  0
ARC
  5
262
  8
ZUWAKU
  6
CONTINUOUS
 62
     4
 10
1283.996461966698
 20
-1105.691867564496
 30
0.0
 40
0.5206426682936749
 50
291.9409771775847
 51
69.00000000000003
  0
LINE
  5
263
  8
ZUWAKU
  6
CONTINUOUS
 62
     4
 10
1289.086032166905
 20
-1107.087886730526
 30
0.0
 11
1297.010951078485
 21
-1110.129978081252
 31
0.0
  0
ARC
  5
264
  8
ZUWAKU
  6
CONTINUOUS
 62
     4
 10
1297.197532723968
 20
-1109.643916276928
 30
0.0
 40
0.5206426682936749
 50
249.0000000000001
 51
349.0000000000001
  0
ARC
  5
265
  8
ZUWAKU
  6
CONTINUOUS
 62
     4
 10
1288.899450521423
 20
-1107.573948534839
 30
0.0
 40
0.5206426682936749
 50
69.00000000000004
 51
132.6397603242119
  0
ARC
  5
266
  8
ZUWAKU
  6
CONTINUOUS
 62
     4
 10
1261.877504492842
 20
-1097.2011952978
 30
0.0
 40
0.5206426682936749
 50
69.00000000000004
 51
193.0320838540856
  0
ARC
  5
267
  8
ZUWAKU
  6
CONTINUOUS
 62
     4
 10
1252.02787837833
 20
-1092.304910498657
 30
0.0
 40
0.5206426682936749
 50
168.9999999999999
 51
249.0000000000001
  0
LINE
  5
268
  8
ZUWAKU
  6
CONTINUOUS
 62
     4
 10
1261.786162609012
 20
-1091.677111752237
 30
0.0
 11
1288.263451701319
 21
-1092.555453893846
 31
0.0
  0
LINE
  5
269
  8
ZUWAKU
  6
CONTINUOUS
 62
     4
 10
1258.856085992969
 20
-1091.579911099977
 30
0.0
 11
1260.650595293623
 21
-1091.63944110461
 31
0.0
  0
LINE
  5
26A
  8
ZUWAKU
  6
CONTINUOUS
 62
     4
 10
1289.512074467489
 20
-1094.464869563356
 30
0.0
 11
1286.225420942882
 21
-1095.990483335336
 31
0.0
  0
LINE
  5
26B
  8
ZUWAKU
  6
CONTINUOUS
 62
     4
 10
1270.872982957456
 20
-1094.550415393704
 30
0.0
 11
1285.13137454655
 21
-1095.023414957985
 31
0.0
  0
ARC
  5
26C
  8
ZUWAKU
  6
CONTINUOUS
 62
     4
 10
1270.855720956916
 20
-1095.070771820949
 30
0.0
 40
0.5206426682936749
 50
88.10000000000008
 51
249.0000000000001
  0
LINE
  5
26D
  8
ZUWAKU
  6
CONTINUOUS
 62
     4
 10
1279.102864252399
 20
-1089.663328313018
 30
0.0
 11
1278.437429713203
 21
-1089.468508737297
 31
0.0
  0
LINE
  5
26E
  8
ZUWAKU
  6
CONTINUOUS
 62
     4
 10
1278.437429713203
 20
-1089.468508737297
 30
0.0
 11
1277.153426098289
 21
-1089.177536588807
 31
0.0
  0
LINE
  5
26F
  8
ZUWAKU
  6
CONTINUOUS
 62
     4
 10
1277.153426098289
 20
-1089.177536588807
 30
0.0
 11
1275.853918592014
 21
-1088.966325046903
 31
0.0
  0
LINE
  5
270
  8
ZUWAKU
  6
CONTINUOUS
 62
     4
 10
1275.853918592014
 20
-1088.966325046903
 30
0.0
 11
1274.548797231165
 21
-1088.836481558935
 31
0.0
  0
LINE
  5
271
  8
ZUWAKU
  6
CONTINUOUS
 62
     4
 10
1274.548797231165
 20
-1088.836481558935
 30
0.0
 11
1273.247994777346
 21
-1088.788994312258
 31
0.0
  0
LINE
  5
272
  8
ZUWAKU
  6
CONTINUOUS
 62
     4
 10
1273.247994777346
 20
-1088.788994312258
 30
0.0
 11
1271.961411122683
 21
-1088.824224713496
 31
0.0
  0
LINE
  5
273
  8
ZUWAKU
  6
CONTINUOUS
 62
     4
 10
1271.961411122683
 20
-1088.824224713496
 30
0.0
 11
1270.698837945645
 21
-1088.941904638018
 31
0.0
  0
LINE
  5
274
  8
ZUWAKU
  6
CONTINUOUS
 62
     4
 10
1270.698837945645
 20
-1088.941904638018
 30
0.0
 11
1269.469884190466
 21
-1089.141138470532
 31
0.0
  0
LINE
  5
275
  8
ZUWAKU
  6
CONTINUOUS
 62
     4
 10
1269.469884190466
 20
-1089.141138470532
 30
0.0
 11
1268.709307816647
 21
-1089.320236805158
 31
0.0
  0
LINE
  5
276
  8
ZUWAKU
  6
CONTINUOUS
 62
     4
 10
1268.811381341625
 20
-1090.347375059621
 30
0.0
 11
1278.939314089704
 21
-1090.683353192014
 31
0.0
  0
ARC
  5
277
  8
ZUWAKU
  6
CONTINUOUS
 62
     4
 10
1268.82864334217
 20
-1089.827018632365
 30
0.0
 40
0.5206426682936749
 50
103.2504547662732
 51
268.1000000000001
  0
ARC
  5
278
  8
ZUWAKU
  6
CONTINUOUS
 62
     4
 10
1278.956576090249
 20
-1090.162996764758
 30
0.0
 40
0.5206426682936749
 50
268.1000000000001
 51
73.68152816059933
  0
LINE
  5
279
  8
ZUWAKU
  6
CONTINUOUS
 62
     4
 10
1265.333333333324
 20
-702.0000000000192
 30
0.0
 11
1265.333333333324
 21
-892.0000000000173
 31
0.0
  0
LINE
  5
27A
  8
ZUWAKU
  6
CONTINUOUS
 62
     4
 10
905.3333333333256
 20
-702.0000000000181
 30
0.0
 11
905.3333333333242
 21
-892.0000000000173
 31
0.0
  0
LINE
  5
27B
  8
ZUWAKU
  6
CONTINUOUS
 62
     4
 10
1145.333333333321
 20
-702.0000000000189
 30
0.0
 11
1145.333333333325
 21
-892.0000000000173
 31
0.0
  0
LINE
  5
27C
  8
ZUWAKU
  6
CONTINUOUS
 62
     4
 10
1345.333333333323
 20
-702.0000000000194
 30
0.0
 11
1345.333333333324
 21
-892.0000000000173
 31
0.0
  0
LINE
  5
27D
  8
ZUWAKU
  6
CONTINUOUS
 62
     4
 10
825.3333333333235
 20
-702.0000000000178
 30
0.0
 11
825.333333333322
 21
-892.0000000000172
 31
0.0
  0
LINE
  5
27E
  8
ZUWAKU
  6
CONTINUOUS
 62
     4
 10
825.3333333333239
 20
-822.0000000000176
 30
0.0
 11
1617.333333333323
 21
-822.0000000000201
 31
0.0
  0
LINE
  5
27F
  8
ZUWAKU
  6
CONTINUOUS
 62
     4
 10
825.3333333333239
 20
-782.0000000000176
 30
0.0
 11
1617.333333333323
 21
-782.0000000000201
 31
0.0
  0
LINE
  5
280
  8
ZUWAKU
  6
CONTINUOUS
 62
     4
 10
825.3333333333239
 20
-742.0000000000177
 30
0.0
 11
1617.333333333323
 21
-742.0000000000202
 31
0.0
  0
LINE
  5
281
  8
ZUWAKU
  6
CONTINUOUS
 62
     4
 10
825.333333333324
 20
-702.0000000000178
 30
0.0
 11
1617.333333333323
 21
-702.0000000000203
 31
0.0
  0
TEXT
  5
282
  8
ZUWAKU
 62
     4
 10
836.7333333333238
 20
-934.0000000000173
 30
0.0
 40
24.0
  1
図
 41
1.120000000000003
  7
DCSTYLE0
 72
     5
 11
855.9333333333238
 21
-934.0000000000173
 31
0.0
  0
TEXT
  5
283
  8
ZUWAKU
 62
     4
 10
836.7333333333245
 20
-970.0000000000175
 30
0.0
 40
24.0
  1
名
 41
1.120000000000003
  7
DCSTYLE0
 72
     5
 11
855.9333333333245
 21
-970.0000000000175
 31
0.0
  0
TEXT
  5
284
  8
ZUWAKU
 62
     4
 10
836.7333333333241
 20
-1018.000000000018
 30
0.0
 40
24.0
  1
尺
 41
1.120000000000003
  7
DCSTYLE0
 72
     5
 11
855.9333333333242
 21
-1018.000000000018
 31
0.0
  0
TEXT
  5
285
  8
ZUWAKU
 62
     4
 10
836.7333333333241
 20
-1042.000000000018
 30
0.0
 40
24.0
  1
度
 41
1.120000000000003
  7
DCSTYLE0
 72
     5
 11
855.9333333333242
 21
-1042.000000000018
 31
0.0
  0
TEXT
  5
286
  8
ZUWAKU
 62
     4
 10
1414.233333333324
 20
-934.0000000000175
 30
0.0
 40
24.0
  1
図
 41
1.120000000000003
  7
DCSTYLE0
 72
     5
 11
1433.433333333324
 21
-934.0000000000175
 31
0.0
  0
TEXT
  5
287
  8
ZUWAKU
 62
     4
 10
1414.233333333324
 20
-970.0000000000177
 30
0.0
 40
24.0
  1
番
 41
1.120000000000003
  7
DCSTYLE0
 72
     5
 11
1433.433333333324
 21
-970.0000000000177
 31
0.0
  0
TEXT
  5
288
  8
ZUWAKU
 62
     4
 10
1414.233333333324
 20
-1018.000000000017
 30
0.0
 40
24.0
  1
日
 41
1.120000000000003
  7
DCSTYLE0
 72
     5
 11
1433.433333333325
 21
-1018.000000000017
 31
0.0
  0
TEXT
  5
289
  8
ZUWAKU
 62
     4
 10
1414.233333333324
 20
-1042.000000000017
 30
0.0
 40
24.0
  1
付
 41
1.120000000000003
  7
DCSTYLE0
 72
     5
 11
1433.433333333325
 21
-1042.000000000017
 31
0.0
  0
TEXT
  5
28A
  8
ZUWAKU
 62
     4
 10
1445.840939904006
 20
-1030.2711876783
 30
0.0
 40
24.0
  1
2020.4.24
 41
0.8373417721518991
  7
DCSTYLE0
 72
     5
 11
1597.040939904006
 21
-1030.2711876783
 31
0.0
  0
TEXT
  5
28B
  8
ZUWAKU
 62
     4
 10
887.7333333333241
 20
-1030.000000000017
 30
0.0
 40
24.0
  1
 
 41
0.8000000000000019
  7
DCSTYLE0
 72
     5
 11
906.9333333333242
 21
-1030.000000000017
 31
0.0
  0
TEXT
  5
28C
  8
ZUWAKU
 62
     4
 10
836.7333333333238
 20
-889.0000000000199
 30
0.0
 40
24.0
  1
番
 41
1.120000000000003
  7
DCSTYLE0
 72
     5
 11
855.9333333333238
 21
-889.0000000000199
 31
0.0
  0
TEXT
  5
28D
  8
ZUWAKU
 62
     4
 10
874.7333333333238
 20
-889.0000000000199
 30
0.0
 40
24.0
  1
号
 41
1.120000000000003
  7
DCSTYLE0
 72
     5
 11
893.9333333333238
 21
-889.0000000000199
 31
0.0
  0
TEXT
  5
28E
  8
ZUWAKU
 62
     4
 10
937.7333333333239
 20
-889.0000000000199
 30
0.0
 40
24.0
  1
品
 41
1.120000000000003
  7
DCSTYLE0
 72
     5
 11
956.933333333324
 21
-889.0000000000199
 31
0.0
  0
TEXT
  5
28F
  8
ZUWAKU
 62
     4
 10
1093.733333333324
 20
-889.0000000000199
 30
0.0
 40
24.0
  1
名
 41
1.120000000000003
  7
DCSTYLE0
 72
     5
 11
1112.933333333324
 21
-889.0000000000199
 31
0.0
  0
TEXT
  5
290
  8
ZUWAKU
 62
     4
 10
1165.733333333324
 20
-889.0000000000199
 30
0.0
 40
24.0
  1
材
 41
1.120000000000003
  7
DCSTYLE0
 72
     5
 11
1184.933333333324
 21
-889.0000000000199
 31
0.0
  0
TEXT
  5
291
  8
ZUWAKU
 62
     4
 10
1225.733333333322
 20
-889.0000000000199
 30
0.0
 40
24.0
  1
質
 41
1.120000000000003
  7
DCSTYLE0
 72
     5
 11
1244.933333333322
 21
-889.0000000000199
 31
0.0
  0
TEXT
  5
292
  8
ZUWAKU
 62
     4
 10
1276.733333333322
 20
-889.0000000000199
 30
0.0
 40
24.0
  1
個
 41
1.120000000000003
  7
DCSTYLE0
 72
     5
 11
1295.933333333322
 21
-889.0000000000199
 31
0.0
  0
TEXT
  5
293
  8
ZUWAKU
 62
     4
 10
1314.733333333324
 20
-889.0000000000199
 30
0.0
 40
24.0
  1
数
 41
1.120000000000003
  7
DCSTYLE0
 72
     5
 11
1333.933333333324
 21
-889.0000000000199
 31
0.0
  0
TEXT
  5
294
  8
ZUWAKU
 62
     4
 10
1377.733333333324
 20
-889.0000000000197
 30
0.0
 40
24.0
  1
記
 41
1.120000000000003
  7
DCSTYLE0
 72
     5
 11
1396.933333333324
 21
-889.0000000000197
 31
0.0
  0
TEXT
  5
295
  8
ZUWAKU
 62
     4
 10
1565.733333333324
 20
-889.0000000000199
 30
0.0
 40
24.0
  1
事
 41
1.120000000000003
  7
DCSTYLE0
 72
     5
 11
1584.933333333324
 21
-889.0000000000199
 31
0.0
  0
TEXT
  5
296
  8
ZUWAKU
 62
     4
 10
1076.733333333325
 20
-1018.000000000018
 30
0.0
 40
24.0
  1
製
 41
1.120000000000003
  7
DCSTYLE0
 72
     5
 11
1095.933333333325
 21
-1018.000000000018
 31
0.0
  0
TEXT
  5
297
  8
ZUWAKU
 62
     4
 10
1076.733333333325
 20
-1042.000000000018
 30
0.0
 40
24.0
  1
図
 41
1.120000000000003
  7
DCSTYLE0
 72
     5
 11
1095.933333333325
 21
-1042.000000000018
 31
0.0
  0
TEXT
  5
298
  8
ZUWAKU
 62
     4
 10
1190.733333333325
 20
-1018.000000000017
 30
0.0
 40
24.0
  1
検
 41
1.120000000000003
  7
DCSTYLE0
 72
     5
 11
1209.933333333325
 21
-1018.000000000017
 31
0.0
  0
TEXT
  5
299
  8
ZUWAKU
 62
     4
 10
1190.733333333325
 20
-1042.000000000018
 30
0.0
 40
24.0
  1
図
 41
1.120000000000003
  7
DCSTYLE0
 72
     5
 11
1209.933333333325
 21
-1042.000000000018
 31
0.0
  0
TEXT
  5
29A
  8
ZUWAKU
 62
     4
 10
836.7333333333241
 20
-1081.000000000018
 30
0.0
 40
24.0
  1
表
 41
1.120000000000003
  7
DCSTYLE0
 72
     5
 11
855.9333333333242
 21
-1081.000000000018
 31
0.0
  0
TEXT
  5
29B
  8
ZUWAKU
 62
     4
 10
860.7333333333241
 20
-1081.000000000018
 30
0.0
 40
24.0
  1
面
 41
1.120000000000003
  7
DCSTYLE0
 72
     5
 11
879.9333333333242
 21
-1081.000000000018
 31
0.0
  0
TEXT
  5
29C
  8
ZUWAKU
 62
     4
 10
836.7333333333241
 20
-1123.000000000017
 30
0.0
 40
24.0
  1
処
 41
1.120000000000003
  7
DCSTYLE0
 72
     5
 11
855.9333333333242
 21
-1123.000000000017
 31
0.0
  0
TEXT
  5
29D
  8
ZUWAKU
 62
     4
 10
860.7333333333241
 20
-1123.000000000018
 30
0.0
 40
24.0
  1
理
 41
1.120000000000003
  7
DCSTYLE0
 72
     5
 11
879.9333333333242
 21
-1123.000000000018
 31
0.0
  0
TEXT
  5
29E
  8
ZUWAKU
 62
     4
 10
1349.733333333324
 20
-1030.000000000017
 30
0.0
 40
24.0
  1
ｍｍ
 41
1.018181818181821
  7
DCSTYLE0
 72
     5
 11
1388.133333333324
 21
-1030.000000000017
 31
0.0
  0
TEXT
  5
29F
  8
ZUWAKU
 62
     4
 10
1304.733333333324
 20
-1018.000000000018
 30
0.0
 40
24.0
  1
単
 41
1.120000000000003
  7
DCSTYLE0
 72
     5
 11
1323.933333333324
 21
-1018.000000000018
 31
0.0
  0
TEXT
  5
2A0
  8
ZUWAKU
 62
     4
 10
1304.733333333324
 20
-1042.000000000018
 30
0.0
 40
24.0
  1
位
 41
1.120000000000003
  7
DCSTYLE0
 72
     5
 11
1323.933333333324
 21
-1042.000000000018
 31
0.0
  0
TEXT
  5
2A1
  8
ZUWAKU
 62
     4
 10
1625.61449096124
 20
-1112.151988000947
 30
0.0
 40
28.0
  1
E
 41
0.9882352941176512
  7
DCSTYLE0
 72
     5
 11
1648.01449096124
 21
-1112.151988000947
 31
0.0
  0
TEXT
  5
2A2
  8
ZUWAKU
 62
     4
 10
909.9200776445423
 20
-1103.163772776006
 30
0.0
 40
28.0
  1
粉体塗装　塗装色：イエロー
 41
0.9454545454545455
  7
DCSTYLE0
 72
     5
 11
1201.120077644542
 21
-1103.163772776006
 31
0.0
  0
TEXT
  5
2A3
  8
ZUWAKU
 62
     4
 10
855.0192746550575
 20
-856.6932556261634
 30
0.0
 40
28.0
  1
1
 41
1.527272727272726
  7
DCSTYLE0
 72
     5
 11
877.4192746550575
 21
-856.6932556261634
 31
0.0
  0
TEXT
  5
2A4
  8
ZUWAKU
 62
     4
 10
935.0192746550601
 20
-856.6932556261636
 30
0.0
 40
28.0
  1
ガードパイプ
 41
0.9600000000000006
  7
DCSTYLE0
 72
     5
 11
1069.41927465506
 21
-856.6932556261636
 31
0.0
  0
TEXT
  5
2A5
  8
ZUWAKU
 62
     4
 10
1149.720815925284
 20
-856.6932556261643
 30
0.0
 40
28.0
  1
STK-PZ
 41
0.6247933884297519
  7
DCSTYLE0
 72
     5
 11
1250.520815925284
 21
-856.6932556261643
 31
0.0
  0
TEXT
  5
2A6
  8
ZUWAKU
 62
     4
 10
1295.019274655058
 20
-856.6932556261646
 30
0.0
 40
28.0
  1
1
 41
1.527272727272734
  7
DCSTYLE0
 72
     5
 11
1317.419274655058
 21
-856.6932556261646
 31
0.0
  0
TEXT
  5
2A7
  8
ZUWAKU
 62
     4
 10
1375.019274655057
 20
-856.6932556261652
 30
0.0
 40
28.0
  1
φ48.6ｘｔ1.9
 41
0.9882352941176471
  7
DCSTYLE0
 72
     5
 11
1599.019274655057
 21
-856.6932556261652
 31
0.0
  0
LINE
  5
2A8
  8
ZUWAKU
  6
CONTINUOUS
 62
     6
 10
1259.480519675647
 20
-1096.997157214505
 30
0.0
 11
1259.403578219427
 21
-1097.584221469115
 31
0.0
  0
LINE
  5
2A9
  8
ZUWAKU
  6
CONTINUOUS
 62
     6
 10
1259.403578219427
 20
-1097.584221469115
 30
0.0
 11
1259.395886537033
 21
-1098.556705092564
 31
0.0
  0
LINE
  5
2AA
  8
ZUWAKU
  6
CONTINUOUS
 62
     6
 10
1259.395886537033
 20
-1098.556705092564
 30
0.0
 11
1259.506146312496
 21
-1099.538542315354
 31
0.0
  0
LINE
  5
2AB
  8
ZUWAKU
  6
CONTINUOUS
 62
     6
 10
1259.506146312496
 20
-1099.538542315354
 30
0.0
 11
1259.733944545361
 21
-1100.522730165518
 31
0.0
  0
LINE
  5
2AC
  8
ZUWAKU
  6
CONTINUOUS
 62
     6
 10
1259.733944545361
 20
-1100.522730165518
 30
0.0
 11
1260.078066328951
 21
-1101.502033509599
 31
0.0
  0
LINE
  5
2AD
  8
ZUWAKU
  6
CONTINUOUS
 62
     6
 10
1260.078066328951
 20
-1101.502033509599
 30
0.0
 11
1260.536415148962
 21
-1102.469045194812
 31
0.0
  0
LINE
  5
2AE
  8
ZUWAKU
  6
CONTINUOUS
 62
     6
 10
1260.536415148962
 20
-1102.469045194812
 30
0.0
 11
1261.105963604593
 21
-1103.416282099403
 31
0.0
  0
LINE
  5
2AF
  8
ZUWAKU
  6
CONTINUOUS
 62
     6
 10
1261.105963604593
 20
-1103.416282099403
 30
0.0
 11
1261.782741125605
 21
-1104.336295659273
 31
0.0
  0
LINE
  5
2B0
  8
ZUWAKU
  6
CONTINUOUS
 62
     6
 10
1261.782741125605
 20
-1104.336295659273
 30
0.0
 11
1262.561854203706
 21
-1105.221780054778
 31
0.0
  0
LINE
  5
2B1
  8
ZUWAKU
  6
CONTINUOUS
 62
     6
 10
1262.561854203706
 20
-1105.221780054778
 30
0.0
 11
1263.4375301584
 21
-1106.065668924665
 31
0.0
  0
LINE
  5
2B2
  8
ZUWAKU
  6
CONTINUOUS
 62
     6
 10
1263.4375301584
 20
-1106.065668924665
 30
0.0
 11
1264.403175752686
 21
-1106.861217822193
 31
0.0
  0
LINE
  5
2B3
  8
ZUWAKU
  6
CONTINUOUS
 62
     6
 10
1264.403175752686
 20
-1106.861217822193
 30
0.0
 11
1265.451444310834
 21
-1107.602073269548
 31
0.0
  0
LINE
  5
2B4
  8
ZUWAKU
  6
CONTINUOUS
 62
     6
 10
1265.451444310834
 20
-1107.602073269548
 30
0.0
 11
1266.574307477438
 21
-1108.282330649447
 31
0.0
  0
LINE
  5
2B5
  8
ZUWAKU
  6
CONTINUOUS
 62
     6
 10
1266.574307477438
 20
-1108.282330649447
 30
0.0
 11
1267.763129608281
 21
-1108.896583246355
 31
0.0
  0
LINE
  5
2B6
  8
ZUWAKU
  6
CONTINUOUS
 62
     6
 10
1267.763129608281
 20
-1108.896583246355
 30
0.0
 11
1269.00874390271
 21
-1109.439964278267
 31
0.0
  0
LINE
  5
2B7
  8
ZUWAKU
  6
CONTINUOUS
 62
     6
 10
1269.00874390271
 20
-1109.439964278267
 30
0.0
 11
1270.30152994989
 21
-1109.908183185537
 31
0.0
  0
LINE
  5
2B8
  8
ZUWAKU
  6
CONTINUOUS
 62
     6
 10
1270.30152994989
 20
-1109.908183185537
 30
0.0
 11
1271.63149258105
 21
-1110.297556956016
 31
0.0
  0
LINE
  5
2B9
  8
ZUWAKU
  6
CONTINUOUS
 62
     6
 10
1271.63149258105
 20
-1110.297556956016
 30
0.0
 11
1272.988341960781
 21
-1110.60503691527
 31
0.0
  0
LINE
  5
2BA
  8
ZUWAKU
  6
CONTINUOUS
 62
     6
 10
1272.988341960781
 20
-1110.60503691527
 30
0.0
 11
1274.361574818832
 21
-1110.82823118537
 31
0.0
  0
LINE
  5
2BB
  8
ZUWAKU
  6
CONTINUOUS
 62
     6
 10
1274.361574818832
 20
-1110.82823118537
 30
0.0
 11
1275.740556679343
 21
-1110.965422882612
 31
0.0
  0
LINE
  5
2BC
  8
ZUWAKU
  6
CONTINUOUS
 62
     6
 10
1275.740556679343
 20
-1110.965422882612
 30
0.0
 11
1277.114604919522
 21
-1111.015584048547
 31
0.0
  0
LINE
  5
2BD
  8
ZUWAKU
  6
CONTINUOUS
 62
     6
 10
1277.114604919522
 20
-1111.015584048547
 30
0.0
 11
1278.473072499624
 21
-1110.978385256426
 31
0.0
  0
LINE
  5
2BE
  8
ZUWAKU
  6
CONTINUOUS
 62
     6
 10
1278.473072499624
 20
-1110.978385256426
 30
0.0
 11
1279.805432258126
 21
-1110.854200774553
 31
0.0
  0
LINE
  5
2BF
  8
ZUWAKU
  6
CONTINUOUS
 62
     6
 10
1279.805432258126
 20
-1110.854200774553
 30
0.0
 11
1281.101361756816
 21
-1110.644109060676
 31
0.0
  0
LINE
  5
2C0
  8
ZUWAKU
  6
CONTINUOUS
 62
     6
 10
1281.101361756816
 20
-1110.644109060676
 30
0.0
 11
1282.350828774527
 21
-1110.349888164878
 31
0.0
  0
LINE
  5
2C1
  8
ZUWAKU
  6
CONTINUOUS
 62
     6
 10
1282.350828774527
 20
-1110.349888164878
 30
0.0
 11
1283.544177641182
 21
-1109.974005278084
 31
0.0
  0
LINE
  5
2C2
  8
ZUWAKU
  6
CONTINUOUS
 62
     6
 10
1283.544177641182
 20
-1109.974005278084
 30
0.0
 11
1284.672216582975
 21
-1109.519599129206
 31
0.0
  0
LINE
  5
2C3
  8
ZUWAKU
  6
CONTINUOUS
 62
     6
 10
1284.672216582975
 20
-1109.519599129206
 30
0.0
 11
1285.726305942802
 21
-1108.990453190298
 31
0.0
  0
LINE
  5
2C4
  8
ZUWAKU
  6
CONTINUOUS
 62
     6
 10
1285.726305942802
 20
-1108.990453190298
 30
0.0
 11
1286.698446278967
 21
-1108.390956793254
 31
0.0
  0
LINE
  5
2C5
  8
ZUWAKU
  6
CONTINUOUS
 62
     6
 10
1286.698446278967
 20
-1108.390956793254
 30
0.0
 11
1287.581363601413
 21
-1107.726050635608
 31
0.0
  0
LINE
  5
2C6
  8
ZUWAKU
  6
CONTINUOUS
 62
     6
 10
1287.581363601413
 20
-1107.726050635608
 30
0.0
 11
1288.370435955324
 21
-1106.999450178039
 31
0.0
  0
ARC
  5
2C7
  8
ZUWAKU
  6
CONTINUOUS
 62
     6
 10
1297.551545064292
 20
-1107.822680669826
 30
0.0
 40
0.2603213341468374
 50
348.9999999999993
 51
45.00000000000031
  0
LINE
  5
2C8
  8
ZUWAKU
  6
CONTINUOUS
 62
     6
 10
1297.735620044955
 20
-1107.638605689158
 30
0.0
 11
1291.417537723818
 21
-1101.320523368021
 31
0.0
  0
ARC
  5
2C9
  8
ZUWAKU
  6
CONTINUOUS
 62
     6
 10
1292.331810549594
 20
-1101.130346309827
 30
0.0
 40
0.7809640024405122
 50
168.9999999999942
 51
225.0
  0
LINE
  5
2CA
  8
ZUWAKU
  6
CONTINUOUS
 62
     6
 10
1291.565195055505
 20
-1100.981331353098
 30
0.0
 11
1291.715543445144
 21
-1100.20785594139
 31
0.0
  0
LINE
  5
2CB
  8
ZUWAKU
  6
CONTINUOUS
 62
     6
 10
1291.846077732083
 20
-1099.211877731112
 30
0.0
 11
1291.854268586251
 21
-1098.176282249013
 31
0.0
  0
LINE
  5
2CC
  8
ZUWAKU
  6
CONTINUOUS
 62
     6
 10
1288.634591873784
 20
-1091.265443214438
 30
0.0
 11
1287.638444235977
 21
-1090.305455790088
 31
0.0
  0
LINE
  5
2CD
  8
ZUWAKU
  6
CONTINUOUS
 62
     6
 10
1287.638444235977
 20
-1090.305455790088
 30
0.0
 11
1286.642309093334
 21
-1089.484788022118
 31
0.0
  0
LINE
  5
2CE
  8
ZUWAKU
  6
CONTINUOUS
 62
     6
 10
1286.642309093334
 20
-1089.484788022118
 30
0.0
 11
1285.563323994141
 21
-1088.722223904228
 31
0.0
  0
LINE
  5
2CF
  8
ZUWAKU
  6
CONTINUOUS
 62
     6
 10
1285.563323994141
 20
-1088.722223904228
 30
0.0
 11
1284.409650267781
 21
-1088.023300749833
 31
0.0
  0
LINE
  5
2D0
  8
ZUWAKU
  6
CONTINUOUS
 62
     6
 10
1284.409650267781
 20
-1088.023300749833
 30
0.0
 11
1283.189978090423
 21
-1087.393108240057
 31
0.0
  0
LINE
  5
2D1
  8
ZUWAKU
  6
CONTINUOUS
 62
     6
 10
1283.189978090423
 20
-1087.393108240057
 30
0.0
 11
1281.913470757368
 21
-1086.836250571524
 31
0.0
  0
LINE
  5
2D2
  8
ZUWAKU
  6
CONTINUOUS
 62
     6
 10
1281.913470757368
 20
-1086.836250571524
 30
0.0
 11
1280.589702726279
 21
-1086.356810665486
 31
0.0
  0
LINE
  5
2D3
  8
ZUWAKU
  6
CONTINUOUS
 62
     6
 10
1280.589702726279
 20
-1086.356810665486
 30
0.0
 11
1279.228592384833
 21
-1085.958317765559
 31
0.0
  0
LINE
  5
2D4
  8
ZUWAKU
  6
CONTINUOUS
 62
     6
 10
1279.228592384833
 20
-1085.958317765559
 30
0.0
 11
1277.840330587865
 21
-1085.643719338383
 31
0.0
  0
LINE
  5
2D5
  8
ZUWAKU
  6
CONTINUOUS
 62
     6
 10
1277.840330587865
 20
-1085.643719338383
 30
0.0
 11
1276.435306018698
 21
-1085.415357898197
 31
0.0
  0
LINE
  5
2D6
  8
ZUWAKU
  6
CONTINUOUS
 62
     6
 10
1276.435306018698
 20
-1085.415357898197
 30
0.0
 11
1275.024028418083
 21
-1085.274953172899
 31
0.0
  0
LINE
  5
2D7
  8
ZUWAKU
  6
CONTINUOUS
 62
     6
 10
1275.024028418083
 20
-1085.274953172899
 30
0.0
 11
1273.617050722521
 21
-1085.223589880414
 31
0.0
  0
LINE
  5
2D8
  8
ZUWAKU
  6
CONTINUOUS
 62
     6
 10
1273.617050722521
 20
-1085.223589880414
 30
0.0
 11
1272.224891178849
 21
-1085.261711256459
 31
0.0
  0
LINE
  5
2D9
  8
ZUWAKU
  6
CONTINUOUS
 62
     6
 10
1272.224891178849
 20
-1085.261711256459
 30
0.0
 11
1270.857956558862
 21
-1085.389118337353
 31
0.0
  0
LINE
  5
2DA
  8
ZUWAKU
  6
CONTINUOUS
 62
     6
 10
1270.857956558862
 20
-1085.389118337353
 30
0.0
 11
1269.52646768441
 21
-1085.604974817147
 31
0.0
  0
LINE
  5
2DB
  8
ZUWAKU
  6
CONTINUOUS
 62
     6
 10
1269.52646768441
 20
-1085.604974817147
 30
0.0
 11
1268.24038857466
 21
-1085.90781702297
 31
0.0
  0
LINE
  5
2DC
  8
ZUWAKU
  6
CONTINUOUS
 62
     6
 10
1268.24038857466
 20
-1085.90781702297
 30
0.0
 11
1267.009360596544
 21
-1086.295568135029
 31
0.0
  0
LINE
  5
2DD
  8
ZUWAKU
  6
CONTINUOUS
 62
     6
 10
1267.009360596544
 20
-1086.295568135029
 30
0.0
 11
1265.84264294794
 21
-1086.765555166411
 31
0.0
  0
LINE
  5
2DE
  8
ZUWAKU
  6
CONTINUOUS
 62
     6
 10
1265.84264294794
 20
-1086.765555166411
 30
0.0
 11
1264.749060454985
 21
-1087.314526398892
 31
0.0
  0
LINE
  5
2DF
  8
ZUWAKU
  6
CONTINUOUS
 62
     6
 10
1264.749060454985
 20
-1087.314526398892
 30
0.0
 11
1263.736958755614
 21
-1087.938666041745
 31
0.0
  0
LINE
  5
2E0
  8
ZUWAKU
  6
CONTINUOUS
 62
     6
 10
1263.736958755614
 20
-1087.938666041745
 30
0.0
 11
1262.814165139759
 21
-1088.633602183342
 31
0.0
  0
LINE
  5
2E1
  8
ZUWAKU
  6
CONTINUOUS
 62
     6
 10
1262.814165139759
 20
-1088.633602183342
 30
0.0
 11
1261.987950428115
 21
-1089.394404389321
 31
0.0
  0
LINE
  5
2E2
  8
ZUWAKU
  6
CONTINUOUS
 62
     6
 10
1261.987950428115
 20
-1089.394404389321
 30
0.0
 11
1261.143572221302
 21
-1090.353472166634
 31
0.0
  0
LINE
  5
2E3
  8
ZUWAKU
  6
CONTINUOUS
 62
     6
 10
1259.689575790562
 20
-1093.294067325882
 30
0.0
 11
1259.513587177074
 21
-1093.972937198306
 31
0.0
  0
LINE
  5
2E4
  8
ZUWAKU
  6
CONTINUOUS
 62
     6
 10
1259.513587177074
 20
-1093.972937198306
 30
0.0
 11
1259.379920701803
 21
-1094.992814043996
 31
0.0
  0
LINE
  5
2E5
  8
ZUWAKU
  6
CONTINUOUS
 62
     6
 10
1259.379920701803
 20
-1094.992814043996
 30
0.0
 11
1259.371729847634
 21
-1096.028409526095
 31
0.0
  0
LINE
  5
2E6
  8
ZUWAKU
  6
CONTINUOUS
 62
     6
 10
1259.371729847634
 20
-1096.028409526095
 30
0.0
 11
1259.488835109246
 21
-1097.071204183999
 31
0.0
  0
LINE
  5
2E7
  8
ZUWAKU
  6
CONTINUOUS
 62
     6
 10
1259.488835109246
 20
-1097.071204183999
 30
0.0
 11
1259.72991910188
 21
-1098.112792318542
 31
0.0
  0
LINE
  5
2E8
  8
ZUWAKU
  6
CONTINUOUS
 62
     6
 10
1259.72991910188
 20
-1098.112792318542
 30
0.0
 11
1260.092628255355
 21
-1099.144991684753
 31
0.0
  0
LINE
  5
2E9
  8
ZUWAKU
  6
CONTINUOUS
 62
     6
 10
1260.092628255355
 20
-1099.144991684753
 30
0.0
 11
1260.573679673752
 21
-1100.159900685213
 31
0.0
  0
LINE
  5
2EA
  8
ZUWAKU
  6
CONTINUOUS
 62
     6
 10
1260.573679673752
 20
-1100.159900685213
 30
0.0
 11
1261.16895135482
 21
-1101.149918828524
 31
0.0
  0
LINE
  5
2EB
  8
ZUWAKU
  6
CONTINUOUS
 62
     6
 10
1261.16895135482
 20
-1101.149918828524
 30
0.0
 11
1261.873548884241
 21
-1102.107750998156
 31
0.0
  0
LINE
  5
2EC
  8
ZUWAKU
  6
CONTINUOUS
 62
     6
 10
1261.873548884241
 20
-1102.107750998156
 30
0.0
 11
1262.681852672052
 21
-1103.026411473846
 31
0.0
  0
LINE
  5
2ED
  8
ZUWAKU
  6
CONTINUOUS
 62
     6
 10
1262.681852672052
 20
-1103.026411473846
 30
0.0
 11
1263.587554197903
 21
-1103.899235985021
 31
0.0
  0
LINE
  5
2EE
  8
ZUWAKU
  6
CONTINUOUS
 62
     6
 10
1263.587554197903
 20
-1103.899235985021
 30
0.0
 11
1264.583689340546
 21
-1104.719903752991
 31
0.0
  0
LINE
  5
2EF
  8
ZUWAKU
  6
CONTINUOUS
 62
     6
 10
1264.583689340546
 20
-1104.719903752991
 30
0.0
 11
1265.662674439745
 21
-1105.48246787088
 31
0.0
  0
LINE
  5
2F0
  8
ZUWAKU
  6
CONTINUOUS
 62
     6
 10
1265.662674439745
 20
-1105.48246787088
 30
0.0
 11
1266.816348166104
 21
-1106.181391025276
 31
0.0
  0
LINE
  5
2F1
  8
ZUWAKU
  6
CONTINUOUS
 62
     6
 10
1266.816348166104
 20
-1106.181391025276
 30
0.0
 11
1268.036020343462
 21
-1106.811583535062
 31
0.0
  0
LINE
  5
2F2
  8
ZUWAKU
  6
CONTINUOUS
 62
     6
 10
1268.036020343462
 20
-1106.811583535062
 30
0.0
 11
1269.312527676512
 21
-1107.368441203584
 31
0.0
  0
LINE
  5
2F3
  8
ZUWAKU
  6
CONTINUOUS
 62
     6
 10
1269.312527676512
 20
-1107.368441203584
 30
0.0
 11
1270.636295707601
 21
-1107.847881109622
 31
0.0
  0
LINE
  5
2F4
  8
ZUWAKU
  6
CONTINUOUS
 62
     6
 10
1270.636295707601
 20
-1107.847881109622
 30
0.0
 11
1271.997406049047
 21
-1108.24637400956
 31
0.0
  0
LINE
  5
2F5
  8
ZUWAKU
  6
CONTINUOUS
 62
     6
 10
1271.997406049047
 20
-1108.24637400956
 30
0.0
 11
1273.385667846021
 21
-1108.560972436725
 31
0.0
  0
LINE
  5
2F6
  8
ZUWAKU
  6
CONTINUOUS
 62
     6
 10
1273.385667846021
 20
-1108.560972436725
 30
0.0
 11
1274.790692415182
 21
-1108.789333876911
 31
0.0
  0
LINE
  5
2F7
  8
ZUWAKU
  6
CONTINUOUS
 62
     6
 10
1274.790692415182
 20
-1108.789333876911
 30
0.0
 11
1276.201970015797
 21
-1108.929738602209
 31
0.0
  0
LINE
  5
2F8
  8
ZUWAKU
  6
CONTINUOUS
 62
     6
 10
1276.201970015797
 20
-1108.929738602209
 30
0.0
 11
1277.608947711365
 21
-1108.981101894694
 31
0.0
  0
LINE
  5
2F9
  8
ZUWAKU
  6
CONTINUOUS
 62
     6
 10
1277.608947711365
 20
-1108.981101894694
 30
0.0
 11
1279.001107255031
 21
-1108.942980518649
 31
0.0
  0
LINE
  5
2FA
  8
ZUWAKU
  6
CONTINUOUS
 62
     6
 10
1279.001107255031
 20
-1108.942980518649
 30
0.0
 11
1280.368041875029
 21
-1108.815573437755
 31
0.0
  0
LINE
  5
2FB
  8
ZUWAKU
  6
CONTINUOUS
 62
     6
 10
1280.368041875029
 20
-1108.815573437755
 30
0.0
 11
1281.69953074947
 21
-1108.599716957961
 31
0.0
  0
LINE
  5
2FC
  8
ZUWAKU
  6
CONTINUOUS
 62
     6
 10
1281.69953074947
 20
-1108.599716957961
 30
0.0
 11
1282.985609859231
 21
-1108.296874752149
 31
0.0
  0
LINE
  5
2FD
  8
ZUWAKU
  6
CONTINUOUS
 62
     6
 10
1282.985609859231
 20
-1108.296874752149
 30
0.0
 11
1284.216637837342
 21
-1107.909123640079
 31
0.0
  0
LINE
  5
2FE
  8
ZUWAKU
  6
CONTINUOUS
 62
     6
 10
1284.216637837342
 20
-1107.909123640079
 30
0.0
 11
1285.383355485951
 21
-1107.439136608697
 31
0.0
  0
LINE
  5
2FF
  8
ZUWAKU
  6
CONTINUOUS
 62
     6
 10
1285.383355485951
 20
-1107.439136608697
 30
0.0
 11
1286.476937978895
 21
-1106.890165376216
 31
0.0
  0
LINE
  5
300
  8
ZUWAKU
  6
CONTINUOUS
 62
     6
 10
1286.476937978895
 20
-1106.890165376216
 30
0.0
 11
1287.489039678266
 21
-1106.266025733374
 31
0.0
  0
LINE
  5
301
  8
ZUWAKU
  6
CONTINUOUS
 62
     6
 10
1287.489039678266
 20
-1106.266025733374
 30
0.0
 11
1288.411833294126
 21
-1105.571089591766
 31
0.0
  0
LINE
  5
302
  8
ZUWAKU
  6
CONTINUOUS
 62
     6
 10
1288.411833294126
 20
-1105.571089591766
 30
0.0
 11
1289.238048005765
 21
-1104.810287385787
 31
0.0
  0
LINE
  5
303
  8
ZUWAKU
  6
CONTINUOUS
 62
     6
 10
1289.238048005765
 20
-1104.810287385787
 30
0.0
 11
1289.352297714154
 21
-1104.680519453603
 31
0.0
  0
ARC
  5
304
  8
ZUWAKU
  6
CONTINUOUS
 62
     6
 10
1296.265957673909
 20
-1106.831613248499
 30
0.0
 40
0.4685784014643071
 50
248.9511701848124
 51
45.0000000000002
  0
LINE
  5
305
  8
ZUWAKU
  6
CONTINUOUS
 62
     6
 10
1291.417537723818
 20
-1101.320523368021
 30
0.0
 11
1291.454292063712
 21
-1101.227440264717
 31
0.0
  0
LINE
  5
306
  8
ZUWAKU
  6
CONTINUOUS
 62
     6
 10
1291.454292063712
 20
-1101.227440264717
 30
0.0
 11
1291.712411256806
 21
-1100.231754576803
 31
0.0
  0
LINE
  5
307
  8
ZUWAKU
  6
CONTINUOUS
 62
     6
 10
1291.712411256806
 20
-1100.231754576803
 30
0.0
 11
1291.846077732083
 21
-1099.211877731112
 31
0.0
  0
LINE
  5
308
  8
ZUWAKU
  6
CONTINUOUS
 62
     6
 10
1291.854268586251
 20
-1098.176282249024
 30
0.0
 11
1291.737163324634
 21
-1097.13348759111
 31
0.0
  0
LINE
  5
309
  8
ZUWAKU
  6
CONTINUOUS
 62
     6
 10
1291.737163324634
 20
-1097.13348759111
 30
0.0
 11
1291.496079332
 21
-1096.091899456566
 31
0.0
  0
LINE
  5
30A
  8
ZUWAKU
  6
CONTINUOUS
 62
     6
 10
1291.496079332
 20
-1096.091899456566
 30
0.0
 11
1291.159831721164
 21
-1095.135004469296
 31
0.0
  0
LINE
  5
30B
  8
ZUWAKU
  6
CONTINUOUS
 62
     6
 10
1260.007176716402
 20
-1091.817758770526
 30
0.0
 11
1260.312931860342
 21
-1091.935426245259
 31
0.0
  0
LINE
  5
30C
  8
ZUWAKU
  6
CONTINUOUS
 62
     6
 10
1260.312931860342
 20
-1091.935426245259
 30
0.0
 11
1260.369883738488
 21
-1091.830128629667
 31
0.0
  0
LINE
  5
30D
  8
ZUWAKU
  6
CONTINUOUS
 62
     6
 10
1260.369883738488
 20
-1091.830128629667
 30
0.0
 11
1260.007176716402
 21
-1091.817758770526
 31
0.0
  0
LINE
  5
30E
  8
ZUWAKU
  6
CONTINUOUS
 62
     6
 10
1261.155238674284
 20
-1093.856682594426
 30
0.0
 11
1261.047791493223
 21
-1094.271156307569
 31
0.0
  0
LINE
  5
30F
  8
ZUWAKU
  6
CONTINUOUS
 62
     6
 10
1261.047791493223
 20
-1094.271156307569
 30
0.0
 11
1260.930803870585
 21
-1095.163773303081
 31
0.0
  0
LINE
  5
310
  8
ZUWAKU
  6
CONTINUOUS
 62
     6
 10
1260.930803870585
 20
-1095.163773303081
 30
0.0
 11
1260.923624528077
 21
-1096.071480181203
 31
0.0
  0
LINE
  5
311
  8
ZUWAKU
  6
CONTINUOUS
 62
     6
 10
1260.923624528077
 20
-1096.071480181203
 30
0.0
 11
1261.026549947506
 21
-1096.988006698158
 31
0.0
  0
LINE
  5
312
  8
ZUWAKU
  6
CONTINUOUS
 62
     6
 10
1261.026549947506
 20
-1096.988006698158
 30
0.0
 11
1261.239222947285
 21
-1097.906846935909
 31
0.0
  0
LINE
  5
313
  8
ZUWAKU
  6
CONTINUOUS
 62
     6
 10
1261.239222947285
 20
-1097.906846935909
 30
0.0
 11
1261.560543732908
 21
-1098.821263095787
 31
0.0
  0
LINE
  5
314
  8
ZUWAKU
  6
CONTINUOUS
 62
     6
 10
1261.560543732908
 20
-1098.821263095787
 30
0.0
 11
1261.988589319422
 21
-1099.724341855651
 31
0.0
  0
LINE
  5
315
  8
ZUWAKU
  6
CONTINUOUS
 62
     6
 10
1261.988589319422
 20
-1099.724341855651
 30
0.0
 11
1262.520562931935
 21
-1100.609086661935
 31
0.0
  0
LINE
  5
316
  8
ZUWAKU
  6
CONTINUOUS
 62
     6
 10
1262.520562931935
 20
-1100.609086661935
 30
0.0
 11
1263.152779967443
 21
-1101.468524553097
 31
0.0
  0
LINE
  5
317
  8
ZUWAKU
  6
CONTINUOUS
 62
     6
 10
1263.152779967443
 20
-1101.468524553097
 30
0.0
 11
1263.880686049873
 21
-1102.295810726959
 31
0.0
  0
LINE
  5
318
  8
ZUWAKU
  6
CONTINUOUS
 62
     6
 10
1263.880686049873
 20
-1102.295810726959
 30
0.0
 11
1264.698898214873
 21
-1103.084321745836
 31
0.0
  0
LINE
  5
319
  8
ZUWAKU
  6
CONTINUOUS
 62
     6
 10
1264.698898214873
 20
-1103.084321745836
 30
0.0
 11
1265.60126055958
 21
-1103.827734621904
 31
0.0
  0
LINE
  5
31A
  8
ZUWAKU
  6
CONTINUOUS
 62
     6
 10
1265.60126055958
 20
-1103.827734621904
 30
0.0
 11
1266.58090803201
 21
-1104.520092663923
 31
0.0
  0
LINE
  5
31B
  8
ZUWAKU
  6
CONTINUOUS
 62
     6
 10
1266.58090803201
 20
-1104.520092663923
 30
0.0
 11
1267.630334524641
 21
-1105.155860349162
 31
0.0
  0
LINE
  5
31C
  8
ZUWAKU
  6
CONTINUOUS
 62
     6
 10
1267.630334524641
 20
-1105.155860349162
 30
0.0
 11
1268.741463290709
 21
-1105.729969555545
 31
0.0
  0
LINE
  5
31D
  8
ZUWAKU
  6
CONTINUOUS
 62
     6
 10
1268.741463290709
 20
-1105.729969555545
 30
0.0
 11
1269.905718822961
 21
-1106.237859016474
 31
0.0
  0
LINE
  5
31E
  8
ZUWAKU
  6
CONTINUOUS
 62
     6
 10
1269.905718822961
 20
-1106.237859016474
 30
0.0
 11
1271.114099899876
 21
-1106.6755082846
 31
0.0
  0
LINE
  5
31F
  8
ZUWAKU
  6
CONTINUOUS
 62
     6
 10
1271.114099899876
 20
-1106.6755082846
 30
0.0
 11
1272.357253725465
 21
-1107.039467001193
 31
0.0
  0
LINE
  5
320
  8
ZUWAKU
  6
CONTINUOUS
 62
     6
 10
1272.357253725465
 20
-1107.039467001193
 30
0.0
 11
1273.625551131757
 21
-1107.326879915727
 31
0.0
  0
LINE
  5
321
  8
ZUWAKU
  6
CONTINUOUS
 62
     6
 10
1273.625551131757
 20
-1107.326879915727
 30
0.0
 11
1274.909162782472
 21
-1107.535507872589
 31
0.0
  0
LINE
  5
322
  8
ZUWAKU
  6
CONTINUOUS
 62
     6
 10
1274.909162782472
 20
-1107.535507872589
 30
0.0
 11
1276.198136273274
 21
-1107.663744846534
 31
0.0
  0
LINE
  5
323
  8
ZUWAKU
  6
CONTINUOUS
 62
     6
 10
1276.198136273274
 20
-1107.663744846534
 30
0.0
 11
1277.482473999394
 21
-1107.710631029925
 31
0.0
  0
LINE
  5
324
  8
ZUWAKU
  6
CONTINUOUS
 62
     6
 10
1277.482473999394
 20
-1107.710631029925
 30
0.0
 11
1278.752211672282
 21
-1107.675861920649
 31
0.0
  0
LINE
  5
325
  8
ZUWAKU
  6
CONTINUOUS
 62
     6
 10
1278.752211672282
 20
-1107.675861920649
 30
0.0
 11
1279.997497418573
 21
-1107.559793295649
 31
0.0
  0
LINE
  5
326
  8
ZUWAKU
  6
CONTINUOUS
 62
     6
 10
1279.997497418573
 20
-1107.559793295649
 30
0.0
 11
1281.208671485868
 21
-1107.363441846076
 31
0.0
  0
LINE
  5
327
  8
ZUWAKU
  6
CONTINUOUS
 62
     6
 10
1281.208671485868
 20
-1107.363441846076
 30
0.0
 11
1282.376346693017
 21
-1107.088481050331
 31
0.0
  0
LINE
  5
328
  8
ZUWAKU
  6
CONTINUOUS
 62
     6
 10
1282.376346693017
 20
-1107.088481050331
 30
0.0
 11
1283.491489855004
 21
-1106.737231518339
 31
0.0
  0
LINE
  5
329
  8
ZUWAKU
  6
CONTINUOUS
 62
     6
 10
1283.491489855004
 20
-1106.737231518339
 30
0.0
 11
1284.545504390656
 21
-1106.312644504313
 31
0.0
  0
LINE
  5
32A
  8
ZUWAKU
  6
CONTINUOUS
 62
     6
 10
1284.545504390656
 20
-1106.312644504313
 30
0.0
 11
1285.53031401329
 21
-1105.818276538663
 31
0.0
  0
LINE
  5
32B
  8
ZUWAKU
  6
CONTINUOUS
 62
     6
 10
1285.53031401329
 20
-1105.818276538663
 30
0.0
 11
1286.438446541864
 21
-1105.258252271947
 31
0.0
  0
LINE
  5
32C
  8
ZUWAKU
  6
CONTINUOUS
 62
     6
 10
1286.438446541864
 20
-1105.258252271947
 30
0.0
 11
1287.263115124363
 21
-1104.637211994931
 31
0.0
  0
LINE
  5
32D
  8
ZUWAKU
  6
CONTINUOUS
 62
     6
 10
1287.263115124363
 20
-1104.637211994931
 30
0.0
 11
1287.844596563516
 21
-1104.101767206292
 31
0.0
  0
LINE
  5
32E
  8
ZUWAKU
  6
CONTINUOUS
 62
     6
 10
1290.374197491269
 20
-1103.399738662604
 30
0.0
 11
1290.574729733463
 21
-1103.113689990875
 31
0.0
  0
LINE
  5
32F
  8
ZUWAKU
  6
CONTINUOUS
 62
     6
 10
1290.574729733463
 20
-1103.113689990875
 30
0.0
 11
1290.724639073628
 21
-1102.836524485786
 31
0.0
  0
LINE
  5
330
  8
ZUWAKU
  6
CONTINUOUS
 62
     6
 10
1290.724639073628
 20
-1102.836524485786
 30
0.0
 11
1291.857077587748
 21
-1103.968962999905
 31
0.0
  0
LINE
  5
331
  8
ZUWAKU
  6
CONTINUOUS
 62
     6
 10
1289.799969496112
 20
-1095.766231497943
 30
0.0
 11
1289.986775486595
 21
-1096.297844839199
 31
0.0
  0
LINE
  5
332
  8
ZUWAKU
  6
CONTINUOUS
 62
     6
 10
1289.986775486595
 20
-1096.297844839199
 30
0.0
 11
1290.19944848638
 21
-1097.216685076951
 31
0.0
  0
LINE
  5
333
  8
ZUWAKU
  6
CONTINUOUS
 62
     6
 10
1290.19944848638
 20
-1097.216685076951
 30
0.0
 11
1290.302373905809
 21
-1098.133211593916
 31
0.0
  0
LINE
  5
334
  8
ZUWAKU
  6
CONTINUOUS
 62
     6
 10
1290.302373905809
 20
-1098.133211593916
 30
0.0
 11
1290.295194563301
 21
-1099.040918472027
 31
0.0
  0
LINE
  5
335
  8
ZUWAKU
  6
CONTINUOUS
 62
     6
 10
1290.295194563301
 20
-1099.040918472027
 30
0.0
 11
1290.178206940663
 21
-1099.93353546755
 31
0.0
  0
LINE
  5
336
  8
ZUWAKU
  6
CONTINUOUS
 62
     6
 10
1290.178206940663
 20
-1099.93353546755
 30
0.0
 11
1290.14780896044
 21
-1100.050794604643
 31
0.0
  0
LINE
  5
337
  8
ZUWAKU
  6
CONTINUOUS
 62
     6
 10
1290.14780896044
 20
-1100.050794604643
 30
0.0
 11
1287.111289537746
 21
-1097.014275181959
 31
0.0
  0
LINE
  5
338
  8
ZUWAKU
  6
CONTINUOUS
 62
     6
 10
1263.075304346717
 20
-1090.417554321194
 30
0.0
 11
1263.227707094871
 21
-1090.244451126747
 31
0.0
  0
LINE
  5
339
  8
ZUWAKU
  6
CONTINUOUS
 62
     6
 10
1263.227707094871
 20
-1090.244451126747
 30
0.0
 11
1263.962883309522
 21
-1089.567479780188
 31
0.0
  0
LINE
  5
33A
  8
ZUWAKU
  6
CONTINUOUS
 62
     6
 10
1263.962883309522
 20
-1089.567479780188
 30
0.0
 11
1264.787551892017
 21
-1088.946439503162
 31
0.0
  0
LINE
  5
33B
  8
ZUWAKU
  6
CONTINUOUS
 62
     6
 10
1264.787551892017
 20
-1088.946439503162
 30
0.0
 11
1265.69568442059
 21
-1088.386415236445
 31
0.0
  0
LINE
  5
33C
  8
ZUWAKU
  6
CONTINUOUS
 62
     6
 10
1265.69568442059
 20
-1088.386415236445
 30
0.0
 11
1266.68049404323
 21
-1087.892047270795
 31
0.0
  0
LINE
  5
33D
  8
ZUWAKU
  6
CONTINUOUS
 62
     6
 10
1266.68049404323
 20
-1087.892047270795
 30
0.0
 11
1267.734508578881
 21
-1087.467460256769
 31
0.0
  0
LINE
  5
33E
  8
ZUWAKU
  6
CONTINUOUS
 62
     6
 10
1267.734508578881
 20
-1087.467460256769
 30
0.0
 11
1268.849651740869
 21
-1087.116210724777
 31
0.0
  0
LINE
  5
33F
  8
ZUWAKU
  6
CONTINUOUS
 62
     6
 10
1268.849651740869
 20
-1087.116210724777
 30
0.0
 11
1270.017326948012
 21
-1086.841249929032
 31
0.0
  0
LINE
  5
340
  8
ZUWAKU
  6
CONTINUOUS
 62
     6
 10
1270.017326948012
 20
-1086.841249929032
 30
0.0
 11
1271.228501015313
 21
-1086.64489847947
 31
0.0
  0
LINE
  5
341
  8
ZUWAKU
  6
CONTINUOUS
 62
     6
 10
1271.228501015313
 20
-1086.64489847947
 30
0.0
 11
1272.473786761603
 21
-1086.528829854459
 31
0.0
  0
LINE
  5
342
  8
ZUWAKU
  6
CONTINUOUS
 62
     6
 10
1272.473786761603
 20
-1086.528829854459
 30
0.0
 11
1273.743524434486
 21
-1086.494060745183
 31
0.0
  0
LINE
  5
343
  8
ZUWAKU
  6
CONTINUOUS
 62
     6
 10
1273.743524434486
 20
-1086.494060745183
 30
0.0
 11
1275.027862160611
 21
-1086.540946928585
 31
0.0
  0
LINE
  5
344
  8
ZUWAKU
  6
CONTINUOUS
 62
     6
 10
1275.027862160611
 20
-1086.540946928585
 30
0.0
 11
1276.316835651408
 21
-1086.66918390252
 31
0.0
  0
LINE
  5
345
  8
ZUWAKU
  6
CONTINUOUS
 62
     6
 10
1276.316835651408
 20
-1086.66918390252
 30
0.0
 11
1277.600447302129
 21
-1086.877811859381
 31
0.0
  0
LINE
  5
346
  8
ZUWAKU
  6
CONTINUOUS
 62
     6
 10
1277.600447302129
 20
-1086.877811859381
 30
0.0
 11
1278.868744708415
 21
-1087.165224773915
 31
0.0
  0
LINE
  5
347
  8
ZUWAKU
  6
CONTINUOUS
 62
     6
 10
1278.868744708415
 20
-1087.165224773915
 30
0.0
 11
1280.11189853401
 21
-1087.529183490508
 31
0.0
  0
LINE
  5
348
  8
ZUWAKU
  6
CONTINUOUS
 62
     6
 10
1280.11189853401
 20
-1087.529183490508
 30
0.0
 11
1281.320279610925
 21
-1087.966832758645
 31
0.0
  0
LINE
  5
349
  8
ZUWAKU
  6
CONTINUOUS
 62
     6
 10
1281.320279610925
 20
-1087.966832758645
 30
0.0
 11
1282.484535143172
 21
-1088.474722219574
 31
0.0
  0
LINE
  5
34A
  8
ZUWAKU
  6
CONTINUOUS
 62
     6
 10
1282.484535143172
 20
-1088.474722219574
 30
0.0
 11
1283.595663909239
 21
-1089.048831425946
 31
0.0
  0
LINE
  5
34B
  8
ZUWAKU
  6
CONTINUOUS
 62
     6
 10
1283.595663909239
 20
-1089.048831425946
 30
0.0
 11
1284.645090401876
 21
-1089.684599111185
 31
0.0
  0
LINE
  5
34C
  8
ZUWAKU
  6
CONTINUOUS
 62
     6
 10
1284.645090401876
 20
-1089.684599111185
 30
0.0
 11
1285.6247378743
 21
-1090.376957153215
 31
0.0
  0
LINE
  5
34D
  8
ZUWAKU
  6
CONTINUOUS
 62
     6
 10
1285.6247378743
 20
-1090.376957153215
 30
0.0
 11
1286.527100219012
 21
-1091.120370029272
 31
0.0
  0
LINE
  5
34E
  8
ZUWAKU
  6
CONTINUOUS
 62
     6
 10
1286.527100219012
 20
-1091.120370029272
 30
0.0
 11
1286.607872216545
 21
-1091.198209998904
 31
0.0
  0
LINE
  5
34F
  8
ZUWAKU
  6
CONTINUOUS
 62
     6
 10
1268.64964005389
 20
-1089.066845891543
 30
0.0
 11
1269.419157955358
 21
-1088.885642031747
 31
0.0
  0
LINE
  5
350
  8
ZUWAKU
  6
CONTINUOUS
 62
     6
 10
1269.419157955358
 20
-1088.885642031747
 30
0.0
 11
1270.665891398409
 21
-1088.683525816269
 31
0.0
  0
LINE
  5
351
  8
ZUWAKU
  6
CONTINUOUS
 62
     6
 10
1270.665891398409
 20
-1088.683525816269
 30
0.0
 11
1271.945752006196
 21
-1088.564234592236
 31
0.0
  0
LINE
  5
352
  8
ZUWAKU
  6
CONTINUOUS
 62
     6
 10
1271.945752006196
 20
-1088.564234592236
 30
0.0
 11
1273.249181642644
 21
-1088.528542899036
 31
0.0
  0
LINE
  5
353
  8
ZUWAKU
  6
CONTINUOUS
 62
     6
 10
1273.249181642644
 20
-1088.528542899036
 30
0.0
 11
1274.566448824158
 21
-1088.576631208988
 31
0.0
  0
LINE
  5
354
  8
ZUWAKU
  6
CONTINUOUS
 62
     6
 10
1274.566448824158
 20
-1088.576631208988
 30
0.0
 11
1275.887718055058
 21
-1088.708081210979
 31
0.0
  0
LINE
  5
355
  8
ZUWAKU
  6
CONTINUOUS
 62
     6
 10
1275.887718055058
 20
-1088.708081210979
 30
0.0
 11
1277.203121416889
 21
-1088.921876337937
 31
0.0
  0
LINE
  5
356
  8
ZUWAKU
  6
CONTINUOUS
 62
     6
 10
1277.203121416889
 20
-1088.921876337937
 30
0.0
 11
1278.502831240419
 21
-1089.216407720371
 31
0.0
  0
LINE
  5
357
  8
ZUWAKU
  6
CONTINUOUS
 62
     6
 10
1278.502831240419
 20
-1089.216407720371
 30
0.0
 11
1279.176008333477
 21
-1089.413494087149
 31
0.0
  0
LINE
  5
358
  8
ZUWAKU
  6
CONTINUOUS
 62
     6
 10
1288.128593875111
 20
-1092.81144473239
 30
0.0
 11
1288.705435501951
 21
-1093.595605113184
 31
0.0
  0
LINE
  5
359
  8
ZUWAKU
  6
CONTINUOUS
 62
     6
 10
1288.705435501951
 20
-1093.595605113184
 30
0.0
 11
1289.155153262905
 21
-1094.343547198915
 31
0.0
  0
ARC
  5
35A
  8
ZUWAKU
  6
CONTINUOUS
 62
     6
 10
1286.663839361521
 20
-1096.934974967055
 30
0.0
 40
1.301606670734187
 50
114.8999999999998
 51
225.0
  0
LINE
  5
35B
  8
ZUWAKU
  6
CONTINUOUS
 62
     6
 10
1285.743464458204
 20
-1097.855349870367
 30
0.0
 11
1289.618919352665
 21
-1101.649280459999
 31
0.0
  0
LINE
  5
35C
  8
ZUWAKU
  6
CONTINUOUS
 62
     6
 10
1289.618919352665
 20
-1101.649280459999
 30
0.0
 11
1289.180151689257
 21
-1102.460512508057
 31
0.0
  0
LINE
  5
35D
  8
ZUWAKU
  6
CONTINUOUS
 62
     6
 10
1289.180151689257
 20
-1102.460512508057
 30
0.0
 11
1288.914520628684
 21
-1102.839421212281
 31
0.0
  0
LINE
  5
35E
  8
ZUWAKU
  6
CONTINUOUS
 62
     6
 10
1261.695908849625
 20
-1092.391175066715
 30
0.0
 11
1261.938511415111
 21
-1091.942630216047
 31
0.0
  0
LINE
  5
35F
  8
ZUWAKU
  6
CONTINUOUS
 62
     6
 10
1285.386146871372
 20
-1096.686616705833
 30
0.0
 11
1285.00926002587
 21
-1098.625531440423
 31
0.0
  0
ARC
  5
360
  8
ZUWAKU
  6
CONTINUOUS
 62
     6
 10
1286.286952516018
 20
-1098.873889701634
 30
0.0
 40
1.301606670734187
 50
169.0
 51
224.9999999999982
  0
LINE
  5
361
  8
ZUWAKU
  6
CONTINUOUS
 62
     6
 10
1285.366577612707
 20
-1099.794264604957
 30
0.0
 11
1286.521340782104
 21
-1100.949027774354
 31
0.0
  0
ARC
  5
362
  8
ZUWAKU
  6
CONTINUOUS
 62
     6
 10
1286.190005816913
 20
-1101.280362739545
 30
0.0
 40
0.4685784014643071
 50
248.9511701848126
 51
44.99999999999822
  0
LINE
  5
363
  8
ZUWAKU
  6
CONTINUOUS
 62
     6
 10
1261.143572221302
 20
-1090.353472166634
 30
0.0
 11
1252.421499228701
 21
-1090.064131205597
 31
0.0
  0
ARC
  5
364
  8
ZUWAKU
  6
CONTINUOUS
 62
     6
 10
1252.412868228426
 20
-1090.324309419219
 30
0.0
 40
0.2603213341468374
 50
88.10000000000004
 51
168.999999999998
  0
LINE
  5
365
  8
ZUWAKU
  6
CONTINUOUS
 62
     6
 10
1252.157329730396
 20
-1090.274637766983
 30
0.0
 11
1251.7723398803
 21
-1092.255238846411
 31
0.0
  0
ARC
  5
366
  8
ZUWAKU
  6
CONTINUOUS
 62
     6
 10
1252.02787837833
 20
-1092.304910498657
 30
0.0
 40
0.2603213341468374
 50
168.999999999998
 51
249.0000000000001
  0
LINE
  5
367
  8
ZUWAKU
  6
CONTINUOUS
 62
     6
 10
1251.934587555586
 20
-1092.547941400819
 30
0.0
 11
1259.127348613597
 21
-1095.308983683587
 31
0.0
  0
ARC
  5
368
  8
ZUWAKU
  6
CONTINUOUS
 62
     6
 10
1258.84747614537
 20
-1096.038076390073
 30
0.0
 40
0.7809640024405122
 50
47.38928590658141
 51
69.00000000000026
  0
ARC
  5
369
  8
ZUWAKU
  6
CONTINUOUS
 62
     6
 10
1253.934994648212
 20
-1090.583175179786
 30
0.0
 40
0.4685784014643066
 50
88.10000000000034
 51
249.0000000000006
  0
LINE
  5
36A
  8
ZUWAKU
  6
CONTINUOUS
 62
     6
 10
1259.689575790562
 20
-1093.294067325882
 30
0.0
 11
1253.767071167276
 21
-1091.020630803673
 31
0.0
  0
LINE
  5
36B
  8
ZUWAKU
  6
CONTINUOUS
 62
     6
 10
1263.075304346717
 20
-1090.417554321194
 30
0.0
 11
1286.607872216545
 21
-1091.198209998904
 31
0.0
  0
ARC
  5
36C
  8
ZUWAKU
  6
CONTINUOUS
 62
     6
 10
1268.82864334217
 20
-1089.827018632365
 30
0.0
 40
0.7809640024405122
 50
103.2504547662727
 51
268.1000000000001
  0
ARC
  5
36D
  8
ZUWAKU
  6
CONTINUOUS
 62
     6
 10
1278.956576090249
 20
-1090.162996764758
 30
0.0
 40
0.7809640024405122
 50
268.1000000000001
 51
73.68152816059866
  0
ARC
  5
36E
  8
ZUWAKU
  6
CONTINUOUS
 62
     6
 10
1288.960424337188
 20
-1090.494858590297
 30
0.0
 40
0.7809640024405122
 50
226.0590228224415
 51
268.1000000000001
  0
LINE
  5
36F
  8
ZUWAKU
  6
CONTINUOUS
 62
     6
 10
1288.634591873784
 20
-1091.265443214438
 30
0.0
 11
1298.206509292525
 21
-1091.582976418664
 31
0.0
  0
ARC
  5
370
  8
ZUWAKU
  6
CONTINUOUS
 62
     6
 10
1298.19787829225
 20
-1091.843154632298
 30
0.0
 40
0.2603213341468374
 50
348.9999999999998
 51
88.10000000000012
  0
LINE
  5
371
  8
ZUWAKU
  6
CONTINUOUS
 62
     6
 10
1298.453416790279
 20
-1091.892826284534
 30
0.0
 11
1298.135340358199
 21
-1093.529187670589
 31
0.0
  0
ARC
  5
372
  8
ZUWAKU
  6
CONTINUOUS
 62
     6
 10
1297.879801860169
 20
-1093.479516018343
 30
0.0
 40
0.2603213341468374
 50
294.9000000000004
 51
348.9999999999997
  0
LINE
  5
373
  8
ZUWAKU
  6
CONTINUOUS
 62
     6
 10
1297.989406464832
 20
-1093.715638926275
 30
0.0
 11
1292.192147032168
 21
-1096.406637160174
 31
0.0
  0
ARC
  5
374
  8
ZUWAKU
  6
CONTINUOUS
 62
     6
 10
1292.520960846144
 20
-1097.115005883971
 30
0.0
 40
0.7809640024405122
 50
114.9000000000003
 51
186.4074391525501
  0
LINE
  5
375
  8
ZUWAKU
  6
CONTINUOUS
 62
     6
 10
1291.159831721164
 20
-1095.135004469296
 30
0.0
 11
1296.987581501849
 21
-1092.429853087055
 31
0.0
  0
ARC
  5
376
  8
ZUWAKU
  6
CONTINUOUS
 62
     6
 10
1296.790293213458
 20
-1092.004831852781
 30
0.0
 40
0.4685784014643071
 50
294.9000000000001
 51
88.09999999999762
  0
LINE
  5
377
  8
ZUWAKU
  6
CONTINUOUS
 62
     6
 10
1289.799969496112
 20
-1095.766231497943
 30
0.0
 11
1287.111289537746
 21
-1097.014275181959
 31
0.0
  0
LINE
  5
378
  8
ZUWAKU
  6
CONTINUOUS
 62
     6
 10
1289.155153262905
 20
-1094.343547198915
 30
0.0
 11
1286.11581633822
 21
-1095.754360427404
 31
0.0
  0
LINE
  5
379
  8
ZUWAKU
  6
CONTINUOUS
 62
     6
 10
1261.938511415111
 20
-1091.942630216047
 30
0.0
 11
1288.128593875111
 21
-1092.81144473239
 31
0.0
  0
LINE
  5
37A
  8
ZUWAKU
  6
CONTINUOUS
 62
     6
 10
1270.881613957731
 20
-1094.290237180071
 30
0.0
 11
1285.14000554682
 21
-1094.763236744363
 31
0.0
  0
LINE
  5
37B
  8
ZUWAKU
  6
CONTINUOUS
 62
     6
 10
1288.914520628684
 20
-1102.839421212281
 30
0.0
 11
1261.695908849625
 21
-1092.391175066715
 31
0.0
  0
LINE
  5
37C
  8
ZUWAKU
  6
CONTINUOUS
 62
     6
 10
1287.844596563516
 20
-1104.101767206292
 30
0.0
 11
1261.155238674284
 21
-1093.856682594426
 31
0.0
  0
LINE
  5
37D
  8
ZUWAKU
  6
CONTINUOUS
 62
     6
 10
1262.157376961069
 20
-1096.472102591325
 30
0.0
 11
1284.276334434925
 21
-1104.96277485801
 31
0.0
  0
LINE
  5
37E
  8
ZUWAKU
  6
CONTINUOUS
 62
     6
 10
1296.099488750594
 20
-1107.270523430013
 30
0.0
 11
1289.352297714154
 21
-1104.680519453603
 31
0.0
  0
LINE
  5
37F
  8
ZUWAKU
  6
CONTINUOUS
 62
     6
 10
1289.179322989644
 20
-1106.844855828364
 30
0.0
 11
1297.104241901229
 21
-1109.88694717909
 31
0.0
  0
ARC
  5
380
  8
ZUWAKU
  6
CONTINUOUS
 62
     6
 10
1261.877504492842
 20
-1097.2011952978
 30
0.0
 40
0.7809640024405122
 50
69.00000000000045
 51
193.0320838540864
  0
ARC
  5
381
  8
ZUWAKU
  6
CONTINUOUS
 62
     6
 10
1270.855720956916
 20
-1095.070771820949
 30
0.0
 40
0.7809640024405122
 50
88.10000000000004
 51
249.0000000000013
  0
ARC
  5
382
  8
ZUWAKU
  6
CONTINUOUS
 62
     6
 10
1283.996461966698
 20
-1105.691867564496
 30
0.0
 40
0.7809640024405122
 50
291.9409771775832
 51
69.00000000000135
  0
ARC
  5
383
  8
ZUWAKU
  6
CONTINUOUS
 62
     6
 10
1285.114112546005
 20
-1095.543771385241
 30
0.0
 40
0.7809640024405122
 50
318.0853946908567
 51
88.10000000000007
  0
ARC
  5
384
  8
ZUWAKU
  6
CONTINUOUS
 62
     6
 10
1288.899450521423
 20
-1107.573948534839
 30
0.0
 40
0.7809640024405122
 50
68.99999999999984
 51
132.639760324211
  0
LINE
  5
385
  8
ZUWAKU
  6
CONTINUOUS
 62
     6
 10
1297.816561360386
 20
-1107.823593277976
 30
0.0
 11
1297.453071221998
 21
-1109.693587929175
 31
0.0
  0
ARC
  5
386
  8
ZUWAKU
  6
CONTINUOUS
 62
     6
 10
1297.197532723968
 20
-1109.643916276928
 30
0.0
 40
0.2603213341468374
 50
249.0000000000002
 51
348.9999999999995
  0
LINE
  5
387
  8
ZUWAKU
  6
CONTINUOUS
 62
     6
 10
1290.374197491269
 20
-1103.399738662604
 30
0.0
 11
1291.857077587748
 21
-1103.968962999905
 31
0.0
  0
LINE
  5
388
  8
ZUWAKU
  6
CONTINUOUS
 62
     7
 10
1257.227807018425
 20
-1068.641257908214
 30
0.0
 11
1257.643474795846
 21
-1066.502832574563
 31
0.0
  0
LINE
  5
389
  8
ZUWAKU
  6
CONTINUOUS
 62
     7
 10
1259.434709802664
 20
-1066.502832574563
 30
0.0
 11
1257.643474795846
 21
-1066.502832574563
 31
0.0
  0
LINE
  5
38A
  8
ZUWAKU
  6
CONTINUOUS
 62
     7
 10
1259.434709802664
 20
-1066.502832574563
 30
0.0
 11
1259.050370106789
 21
-1068.480088900452
 31
0.0
  0
ARC
  5
38B
  8
ZUWAKU
  6
CONTINUOUS
 62
     7
 10
1259.464941439866
 20
-1068.560673404333
 30
0.0
 40
0.4223307382550334
 50
169.0000000000074
 51
270.0000000000001
  0
LINE
  5
38C
  8
ZUWAKU
  6
CONTINUOUS
 62
     7
 10
1259.464941439866
 20
-1068.983004142586
 30
0.0
 11
1263.58226688021
 21
-1068.983004142586
 31
0.0
  0
LINE
  5
38D
  8
ZUWAKU
  6
CONTINUOUS
 62
     7
 10
1263.58226688021
 20
-1068.983004142586
 30
0.0
 11
1263.232216155283
 21
-1070.783859005311
 31
0.0
  0
LINE
  5
38E
  8
ZUWAKU
  6
CONTINUOUS
 62
     7
 10
1258.950705156017
 20
-1070.783859005311
 30
0.0
 11
1263.232216155283
 21
-1070.783859005311
 31
0.0
  0
ARC
  5
38F
  8
ZUWAKU
  6
CONTINUOUS
 62
     7
 10
1258.950705156017
 20
-1071.206189743564
 30
0.0
 40
0.4223307382550334
 50
89.99999999999814
 51
168.9999999999999
  0
LINE
  5
390
  8
ZUWAKU
  6
CONTINUOUS
 62
     7
 10
1258.536133822941
 20
-1071.125605239683
 30
0.0
 11
1257.156273013302
 21
-1078.2243737094
 31
0.0
  0
LINE
  5
391
  8
ZUWAKU
  6
CONTINUOUS
 62
     7
 10
1255.365038006489
 20
-1078.2243737094
 30
0.0
 11
1257.156273013302
 21
-1078.2243737094
 31
0.0
  0
LINE
  5
392
  8
ZUWAKU
  6
CONTINUOUS
 62
     7
 10
1255.365038006489
 20
-1078.2243737094
 30
0.0
 11
1256.713570734576
 21
-1071.286774247445
 31
0.0
  0
ARC
  5
393
  8
ZUWAKU
  6
CONTINUOUS
 62
     7
 10
1256.2989994015
 20
-1071.206189743564
 30
0.0
 40
0.4223307382550334
 50
349.0000000000003
 51
90.0000000000005
  0
LINE
  5
394
  8
ZUWAKU
  6
CONTINUOUS
 62
     7
 10
1256.2989994015
 20
-1070.783859005311
 30
0.0
 11
1252.181673961156
 21
-1070.783859005311
 31
0.0
  0
LINE
  5
395
  8
ZUWAKU
  6
CONTINUOUS
 62
     7
 10
1252.181673961156
 20
-1070.783859005311
 30
0.0
 11
1252.531724686082
 21
-1068.983004142586
 31
0.0
  0
LINE
  5
396
  8
ZUWAKU
  6
CONTINUOUS
 62
     7
 10
1252.531724686082
 20
-1068.983004142586
 30
0.0
 11
1256.813235685349
 21
-1068.983004142586
 31
0.0
  0
ARC
  5
397
  8
ZUWAKU
  6
CONTINUOUS
 62
     7
 10
1256.813235685349
 20
-1068.560673404333
 30
0.0
 40
0.4223307382550334
 50
270.0000000000001
 51
349.0000000000099
  0
LINE
  5
398
  8
ZUWAKU
  6
CONTINUOUS
 62
     7
 10
1253.312752736608
 20
-1072.620589109036
 30
0.0
 11
1253.119804556004
 21
-1073.613221446431
 31
0.0
  0
ARC
  5
399
  8
ZUWAKU
  6
CONTINUOUS
 62
     7
 10
1250.595243236242
 20
-1073.122496436656
 30
0.0
 40
2.571812763880414
 50
285.6048457891953
 51
348.9999999999995
  0
ARC
  5
39A
  8
ZUWAKU
  6
CONTINUOUS
 62
     7
 10
1251.306890515392
 20
-1075.670498566015
 30
0.0
 40
0.0737035753508236
 50
105.6048457891947
 51
168.9999999999997
  0
LINE
  5
39B
  8
ZUWAKU
  6
CONTINUOUS
 62
     7
 10
1250.740269136898
 20
-1078.199243982571
 30
0.0
 11
1251.234541082308
 21
-1075.656435260848
 31
0.0
  0
ARC
  5
39C
  8
ZUWAKU
  6
CONTINUOUS
 62
     7
 10
1249.68267631087
 20
-1073.277544712303
 30
0.0
 40
5.034046711409395
 50
282.127509556616
 51
348.9999999999987
  0
LINE
  5
39D
  8
ZUWAKU
  6
CONTINUOUS
 62
     7
 10
1254.624233405538
 20
-1074.238086107984
 30
0.0
 11
1254.938642972223
 21
-1072.620589109036
 31
0.0
  0
LINE
  5
39E
  8
ZUWAKU
  6
CONTINUOUS
 62
     7
 10
1254.938642972223
 20
-1072.620589109036
 30
0.0
 11
1253.312752736608
 21
-1072.620589109036
 31
0.0
  0
LINE
  5
39F
  8
ZUWAKU
  6
CONTINUOUS
 62
     7
 10
1260.091888355889
 20
-1072.620589109036
 30
0.0
 11
1259.54936311299
 21
-1075.411639526163
 31
0.0
  0
ARC
  5
3A0
  8
ZUWAKU
  6
CONTINUOUS
 62
     7
 10
1261.731702532759
 20
-1075.835843337224
 30
0.0
 40
2.223185600976204
 50
168.9999999999999
 51
269.9999999999885
  0
LINE
  5
3A1
  8
ZUWAKU
  6
CONTINUOUS
 62
     7
 10
1261.731702532759
 20
-1078.059028938191
 30
0.0
 11
1261.818066374696
 21
-1078.059028938191
 31
0.0
  0
LINE
  5
3A2
  8
ZUWAKU
  6
CONTINUOUS
 62
     7
 10
1261.818066374696
 20
-1078.059028938191
 30
0.0
 11
1262.296676170588
 21
-1075.596794990663
 31
0.0
  0
LINE
  5
3A3
  8
ZUWAKU
  6
CONTINUOUS
 62
     7
 10
1262.296676170588
 20
-1075.596794990663
 30
0.0
 11
1262.087983894047
 21
-1075.596794990663
 31
0.0
  0
ARC
  5
3A4
  8
ZUWAKU
  6
CONTINUOUS
 62
     7
 10
1262.087983894047
 20
-1074.678429938806
 30
0.0
 40
0.9183650518608906
 50
168.9999999999997
 51
269.9999999999974
  0
LINE
  5
3A5
  8
ZUWAKU
  6
CONTINUOUS
 62
     7
 10
1261.186491794811
 20
-1074.503197625877
 30
0.0
 11
1261.552433820301
 21
-1072.620589109036
 31
0.0
  0
LINE
  5
3A6
  8
ZUWAKU
  6
CONTINUOUS
 62
     7
 10
1261.552433820301
 20
-1072.620589109036
 30
0.0
 11
1260.091888355889
 21
-1072.620589109036
 31
0.0
  0
LINE
  5
3A7
  8
ZUWAKU
  6
CONTINUOUS
 62
     7
 10
1268.987984473302
 20
-1066.833522116959
 30
0.0
 11
1268.829210216082
 21
-1067.650344859562
 31
0.0
  0
ARC
  5
3A8
  8
ZUWAKU
  6
CONTINUOUS
 62
     7
 10
1265.0061935199
 20
-1066.907225692311
 30
0.0
 40
3.894570933496032
 50
271.0152301125743
 51
349.000000000001
  0
LINE
  5
3A9
  8
ZUWAKU
  6
CONTINUOUS
 62
     7
 10
1264.599124664496
 20
-1073.250371444454
 30
0.0
 11
1265.075198232394
 21
-1070.801185258836
 31
0.0
  0
ARC
  5
3AA
  8
ZUWAKU
  6
CONTINUOUS
 62
     7
 10
1264.182627050395
 20
-1066.907225692311
 30
0.0
 40
6.356804881025012
 50
273.7567084122492
 51
341.5139853209125
  0
ARC
  5
3AB
  8
ZUWAKU
  6
CONTINUOUS
 62
     7
 10
1270.611966578378
 20
-1069.056707717937
 30
0.0
 40
0.4223307382550334
 50
89.9999999999993
 51
161.5139853209126
  0
LINE
  5
3AC
  8
ZUWAKU
  6
CONTINUOUS
 62
     7
 10
1270.611966578378
 20
-1068.634376979685
 30
0.0
 11
1273.581983044725
 21
-1068.634376979685
 31
0.0
  0
ARC
  5
3AD
  8
ZUWAKU
  6
CONTINUOUS
 62
     7
 10
1273.581983044725
 20
-1069.056707717937
 30
0.0
 40
0.4223307382550334
 50
346.2586933201409
 51
90.00000000000375
  0
ARC
  5
3AE
  8
ZUWAKU
  6
CONTINUOUS
 62
     7
 10
1265.71198067131
 20
-1067.132195933359
 30
0.0
 40
8.524224527150698
 50
277.267166461819
 51
346.258693320142
  0
LINE
  5
3AF
  8
ZUWAKU
  6
CONTINUOUS
 62
     7
 10
1266.310432846077
 20
-1078.056455773655
 30
0.0
 11
1266.790262505826
 21
-1075.587946170596
 31
0.0
  0
ARC
  5
3B0
  8
ZUWAKU
  6
CONTINUOUS
 62
     7
 10
1266.087439660541
 20
-1068.395328633135
 30
0.0
 40
9.66370030506406
 50
271.3222370437007
 51
349.0000000000002
  0
LINE
  5
3B1
  8
ZUWAKU
  6
CONTINUOUS
 62
     7
 10
1275.573590572686
 20
-1070.239249579962
 30
0.0
 11
1276.23559692978
 21
-1066.833522116959
 31
0.0
  0
LINE
  5
3B2
  8
ZUWAKU
  6
CONTINUOUS
 62
     7
 10
1268.987984473302
 20
-1066.833522116959
 30
0.0
 11
1276.23559692978
 21
-1066.833522116959
 31
0.0
  0
LINE
  5
3B3
  8
ZUWAKU
  6
CONTINUOUS
 62
     7
 10
1288.305765227523
 20
-1066.833522116959
 30
0.0
 11
1278.081946889407
 21
-1066.833522116959
 31
0.0
  0
LINE
  5
3B4
  8
ZUWAKU
  6
CONTINUOUS
 62
     7
 10
1277.731896164481
 20
-1068.634376979685
 30
0.0
 11
1281.353187291215
 21
-1068.634376979685
 31
0.0
  0
LINE
  5
3B5
  8
ZUWAKU
  6
CONTINUOUS
 62
     7
 10
1284.004893045737
 20
-1068.634376979685
 30
0.0
 11
1287.955714502597
 21
-1068.634376979685
 31
0.0
  0
LINE
  5
3B6
  8
ZUWAKU
  6
CONTINUOUS
 62
     7
 10
1280.035456813853
 20
-1076.258174075477
 30
0.0
 11
1276.084635356993
 21
-1076.258174075477
 31
0.0
  0
LINE
  5
3B7
  8
ZUWAKU
  6
CONTINUOUS
 62
     7
 10
1286.473798466313
 20
-1076.258174075477
 30
0.0
 11
1282.687162568375
 21
-1076.258174075477
 31
0.0
  0
LINE
  5
3B8
  8
ZUWAKU
  6
CONTINUOUS
 62
     7
 10
1275.734584632067
 20
-1078.059028938191
 30
0.0
 11
1286.123747741386
 21
-1078.059028938191
 31
0.0
  0
LINE
  5
3B9
  8
ZUWAKU
  6
CONTINUOUS
 62
     7
 10
1278.081946889407
 20
-1066.833522116959
 30
0.0
 11
1277.731896164481
 21
-1068.634376979685
 31
0.0
  0
ARC
  5
3BA
  8
ZUWAKU
  6
CONTINUOUS
 62
     7
 10
1281.353187291215
 20
-1069.056707717937
 30
0.0
 40
0.4223307382550334
 50
348.9999999999997
 51
90.0000000000051
  0
LINE
  5
3BB
  8
ZUWAKU
  6
CONTINUOUS
 62
     7
 10
1281.767758624291
 20
-1069.137292221819
 30
0.0
 11
1280.450028146929
 21
-1075.916427841105
 31
0.0
  0
ARC
  5
3BC
  8
ZUWAKU
  6
CONTINUOUS
 62
     7
 10
1280.035456813853
 20
-1075.835843337224
 30
0.0
 40
0.4223307382550334
 50
269.9999999999994
 51
348.9999999999999
  0
LINE
  5
3BD
  8
ZUWAKU
  6
CONTINUOUS
 62
     7
 10
1276.084635356993
 20
-1076.258174075477
 30
0.0
 11
1275.734584632067
 21
-1078.059028938191
 31
0.0
  0
LINE
  5
3BE
  8
ZUWAKU
  6
CONTINUOUS
 62
     7
 10
1286.123747741386
 20
-1078.059028938191
 30
0.0
 11
1286.473798466313
 21
-1076.258174075477
 31
0.0
  0
ARC
  5
3BF
  8
ZUWAKU
  6
CONTINUOUS
 62
     7
 10
1282.687162568375
 20
-1075.835843337224
 30
0.0
 40
0.4223307382550334
 50
169.0000000000001
 51
270.0000000000013
  0
LINE
  5
3C0
  8
ZUWAKU
  6
CONTINUOUS
 62
     7
 10
1282.272591235299
 20
-1075.755258833332
 30
0.0
 11
1283.590321712661
 21
-1068.976123214056
 31
0.0
  0
ARC
  5
3C1
  8
ZUWAKU
  6
CONTINUOUS
 62
     7
 10
1284.004893045737
 20
-1069.056707717937
 30
0.0
 40
0.4223307382550334
 50
90.00000000000001
 51
168.9999999999998
  0
LINE
  5
3C2
  8
ZUWAKU
  6
CONTINUOUS
 62
     7
 10
1287.955714502597
 20
-1068.634376979685
 30
0.0
 11
1288.305765227523
 21
-1066.833522116959
 31
0.0
  0
LINE
  5
3C3
  8
ZUWAKU
  6
CONTINUOUS
 62
     7
 10
1298.751546244966
 20
-1066.502832574563
 30
0.0
 11
1297.386976423243
 21
-1066.502832574563
 31
0.0
  0
ARC
  5
3C4
  8
ZUWAKU
  6
CONTINUOUS
 62
     7
 10
1297.386976423243
 20
-1066.576536149915
 30
0.0
 40
0.0737035753508236
 50
90.00000000000001
 51
151.0614722598196
  0
ARC
  5
3C5
  8
ZUWAKU
  6
CONTINUOUS
 62
     7
 10
1288.415594029034
 20
-1061.616193013848
 30
0.0
 40
10.17767223917022
 50
269.999999999989
 51
331.0614722598194
  0
LINE
  5
3C6
  8
ZUWAKU
  6
CONTINUOUS
 62
     7
 10
1288.415594029034
 20
-1071.793865253025
 30
0.0
 11
1287.925920524243
 21
-1071.793865253025
 31
0.0
  0
LINE
  5
3C7
  8
ZUWAKU
  6
CONTINUOUS
 62
     7
 10
1287.324873155153
 20
-1074.573420613154
 30
0.0
 11
1287.853571091165
 21
-1071.853505523199
 31
0.0
  0
ARC
  5
3C8
  8
ZUWAKU
  6
CONTINUOUS
 62
     7
 10
1287.925920524243
 20
-1071.867568828377
 30
0.0
 40
0.0737035753508236
 50
89.99999999998872
 51
168.9999999999997
  0
ARC
  5
3C9
  8
ZUWAKU
  6
CONTINUOUS
 62
     7
 10
1285.629117680893
 20
-1060.048026988895
 30
0.0
 40
14.62404344112263
 50
276.6588077484425
 51
292.9187661784221
  0
ARC
  5
3CA
  8
ZUWAKU
  6
CONTINUOUS
 62
     7
 10
1291.488561674592
 20
-1073.906608879938
 30
0.0
 40
0.4223307382550334
 50
349.0000000000001
 51
112.9187661783919
  0
LINE
  5
3CB
  8
ZUWAKU
  6
CONTINUOUS
 62
     7
 10
1291.903133007668
 20
-1073.987193383819
 30
0.0
 11
1291.079508586109
 21
-1078.2243737094
 31
0.0
  0
LINE
  5
3CC
  8
ZUWAKU
  6
CONTINUOUS
 62
     7
 10
1291.079508586109
 20
-1078.2243737094
 30
0.0
 11
1292.870743592922
 21
-1078.2243737094
 31
0.0
  0
LINE
  5
3CD
  8
ZUWAKU
  6
CONTINUOUS
 62
     7
 10
1292.870743592922
 20
-1078.2243737094
 30
0.0
 11
1294.040132397572
 21
-1072.20838983822
 31
0.0
  0
ARC
  5
3CE
  8
ZUWAKU
  6
CONTINUOUS
 62
     7
 10
1294.617010652702
 20
-1072.32052361178
 30
0.0
 40
0.5876755094569858
 50
126.2175779738571
 51
169.0
  0
ARC
  5
3CF
  8
ZUWAKU
  6
CONTINUOUS
 62
     7
 10
1285.629117680893
 20
-1060.048026988895
 30
0.0
 40
14.62404344112263
 50
306.2175779738571
 51
333.8078384872959
  0
LINE
  5
3D0
  8
ZUWAKU
  6
CONTINUOUS
 62
     2
 10
1419.619630929065
 20
-1072.839296061703
 30
0.0
 11
1421.478692838072
 21
-1063.275251651787
 31
0.0
  0
LINE
  5
3D1
  8
ZUWAKU
  6
CONTINUOUS
 62
     2
 10
1429.48993872267
 20
-1063.275251651787
 30
0.0
 11
1421.478692838072
 21
-1063.275251651787
 31
0.0
  0
LINE
  5
3D2
  8
ZUWAKU
  6
CONTINUOUS
 62
     2
 10
1429.48993872267
 20
-1063.275251651787
 30
0.0
 11
1427.770990736994
 21
-1072.118472414736
 31
0.0
  0
ARC
  5
3D3
  8
ZUWAKU
  6
CONTINUOUS
 62
     2
 10
1429.625148830904
 20
-1072.478884238219
 30
0.0
 40
1.888861805353335
 50
169.0000000000074
 51
270.0000000000001
  0
LINE
  5
3D4
  8
ZUWAKU
  6
CONTINUOUS
 62
     2
 10
1429.625148830904
 20
-1074.367746043569
 30
0.0
 11
1448.03976576502
 21
-1074.367746043569
 31
0.0
  0
LINE
  5
3D5
  8
ZUWAKU
  6
CONTINUOUS
 62
     2
 10
1448.03976576502
 20
-1074.367746043569
 30
0.0
 11
1446.474174193391
 21
-1082.422016450776
 31
0.0
  0
LINE
  5
3D6
  8
ZUWAKU
  6
CONTINUOUS
 62
     2
 10
1427.325242175985
 20
-1082.422016450776
 30
0.0
 11
1446.474174193391
 21
-1082.422016450776
 31
0.0
  0
ARC
  5
3D7
  8
ZUWAKU
  6
CONTINUOUS
 62
     2
 10
1427.325242175985
 20
-1084.310878256126
 30
0.0
 40
1.888861805353335
 50
89.99999999999814
 51
168.9999999999999
  0
LINE
  5
3D8
  8
ZUWAKU
  6
CONTINUOUS
 62
     2
 10
1425.471084082076
 20
-1083.950466432642
 30
0.0
 11
1419.299697195099
 21
-1115.699499626143
 31
0.0
  0
LINE
  5
3D9
  8
ZUWAKU
  6
CONTINUOUS
 62
     2
 10
1411.288451310501
 20
-1115.699499626143
 30
0.0
 11
1419.299697195099
 21
-1115.699499626143
 31
0.0
  0
LINE
  5
3DA
  8
ZUWAKU
  6
CONTINUOUS
 62
     2
 10
1411.288451310501
 20
-1115.699499626143
 30
0.0
 11
1417.319724274147
 21
-1084.671290079609
 31
0.0
  0
ARC
  5
3DB
  8
ZUWAKU
  6
CONTINUOUS
 62
     2
 10
1415.465566180238
 20
-1084.310878256126
 30
0.0
 40
1.888861805353335
 50
349.0000000000003
 51
90.0000000000005
  0
LINE
  5
3DC
  8
ZUWAKU
  6
CONTINUOUS
 62
     2
 10
1415.465566180238
 20
-1082.422016450776
 30
0.0
 11
1397.050949246116
 21
-1082.422016450776
 31
0.0
  0
LINE
  5
3DD
  8
ZUWAKU
  6
CONTINUOUS
 62
     2
 10
1397.050949246116
 20
-1082.422016450776
 30
0.0
 11
1398.61654081775
 21
-1074.367746043569
 31
0.0
  0
LINE
  5
3DE
  8
ZUWAKU
  6
CONTINUOUS
 62
     2
 10
1398.61654081775
 20
-1074.367746043569
 30
0.0
 11
1417.765472835151
 21
-1074.367746043569
 31
0.0
  0
ARC
  5
3DF
  8
ZUWAKU
  6
CONTINUOUS
 62
     2
 10
1417.765472835151
 20
-1072.478884238219
 30
0.0
 40
1.888861805353335
 50
270.0000000000001
 51
349.0000000000099
  0
LINE
  5
3E0
  8
ZUWAKU
  6
CONTINUOUS
 62
     2
 10
1402.109665802313
 20
-1090.63673781819
 30
0.0
 11
1401.246710739507
 21
-1095.076256752139
 31
0.0
  0
ARC
  5
3E1
  8
ZUWAKU
  6
CONTINUOUS
 62
     2
 10
1389.955684488671
 20
-1092.881503579018
 30
0.0
 40
11.50235694490327
 50
285.6048457891953
 51
348.9999999999995
  0
ARC
  5
3E2
  8
ZUWAKU
  6
CONTINUOUS
 62
     2
 10
1393.138506013848
 20
-1104.277368161348
 30
0.0
 40
0.3296370730043426
 50
105.6048457891947
 51
168.9999999999997
  0
LINE
  5
3E3
  8
ZUWAKU
  6
CONTINUOUS
 62
     2
 10
1390.604308563895
 20
-1115.587107662025
 30
0.0
 11
1392.814925302314
 21
-1104.214470442611
 31
0.0
  0
ARC
  5
3E4
  8
ZUWAKU
  6
CONTINUOUS
 62
     2
 10
1385.874255755151
 20
-1093.574952431602
 30
0.0
 40
22.51462585658112
 50
282.127509556616
 51
348.9999999999987
  0
LINE
  5
3E5
  8
ZUWAKU
  6
CONTINUOUS
 62
     2
 10
1407.975224521125
 20
-1097.870945572577
 30
0.0
 11
1409.381412060787
 21
-1090.63673781819
 31
0.0
  0
LINE
  5
3E6
  8
ZUWAKU
  6
CONTINUOUS
 62
     2
 10
1409.381412060787
 20
-1090.63673781819
 30
0.0
 11
1402.109665802313
 21
-1090.63673781819
 31
0.0
  0
LINE
  5
3E7
  8
ZUWAKU
  6
CONTINUOUS
 62
     2
 10
1432.429150473198
 20
-1090.63673781819
 30
0.0
 11
1430.002722280949
 21
-1103.119628719088
 31
0.0
  0
ARC
  5
3E8
  8
ZUWAKU
  6
CONTINUOUS
 62
     2
 10
1439.76317114941
 20
-1105.016867787461
 30
0.0
 40
9.94313221255428
 50
168.9999999999999
 51
269.9999999999885
  0
LINE
  5
3E9
  8
ZUWAKU
  6
CONTINUOUS
 62
     2
 10
1439.763171149404
 20
-1114.960000000018
 30
0.0
 11
1440.149430892373
 21
-1114.960000000018
 31
0.0
  0
LINE
  5
3EA
  8
ZUWAKU
  6
CONTINUOUS
 62
     2
 10
1440.149430892373
 20
-1114.960000000018
 30
0.0
 11
1442.289999127733
 21
-1103.947731088346
 31
0.0
  0
LINE
  5
3EB
  8
ZUWAKU
  6
CONTINUOUS
 62
     2
 10
1442.289999127733
 20
-1103.947731088346
 30
0.0
 11
1441.356629058916
 21
-1103.947731088346
 31
0.0
  0
ARC
  5
3EC
  8
ZUWAKU
  6
CONTINUOUS
 62
     2
 10
1441.356629058916
 20
-1099.840370404633
 30
0.0
 40
4.107360683711014
 50
168.9999999999997
 51
269.9999999999974
  0
LINE
  5
3ED
  8
ZUWAKU
  6
CONTINUOUS
 62
     2
 10
1437.324732159564
 20
-1099.056649038918
 30
0.0
 11
1438.961397105558
 21
-1090.63673781819
 31
0.0
  0
LINE
  5
3EE
  8
ZUWAKU
  6
CONTINUOUS
 62
     2
 10
1438.961397105558
 20
-1090.63673781819
 30
0.0
 11
1432.429150473198
 21
-1090.63673781819
 31
0.0
  0
LINE
  5
3EF
  8
ZUWAKU
  6
CONTINUOUS
 62
     2
 10
1472.216678708432
 20
-1064.754250904026
 30
0.0
 11
1471.506565512863
 21
-1068.407466596077
 31
0.0
  0
ARC
  5
3F0
  8
ZUWAKU
  6
CONTINUOUS
 62
     2
 10
1454.408235780845
 20
-1065.083887977028
 30
0.0
 40
17.41835395385709
 50
271.0152301125743
 51
349.000000000001
  0
LINE
  5
3F1
  8
ZUWAKU
  6
CONTINUOUS
 62
     2
 10
1452.587632297666
 20
-1093.453420790357
 30
0.0
 11
1454.716857327917
 21
-1082.499507610061
 31
0.0
  0
ARC
  5
3F2
  8
ZUWAKU
  6
CONTINUOUS
 62
     2
 10
1450.724858968527
 20
-1065.083887977028
 30
0.0
 40
28.43062286553494
 50
273.7567084122492
 51
341.5139853209125
  0
ARC
  5
3F3
  8
ZUWAKU
  6
CONTINUOUS
 62
     2
 10
1479.479890909212
 20
-1074.697383116582
 30
0.0
 40
1.888861805353335
 50
89.9999999999993
 51
161.5139853209126
  0
LINE
  5
3F4
  8
ZUWAKU
  6
CONTINUOUS
 62
     2
 10
1479.479890909212
 20
-1072.808521311222
 30
0.0
 11
1492.763202201516
 21
-1072.808521311222
 31
0.0
  0
ARC
  5
3F5
  8
ZUWAKU
  6
CONTINUOUS
 62
     2
 10
1492.763202201516
 20
-1074.697383116582
 30
0.0
 40
1.888861805353335
 50
346.2586933201409
 51
90.00000000000375
  0
ARC
  5
3F6
  8
ZUWAKU
  6
CONTINUOUS
 62
     2
 10
1457.564848057081
 20
-1066.090060763313
 30
0.0
 40
38.12434348519541
 50
277.267166461819
 51
346.258693320142
  0
LINE
  5
3F7
  8
ZUWAKU
  6
CONTINUOUS
 62
     2
 10
1460.241407807188
 20
-1114.948491597283
 30
0.0
 11
1462.387431847786
 21
-1103.908155000842
 31
0.0
  0
ARC
  5
3F8
  8
ZUWAKU
  6
CONTINUOUS
 62
     2
 10
1459.244077343511
 20
-1071.739384612095
 30
0.0
 40
43.22061538791944
 50
271.3222370437007
 51
349.0000000000002
  0
LINE
  5
3F9
  8
ZUWAKU
  6
CONTINUOUS
 62
     2
 10
1501.670608293628
 20
-1079.98626681382
 30
0.0
 11
1504.631412254962
 21
-1064.754250904026
 31
0.0
  0
LINE
  5
3FA
  8
ZUWAKU
  6
CONTINUOUS
 62
     2
 10
1472.216678708432
 20
-1064.754250904026
 30
0.0
 11
1504.631412254962
 21
-1064.754250904026
 31
0.0
  0
LINE
  5
3FB
  8
ZUWAKU
  6
CONTINUOUS
 62
     2
 10
1558.61488496167
 20
-1064.754250904026
 30
0.0
 11
1512.889158144991
 21
-1064.754250904026
 31
0.0
  0
LINE
  5
3FC
  8
ZUWAKU
  6
CONTINUOUS
 62
     2
 10
1511.323566573362
 20
-1072.808521311222
 30
0.0
 11
1527.519684629121
 21
-1072.808521311222
 31
0.0
  0
LINE
  5
3FD
  8
ZUWAKU
  6
CONTINUOUS
 62
     2
 10
1539.379360624874
 20
-1072.808521311222
 30
0.0
 11
1557.049293390036
 21
-1072.808521311222
 31
0.0
  0
LINE
  5
3FE
  8
ZUWAKU
  6
CONTINUOUS
 62
     2
 10
1521.626173825895
 20
-1106.905729592822
 30
0.0
 11
1503.956241060733
 21
-1106.905729592822
 31
0.0
  0
LINE
  5
3FF
  8
ZUWAKU
  6
CONTINUOUS
 62
     2
 10
1550.421467503526
 20
-1106.905729592822
 30
0.0
 11
1533.485849821648
 21
-1106.905729592822
 31
0.0
  0
LINE
  5
400
  8
ZUWAKU
  6
CONTINUOUS
 62
     2
 10
1502.390649489099
 20
-1114.960000000018
 30
0.0
 11
1548.855875931898
 21
-1114.960000000018
 31
0.0
  0
LINE
  5
401
  8
ZUWAKU
  6
CONTINUOUS
 62
     2
 10
1512.889158144991
 20
-1064.754250904026
 30
0.0
 11
1511.323566573362
 21
-1072.808521311222
 31
0.0
  0
ARC
  5
402
  8
ZUWAKU
  6
CONTINUOUS
 62
     2
 10
1527.519684629121
 20
-1074.697383116571
 30
0.0
 40
1.888861805353335
 50
348.9999999999997
 51
90.0000000000051
  0
LINE
  5
403
  8
ZUWAKU
  6
CONTINUOUS
 62
     2
 10
1529.37384272303
 20
-1075.057794940066
 30
0.0
 11
1523.48033191981
 21
-1105.377279610945
 31
0.0
  0
ARC
  5
404
  8
ZUWAKU
  6
CONTINUOUS
 62
     2
 10
1521.626173825895
 20
-1105.016867787461
 30
0.0
 40
1.888861805353335
 50
269.9999999999994
 51
348.9999999999999
  0
LINE
  5
405
  8
ZUWAKU
  6
CONTINUOUS
 62
     2
 10
1503.956241060733
 20
-1106.905729592822
 30
0.0
 11
1502.390649489099
 21
-1114.960000000018
 31
0.0
  0
LINE
  5
406
  8
ZUWAKU
  6
CONTINUOUS
 62
     2
 10
1548.855875931898
 20
-1114.960000000018
 30
0.0
 11
1550.421467503526
 21
-1106.905729592822
 31
0.0
  0
ARC
  5
407
  8
ZUWAKU
  6
CONTINUOUS
 62
     2
 10
1533.485849821648
 20
-1105.016867787461
 30
0.0
 40
1.888861805353335
 50
169.0000000000001
 51
270.0000000000013
  0
LINE
  5
408
  8
ZUWAKU
  6
CONTINUOUS
 62
     2
 10
1531.631691727739
 20
-1104.656455963978
 30
0.0
 11
1537.525202530959
 21
-1074.336971293088
 31
0.0
  0
ARC
  5
409
  8
ZUWAKU
  6
CONTINUOUS
 62
     2
 10
1539.379360624874
 20
-1074.697383116582
 30
0.0
 40
1.888861805353335
 50
90.00000000000001
 51
168.9999999999998
  0
LINE
  5
40A
  8
ZUWAKU
  6
CONTINUOUS
 62
     2
 10
1557.049293390036
 20
-1072.808521311222
 30
0.0
 11
1558.61488496167
 21
-1064.754250904026
 31
0.0
  0
LINE
  5
40B
  8
ZUWAKU
  6
CONTINUOUS
 62
     2
 10
1605.333333333322
 20
-1063.275251651787
 30
0.0
 11
1599.230334940078
 21
-1063.275251651787
 31
0.0
  0
ARC
  5
40C
  8
ZUWAKU
  6
CONTINUOUS
 62
     2
 10
1599.230334940078
 20
-1063.60488872479
 30
0.0
 40
0.3296370730043426
 50
90.00000000000001
 51
151.0614722598196
  0
ARC
  5
40D
  8
ZUWAKU
  6
CONTINUOUS
 62
     2
 10
1559.106091046172
 20
-1041.419899941215
 30
0.0
 40
45.51933974638767
 50
269.999999999989
 51
331.0614722598194
  0
LINE
  5
40E
  8
ZUWAKU
  6
CONTINUOUS
 62
     2
 10
1559.106091046161
 20
-1086.9392396876
 30
0.0
 11
1556.916040698165
 21
-1086.9392396876
 31
0.0
  0
LINE
  5
40F
  8
ZUWAKU
  6
CONTINUOUS
 62
     2
 10
1554.22787401776
 20
-1099.370719284133
 30
0.0
 11
1556.592459986631
 21
-1087.205979041865
 31
0.0
  0
ARC
  5
410
  8
ZUWAKU
  6
CONTINUOUS
 62
     2
 10
1556.916040698165
 20
-1087.268876760602
 30
0.0
 40
0.3296370730043426
 50
89.99999999998872
 51
168.9999999999997
  0
ARC
  5
411
  8
ZUWAKU
  6
CONTINUOUS
 62
     2
 10
1546.643657534286
 20
-1034.406323517146
 30
0.0
 40
65.40560417149622
 50
276.6588077484425
 51
292.9187661784221
  0
ARC
  5
412
  8
ZUWAKU
  6
CONTINUOUS
 62
     2
 10
1572.849848459516
 20
-1096.388423419456
 30
0.0
 40
1.888861805353335
 50
349.0000000000001
 51
112.9187661783919
  0
LINE
  5
413
  8
ZUWAKU
  6
CONTINUOUS
 62
     2
 10
1574.70400655343
 20
-1096.74883524294
 30
0.0
 11
1571.020370552257
 21
-1115.699499626143
 31
0.0
  0
LINE
  5
414
  8
ZUWAKU
  6
CONTINUOUS
 62
     2
 10
1571.020370552257
 20
-1115.699499626143
 30
0.0
 11
1579.031616436855
 21
-1115.699499626143
 31
0.0
  0
LINE
  5
415
  8
ZUWAKU
  6
CONTINUOUS
 62
     2
 10
1579.031616436855
 20
-1115.699499626143
 30
0.0
 11
1584.261673471849
 21
-1088.793188702989
 31
0.0
  0
ARC
  5
416
  8
ZUWAKU
  6
CONTINUOUS
 62
     2
 10
1586.841744500912
 20
-1089.294703707216
 30
0.0
 40
2.628361431472562
 50
126.2175779738571
 51
169.0
  0
ARC
  5
417
  8
ZUWAKU
  6
CONTINUOUS
 62
     2
 10
1546.643657534286
 20
-1034.406323517146
 30
0.0
 40
65.40560417149622
 50
306.2175779738571
 51
333.8078384872959
  0
TEXT
  5
418
  8
ZUWAKU
 62
     2
 10
1330.991788207667
 20
-1088.285672608196
 30
0.0
 40
24.0
  1
株
 41
1.120000000000003
  7
DCSTYLE0
 72
     5
 11
1350.191788207668
 21
-1088.285672608196
 31
0.0
  0
TEXT
  5
419
  8
ZUWAKU
 62
     2
 10
1359.791788207669
 20
-1088.285672608196
 30
0.0
 40
24.0
  1
式
 41
1.120000000000003
  7
DCSTYLE0
 72
     5
 11
1378.991788207669
 21
-1088.285672608196
 31
0.0
  0
TEXT
  5
41A
  8
ZUWAKU
 62
     2
 10
1330.991788207667
 20
-1117.085672608203
 30
0.0
 40
24.0
  1
会
 41
1.120000000000003
  7
DCSTYLE0
 72
     5
 11
1350.191788207668
 21
-1117.085672608203
 31
0.0
  0
TEXT
  5
41B
  8
ZUWAKU
 62
     2
 10
1359.791788207669
 20
-1117.085672608203
 30
0.0
 40
24.0
  1
社
 41
1.120000000000003
  7
DCSTYLE0
 72
     5
 11
1378.991788207669
 21
-1117.085672608203
 31
0.0
  0
TEXT
  5
41C
  8
ZUWAKU
 62
     2
 10
870.6939172819413
 20
-933.0388045116014
 30
0.0
 40
32.0
  1
バルクガード　（埋設式・コーナー）
 41
0.9391089108910892
  7
DCSTYLE0
 72
     5
 11
1304.293917281941
 21
-933.0388045116014
 31
0.0
  0
TEXT
  5
41D
  8
ZUWAKU
 62
     2
 10
891.7333334286913
 20
-978.9611954884328
 30
0.0
 40
32.0
  1
BG-SM680x680
 41
0.8152439024390242
  7
DCSTYLE0
 72
     5
 11
1197.333333428691
 21
-978.9611954884328
 31
0.0
  0
LINE
  5
41E
  8
ZUWAKU
  6
CONTINUOUS
 62
     5
 10
-1512.000000000009
 20
-1132.000000000018
 30
0.0
 11
-1512.000000000009
 21
1111.333333333315
 31
0.0
  0
LINE
  5
41F
  8
ZUWAKU
  6
CONTINUOUS
 62
     5
 10
-1512.000000000009
 20
1111.333333333315
 30
0.0
 11
1617.333333333324
 21
1111.333333333316
 31
0.0
  0
LINE
  5
420
  8
ZUWAKU
  6
CONTINUOUS
 62
     5
 10
1617.333333333324
 20
1111.333333333316
 30
0.0
 11
1617.333333333324
 21
-1132.000000000017
 31
0.0
  0
LINE
  5
421
  8
ZUWAKU
  6
CONTINUOUS
 62
     5
 10
1617.333333333324
 20
-1132.000000000017
 30
0.0
 11
-1512.000000000009
 21
-1132.000000000018
 31
0.0
  0
LINE
  5
422
  8
0
  6
DIVIDE
 62
     7
 10
-487.3859514454651
 20
-717.0179687256342
 30
0.0
 11
-1323.131866349585
 21
-717.0179687256342
 31
0.0
  0
LINE
  5
423
  8
0
  6
DIVIDE
 62
     7
 10
-312.9023456634849
 20
-717.0179687256342
 30
0.0
 11
522.8435692406352
 21
-717.0179687256342
 31
0.0
  0
LINE
  5
424
  8
0
  6
DIVIDE
 62
     7
 10
-61.96704157244579
 20
-731.0179687256342
 30
0.0
 11
22.10748995156706
 21
-731.0179687256342
 31
0.0
  0
LINE
  5
425
  8
0
  6
DIVIDE
 62
     7
 10
-47.96704157244579
 20
-745.0179687256342
 30
0.0
 11
8.10748995156706
 21
-745.0179687256342
 31
0.0
  0
LINE
  5
426
  8
0
  6
DIVIDE
 62
     7
 10
-33.96704157244579
 20
-759.0179687256342
 30
0.0
 11
-5.892510048432939
 21
-759.0179687256342
 31
0.0
  0
LINE
  5
427
  8
0
  6
CONTINUOUS
 62
     3
 10
-1193.779815085271
 20
-17.01796872563328
 30
0.0
 11
-724.2798150852702
 21
-17.01796872563374
 31
0.0
  0
LINE
  5
428
  8
0
  6
CONTINUOUS
 62
     3
 10
-1169.479815085268
 20
-65.61796872563411
 30
0.0
 11
-724.2798150852702
 21
-65.61796872563411
 31
0.0
  0
LINE
  5
429
  8
0
  6
CONTINUOUS
 62
     3
 10
-549.9798150852673
 20
-917.0179687256342
 30
0.0
 11
-549.9798150852673
 21
-191.3179687256339
 31
0.0
  0
LINE
  5
42A
  8
0
  6
CONTINUOUS
 62
     3
 10
-598.5798150852695
 20
-917.0179687256342
 30
0.0
 11
-598.5798150852695
 21
-191.3179687256339
 31
0.0
  0
ARC
  5
42B
  8
0
  6
CONTINUOUS
 62
     3
 10
-724.2798150852702
 20
-191.3179687256339
 30
0.0
 40
125.7
 50
0.0
 51
90.0
  0
ARC
  5
42C
  8
0
  6
CONTINUOUS
 62
     3
 10
-724.2798150852702
 20
-191.3179687256339
 30
0.0
 40
174.3
 50
0.0
 51
90.0
  0
LINE
  5
42D
  8
0
  6
CONTINUOUS
 62
     3
 10
-1041.979815085271
 20
862.2378706624718
 30
0.0
 11
-574.2798150852702
 21
862.2378706624718
 31
0.0
  0
LINE
  5
42E
  8
0
  6
CONTINUOUS
 62
     3
 10
-1041.979815085271
 20
910.8378706624721
 30
0.0
 11
-574.2798150852702
 21
910.8378706624721
 31
0.0
  0
ARC
  5
42F
  8
0
  6
CONTINUOUS
 62
     3
 10
-574.2798150852702
 20
886.537870662472
 30
0.0
 40
24.3
 50
270.0
 51
90.0
  0
ARC
  5
430
  8
0
  6
CONTINUOUS
 62
     3
 10
-1193.779815085271
 20
-41.31796872563348
 30
0.0
 40
24.3
 50
0.0
 51
180.0
  0
LINE
  5
431
  8
0
  6
CONTINUOUS
 62
     3
 10
-1169.479815085268
 20
-41.31796872563348
 30
0.0
 11
-1169.479815085268
 21
-917.0179687256342
 31
0.0
  0
LINE
  5
432
  8
0
  6
CONTINUOUS
 62
     3
 10
-1218.07981508527
 20
-41.31796872563348
 30
0.0
 11
-1218.07981508527
 21
-917.0179687256342
 31
0.0
  0
LINE
  5
433
  8
0
  6
CONTINUOUS
 62
     3
 10
393.4915179763208
 20
-17.01796872563328
 30
0.0
 11
-76.00848202367973
 21
-17.01796872563374
 31
0.0
  0
LINE
  5
434
  8
0
  6
CONTINUOUS
 62
     3
 10
369.1915179763179
 20
-65.61796872563411
 30
0.0
 11
-76.00848202367973
 21
-65.61796872563411
 31
0.0
  0
LINE
  5
435
  8
0
  6
CONTINUOUS
 62
     3
 10
-250.3084820236826
 20
-917.0179687256342
 30
0.0
 11
-250.3084820236826
 21
-191.3179687256339
 31
0.0
  0
LINE
  5
436
  8
0
  6
CONTINUOUS
 62
     3
 10
-201.7084820236805
 20
-917.0179687256342
 30
0.0
 11
-201.7084820236805
 21
-191.3179687256339
 31
0.0
  0
ARC
  5
437
  8
0
  6
CONTINUOUS
 62
     3
 10
-76.00848202367973
 20
-191.3179687256339
 30
0.0
 40
125.7
 50
90.0
 51
180.0
  0
ARC
  5
438
  8
0
  6
CONTINUOUS
 62
     3
 10
-76.00848202367973
 20
-191.3179687256339
 30
0.0
 40
174.3
 50
90.0
 51
180.0
  0
ARC
  5
439
  8
0
  6
CONTINUOUS
 62
     3
 10
393.4915179763208
 20
-41.31796872563348
 30
0.0
 40
24.3
 50
0.0
 51
180.0
  0
LINE
  5
43A
  8
0
  6
CONTINUOUS
 62
     3
 10
369.1915179763179
 20
-41.31796872563348
 30
0.0
 11
369.1915179763179
 21
-917.0179687256342
 31
0.0
  0
LINE
  5
43B
  8
0
  6
CONTINUOUS
 62
     3
 10
417.7915179763201
 20
-41.31796872563348
 30
0.0
 11
417.7915179763201
 21
-917.0179687256342
 31
0.0
  0
ARC
  5
43C
  8
0
  6
CONTINUOUS
 62
     3
 10
-1193.779815085271
 20
267.0378706624711
 30
0.0
 40
24.3
 50
180.0
 51
0.0
  0
LINE
  5
43D
  8
0
  6
CONTINUOUS
 62
     3
 10
-1169.479815085271
 20
267.0378706624711
 30
0.0
 11
-1169.479815085271
 21
734.7378706624718
 31
0.0
  0
ARC
  5
43E
  8
0
  6
CONTINUOUS
 62
     3
 10
-1041.979815085271
 20
734.7378706624718
 30
0.0
 40
127.5
 50
90.0
 51
180.0
  0
LINE
  5
43F
  8
0
  6
CONTINUOUS
 62
     3
 10
-1218.079815085271
 20
267.0378706624711
 30
0.0
 11
-1218.079815085271
 21
734.7378706624718
 31
0.0
  0
ARC
  5
440
  8
0
  6
CONTINUOUS
 62
     3
 10
-1041.979815085271
 20
734.7378706624718
 30
0.0
 40
176.1000000000004
 50
90.0
 51
180.0
  0
LINE
  5
441
  8
0
  6
CENTER
 62
     4
 10
-1239.680736075376
 20
-41.31796872563393
 30
0.0
 11
-724.2798150852702
 21
-41.31796872563393
 31
0.0
  0
LINE
  5
442
  8
0
  6
CENTER
 62
     4
 10
-574.2798150852702
 20
-936.2214600109311
 30
0.0
 11
-574.2798150852702
 21
-191.3179687256339
 31
0.0
  0
ARC
  5
443
  8
0
  6
CENTER
 62
     4
 10
-724.2798150852702
 20
-191.3179687256339
 30
0.0
 40
150.0
 50
0.0
 51
90.0
  0
LINE
  5
444
  8
0
  6
CENTER
 62
     4
 10
-1041.979815085271
 20
886.5378706624715
 30
0.0
 11
-522.7335216367699
 21
886.537870662471
 31
0.0
  0
LINE
  5
445
  8
0
  6
CENTER
 62
     4
 10
-574.2798150852702
 20
935.8978969116747
 30
0.0
 11
-574.2798150852702
 21
847.6223947562689
 31
0.0
  0
LINE
  5
446
  8
0
  6
CENTER
 62
     4
 10
-1193.779815085271
 20
2.059150758006481
 30
0.0
 11
-1193.779815085271
 21
-936.2214600109311
 31
0.0
  0
LINE
  5
447
  8
0
  6
CENTER
 62
     4
 10
439.3924389664254
 20
-41.31796872563393
 30
0.0
 11
-76.00848202367973
 21
-41.31796872563393
 31
0.0
  0
LINE
  5
448
  8
0
  6
CENTER
 62
     4
 10
-226.0084820236797
 20
-936.2214600109311
 30
0.0
 11
-226.0084820236797
 21
-191.3179687256339
 31
0.0
  0
ARC
  5
449
  8
0
  6
CENTER
 62
     4
 10
-76.00848202367973
 20
-191.3179687256339
 30
0.0
 40
150.0
 50
90.0
 51
180.0
  0
LINE
  5
44A
  8
0
  6
CENTER
 62
     4
 10
393.4915179763208
 20
2.059150758006481
 30
0.0
 11
393.4915179763208
 21
-936.2214600109311
 31
0.0
  0
LINE
  5
44B
  8
0
  6
CENTER
 62
     4
 10
-1243.139841334474
 20
267.0378706624711
 30
0.0
 11
-1154.864339179068
 21
267.0378706624711
 31
0.0
  0
LINE
  5
44C
  8
0
  6
CENTER
 62
     4
 10
-1193.77981508527
 20
206.2091608611649
 30
0.0
 11
-1193.77981508527
 21
734.7378706624718
 31
0.0
  0
ARC
  5
44D
  8
0
  6
CENTER
 62
     4
 10
-1041.979815085271
 20
734.7378706624718
 30
0.0
 40
151.7999999999997
 50
90.0
 51
180.0
  0
DIMENSION
  5
44E
  8
0
  6
CONTINUOUS
  2
*D1
 10
-549.9798150852673
 20
127.5207929683064
 30
0.0
 11
-936.0298150852689
 21
127.5207929683064
 31
0.0
 70
   160
  1
<>{}{ ±2}
  3
DC_ROTATED
 13
-1218.07981508527
 23
-44.31796872563348
 33
0.0
 14
-549.9798150852673
 24
-191.3179687256339
 34
0.0
1001
ACAD
1000
DSTYLE
1002
{
1070
     7
1000
OPEN30
1070
     6
1000
OPEN30
1070
   274
1070
     4
1070
    41
1040
24.00180816650391
1070
    79
1070
     2
1070
   176
1070
     4
1070
   177
1070
     9
1070
   178
1070
    30
1070
   271
1070
     1
1070
    44
1040
8.0
1070
    42
1040
8.0
1070
   147
1040
7.999999999999986
1070
   173
1070
     1
1070
    77
1070
     3
1070
    73
1070
     0
1070
    48
1040
2.0
1070
   172
1070
     1
1070
    74
1070
     0
1070
   283
1070
     0
1070
    47
1040
2.0
1070
   340
1005
E5
1070
   140
1040
40.0
1070
   284
1070
     8
1070
   288
1070
     1
1070
    78
1070
     8
1070
    90
1070
     1
1002
}
  0
DIMENSION
  5
450
  8
0
  6
CONTINUOUS
  2
*D5
 10
-250.3084820236826
 20
127.5207929683064
 30
0.0
 11
31.74151797631879
 21
127.5207929683064
 31
0.0
 70
   160
  1
<>{}{ ±2}
  3
DC_ROTATED
 13
417.7915179763201
 23
-44.31796872563348
 33
0.0
 14
-250.3084820236826
 24
-191.3179687256339
 34
0.0
1001
ACAD
1000
DSTYLE
1002
{
1070
     7
1000
OPEN30
1070
     6
1000
OPEN30
1070
   274
1070
     4
1070
    41
1040
24.00180816650391
1070
    79
1070
     2
1070
   176
1070
     4
1070
   177
1070
     9
1070
   178
1070
    30
1070
   271
1070
     1
1070
    44
1040
8.0
1070
    42
1040
8.0
1070
   147
1040
7.999999999999986
1070
   173
1070
     1
1070
    77
1070
     3
1070
    73
1070
     0
1070
    48
1040
2.0
1070
   172
1070
     1
1070
    74
1070
     0
1070
   283
1070
     0
1070
    47
1040
2.0
1070
   340
1005
E5
1070
   140
1040
40.0
1070
   284
1070
     8
1070
   288
1070
     1
1070
    78
1070
     8
1070
    90
1070
     1
1002
}
  0
DIMENSION
  5
451
  8
0
  6
CONTINUOUS
  2
*D6
 10
583.8572415400284
 20
-17.01796872563325
 30
0.0
 11
583.8572415400284
 21
-367.0179687256338
 31
0.0
 70
   160
  3
DC_ROTATED
 13
438.4915179763208
 23
-717.0179687256342
 33
0.0
 14
393.4915179763208
 24
-17.01796872563328
 34
0.0
 50
90.0
1001
ACAD
1000
DSTYLE
1002
{
1070
     7
1000
OPEN30
1070
     6
1000
OPEN30
1070
   274
1070
     4
1070
    41
1040
24.00180816650391
1070
    79
1070
     2
1070
   176
1070
     4
1070
   177
1070
     9
1070
   178
1070
    30
1070
   271
1070
     1
1070
    44
1040
8.0
1070
    42
1040
8.0
1070
   147
1040
8.0
1070
   173
1070
     1
1070
    77
1070
     3
1070
    73
1070
     0
1070
   172
1070
     1
1070
    74
1070
     0
1070
   283
1070
     0
1070
   340
1005
E5
1070
   140
1040
40.0
1070
   284
1070
     8
1070
   288
1070
     1
1070
    78
1070
     8
1070
    90
1070
     1
1002
}
  0
DIMENSION
  5
452
  8
0
  6
CONTINUOUS
  2
*D12
 10
688.4443027978931
 20
-17.01796872563321
 30
0.0
 11
688.4443027978931
 21
-519.0179687256336
 31
0.0
 70
   160
  1
<>{}{ ±1}
  3
DC_ROTATED
 13
417.7915179763201
 23
-917.0179687256342
 33
0.0
 14
393.4915179763208
 24
-17.01796872563328
 34
0.0
 50
90.0
1001
ACAD
1000
DSTYLE
1002
{
1070
     7
1000
OPEN30
1070
     6
1000
OPEN30
1070
   274
1070
     4
1070
    41
1040
24.00180816650391
1070
    79
1070
     2
1070
   176
1070
     4
1070
   177
1070
     9
1070
   178
1070
    30
1070
   271
1070
     1
1070
    44
1040
8.0
1070
    42
1040
8.0
1070
   147
1040
8.0
1070
   173
1070
     1
1070
    77
1070
     3
1070
    73
1070
     0
1070
    48
1040
1.0
1070
   172
1070
     1
1070
    74
1070
     0
1070
   283
1070
     0
1070
    47
1040
1.0
1070
   340
1005
E5
1070
   140
1040
40.0
1070
   284
1070
     8
1070
   288
1070
     1
1070
    78
1070
     8
1070
    90
1070
     1
1002
}
  0
DIMENSION
  5
453
  8
LAYER0001
  6
CONTINUOUS
  2
*D2
 10
-724.2798150852702
 20
-191.3179687256339
 30
0.0
 11
-763.4581096849472
 21
-157.5682613768963
 31
0.0
 70
   164
  1
R125.7
  3
DC_RADIAL06
 15
-644.6674812165043
 25
-94.04327368130014
 35
0.0
 40
0.0
1001
ACAD
1000
DSTYLE
1002
{
1070
     7
1000
OPEN30
1070
     6
1000
OPEN30
1070
   274
1070
     4
1070
    41
1040
24.00180816650391
1070
    79
1070
     2
1070
   176
1070
     4
1070
   177
1070
     9
1070
   178
1070
     4
1070
   271
1070
     1
1070
    44
1040
8.0
1070
    42
1040
8.0
1070
   147
1040
8.0
1070
   173
1070
     1
1070
    77
1070
     2
1070
   283
1070
     0
1070
   340
1005
E5
1070
   140
1040
28.0
1070
   284
1070
     8
1070
   288
1070
     1
1070
    78
1070
     8
1070
    90
1070
     1
1002
}
  0
INSERT
  5
455
  8
LAYER0001
  6
CONTINUOUS
  2
DA_IMAGEDIMGROUP_1
 10
0.0
 20
0.0
 30
0.0
  0
DIMENSION
  5
456
  8
LAYER0001
  6
CONTINUOUS
  2
*D7
 10
-76.00848202367973
 20
-191.3179687256339
 30
0.0
 11
-44.62904979115241
 21
-151.941393502009
 31
0.0
 70
   164
  1
R125.7
  3
DC_RADIAL06
 15
-155.9063100252596
 25
-94.27763133632754
 35
0.0
 40
0.0
1001
ACAD
1000
DSTYLE
1002
{
1070
     7
1000
OPEN30
1070
     6
1000
OPEN30
1070
   274
1070
     4
1070
    41
1040
24.00180816650391
1070
    79
1070
     2
1070
   176
1070
     4
1070
   177
1070
     9
1070
   178
1070
     4
1070
   271
1070
     1
1070
    44
1040
8.0
1070
    42
1040
8.0
1070
   147
1040
5.0
1070
   173
1070
     1
1070
    77
1070
     2
1070
   283
1070
     0
1070
   340
1005
E5
1070
   140
1040
28.0
1070
   284
1070
     8
1070
   288
1070
     1
1070
    78
1070
     8
1070
    90
1070
     1
1002
}
  0
INSERT
  5
457
  8
LAYER0001
  6
CONTINUOUS
  2
DA_IMAGEDIMGROUP_2
 10
0.0
 20
0.0
 30
0.0
  0
INSERT
  5
458
  8
LAYER0001
  6
CONTINUOUS
  2
DA_DIMGROUP_0
 10
0.0
 20
0.0
 30
0.0
  0
DIMENSION
  5
459
  8
LAYER0001
  6
CONTINUOUS
  2
*D13
 10
582.4465043567875
 20
-717.0179687256342
 30
0.0
 11
582.4465043567875
 21
-817.0179687256342
 31
0.0
 70
   160
  1
埋設深度<>
  3
DC_ROTATED
 13
417.7915179763201
 23
-917.0179687256342
 33
0.0
 14
522.8435692406352
 24
-717.0179687256342
 34
0.0
 50
90.0
1001
ACAD
1000
DSTYLE
1002
{
1070
     7
1000
OPEN30
1070
     6
1000
OPEN30
1070
   274
1070
     4
1070
    41
1040
24.00180816650391
1070
    79
1070
     2
1070
   176
1070
     4
1070
   177
1070
     4
1070
   178
1070
     4
1070
   271
1070
     1
1070
    44
1040
8.0
1070
    42
1040
8.0
1070
   147
1040
8.0
1070
   173
1070
     1
1070
    77
1070
     3
1070
    73
1070
     0
1070
   172
1070
     1
1070
    74
1070
     0
1070
   283
1070
     0
1070
   340
1005
E5
1070
   140
1040
28.0
1070
   284
1070
     8
1070
   288
1070
     1
1070
    78
1070
     8
1070
    90
1070
     1
1002
}
  0
DIMENSION
  5
45A
  8
LAYER0001
  6
CONTINUOUS
  2
*D14
 10
-494.3018413631434
 20
806.5598969403443
 30
0.0
 11
-804.0518413631435
 21
496.8098969403443
 31
0.0
 70
   160
  3
DC_ROTATED
 13
-1193.77981508527
 23
267.0378706624709
 33
0.0
 14
-574.2798150852702
 24
886.537870662471
 34
0.0
 50
44.99999999999999
1001
ACAD
1000
DSTYLE
1002
{
1070
     7
1000
OPEN30
1070
     6
1000
OPEN30
1070
   274
1070
     4
1070
    41
1040
24.00180816650391
1070
    79
1070
     2
1070
   176
1070
     4
1070
   177
1070
     4
1070
   178
1070
     4
1070
   271
1070
     1
1070
    44
1040
8.0
1070
    42
1040
8.0
1070
   147
1040
8.000000000000025
1070
   173
1070
     1
1070
    77
1070
     3
1070
    73
1070
     0
1070
   172
1070
     1
1070
    74
1070
     0
1070
   283
1070
     0
1070
   340
1005
E5
1070
   140
1040
28.0
1070
   284
1070
     8
1070
   288
1070
     1
1070
    78
1070
     8
1070
    90
1070
     1
1002
}
  0
INSERT
  5
45B
  8
LAYER0013
  6
CONTINUOUS
  2
DC_GROUP_1
 10
0.0
 20
0.0
 30
0.0
  0
LINE
  5
45C
  8
0
  6
CONTINUOUS
 62
     3
 10
-1169.479815085268
 20
-917.0179687256342
 30
0.0
 11
-1218.07981508527
 21
-917.0179687256342
 31
0.0
  0
LINE
  5
45D
  8
0
  6
CONTINUOUS
 62
     3
 10
-549.9798150852673
 20
-917.0179687256342
 30
0.0
 11
-598.5798150852695
 21
-917.0179687256342
 31
0.0
  0
LINE
  5
45E
  8
0
  6
CONTINUOUS
 62
     3
 10
-201.7084820236803
 20
-917.0179687256342
 30
0.0
 11
-250.3084820236825
 21
-917.0179687256342
 31
0.0
  0
LINE
  5
45F
  8
0
  6
CONTINUOUS
 62
     3
 10
417.7915179763201
 20
-917.0179687256342
 30
0.0
 11
369.1915179763179
 21
-917.0179687256342
 31
0.0
  0
DIMENSION
  5
460
  8
LAYER0017
  6
CONTINUOUS
  2
*D10
 10
-574.2798150852702
 20
-1020.683203413711
 30
0.0
 11
-884.0298150852707
 21
-1020.683203413711
 31
0.0
 70
   160
  3
DC_ROTATED
 13
-1193.779815085271
 23
-936.2214600109311
 33
0.0
 14
-574.2798150852702
 24
-936.2214600109311
 34
0.0
1001
ACAD
1000
DSTYLE
1002
{
1070
     7
1000
OPEN30
1070
     6
1000
OPEN30
1070
   274
1070
     4
1070
    41
1040
24.00180816650391
1070
    79
1070
     2
1070
   176
1070
     4
1070
   177
1070
     4
1070
   178
1070
    30
1070
   271
1070
     1
1070
    44
1040
8.0
1070
    42
1040
8.0
1070
   147
1040
8.000000000000227
1070
   173
1070
     1
1070
    77
1070
     3
1070
    73
1070
     0
1070
   172
1070
     1
1070
    74
1070
     0
1070
   283
1070
     0
1070
   340
1005
E5
1070
   140
1040
40.0
1070
   284
1070
     8
1070
   288
1070
     1
1070
    78
1070
     8
1070
    90
1070
     1
1002
}
  0
DIMENSION
  5
461
  8
LAYER0017
  6
CONTINUOUS
  2
*D11
 10
393.4915179763209
 20
-1020.683203413711
 30
0.0
 11
83.74151797632044
 21
-1020.683203413711
 31
0.0
 70
   160
  3
DC_ROTATED
 13
-226.0084820236798
 23
-936.2214600109311
 33
0.0
 14
393.4915179763209
 24
-936.2214600109311
 34
0.0
1001
ACAD
1000
DSTYLE
1002
{
1070
     7
1000
OPEN30
1070
     6
1000
OPEN30
1070
   274
1070
     4
1070
    41
1040
24.00180816650391
1070
    79
1070
     2
1070
   176
1070
     4
1070
   177
1070
     4
1070
   178
1070
    30
1070
   271
1070
     1
1070
    44
1040
8.0
1070
    42
1040
8.0
1070
   147
1040
8.000000000000227
1070
   173
1070
     1
1070
    77
1070
     3
1070
    73
1070
     0
1070
   172
1070
     1
1070
    74
1070
     0
1070
   283
1070
     0
1070
   340
1005
E5
1070
   140
1040
40.0
1070
   284
1070
     8
1070
   288
1070
     1
1070
    78
1070
     8
1070
    90
1070
     1
1002
}
  0
VIEWPORT
  5
B1
 67
     1
  8
0
 10
57.20724548061571
 20
-10.33333333335122
 30
0.0
 40
9415.243472883745
 41
6730.000000000002
 68
     1
 69
     1
1001
ACAD
1000
MVIEW
1002
{
1070
    16
1010
0.0
1020
0.0
1030
0.0
1020
0.0
1030
0.0
1010
0.0
1020
0.0
1030
1.0
1020
0.0
1030
1.0
1040
0.0
1040
6730.000000000002
1040
57.20724548061571
1040
-10.33333333335122
1040
50.0
1040
0.0
1040
0.0
1070
     0
1070
   100
1070
     0
1070
     3
1070
     0
1070
     0
1070
     0
1070
     0
1040
0.0
1040
0.0
1040
0.0
1040
0.5
1040
0.5
1040
0.0
1040
0.0
1070
     0
1002
{
1002
}
1002
}
  0
ENDSEC
  0
EOF
